#TITLE:Flame Stag;
#SUBTITLE:MegaMan  X2;
#ARTIST:Yuki Iwai;
#TITLETRANSLIT:;
#SUBTITLETRANSLIT:;
#ARTISTTRANSLIT:;
#CREDIT:;
#BANNER:Flame Stag.png;
#BACKGROUND:Flame Stag-bg.png;
#LYRICSPATH:;
#CDTITLE:!exige.png;
#MUSIC:Flame Stag.mp3;
#OFFSET:-0.095;
#SAMPLESTART:32.106;
#SAMPLELENGTH:12.000;
#SELECTABLE:YES;
#BPMS:0.000=187.400;
#STOPS:;
#BGCHANGES:;
// cache tags:
#FIRSTBEAT:0.000;
#LASTBEAT:248.500;
#SONGFILENAME:Songs/VGMP 2/Flame Stag (Exige)/Flame Stag.sm;
#HASMUSIC:1;
#HASBANNER:1;
#MUSICLENGTH:91.010;
// end cache tags

//---------------dance-single - ----------------
#NOTES:
     dance-single:
     :
     Hard:
     11:
     1.000,1.000,1.000,0.000,0.846,600.000,274.000,0.000,0.000,0.000:

1100
1001
0000
0000
0000
0000
0000
0000
,
1100
1100
0000
1100
1001
0000
1001
0000
,
1100
0000
1001
0000
0000
0000
1000
0010
1000
0100
0010
0001
0100
0000
0010
0001
,
1000
0000
1001
0000
1100
0000
0010
0100
0010
0001
0010
0001
0010
0001
0010
0001
,
1100
0000
0011
0000
1000
0000
0011
0100
0000
0000
0011
0100
0010
0001
0010
0100
,
1001
0000
0011
0000
1000
0000
0011
0100
0000
0000
0011
0100
0010
0001
0010
0100
,
1001
0000
0011
0000
1000
0000
0011
0100
0000
0000
0011
0100
0010
0001
0010
0100
,
1001
0000
0011
0000
1000
0000
0011
0100
0000
0000
0011
0100
0010
0001
0010
0100
,
1001
1001
1001
1001
0000
0000
1001
1001
1001
1001
0000
0000
,
1001
0000
0100
1001
0000
0000
1001
1001
1001
1001
0000
0000
,
1001
1001
1001
1001
0000
0000
1001
0000
0100
1001
0000
0000
,
1100
0000
0101
0000
0010
0100
1000
0000
0101
0000
1100
0000
0001
0010
0100
0000
,
1001
0000
1100
0000
0001
0010
0100
0000
0011
0000
0110
0000
1000
0001
0010
0000
,
1001
0000
0011
0000
0100
1000
0001
0000
1100
0000
0110
0000
0001
0010
0100
0000
,
0110
0000
0011
0000
1000
0100
0010
0000
1100
0000
0011
0000
0010
0100
0010
0000
,
1001
0000
0011
0000
1000
0100
1000
0000
0110
0000
0011
0000
0100
0010
0100
0000
,
0011
0000
0110
0000
1000
0100
1000
0000
0011
0000
0110
0000
0010
0100
0010
0000
,
0011
0000
0110
0000
1000
0100
1000
0000
0110
0000
0011
0000
0100
0010
0100
0000
,
0011
0000
1100
0000
0010
0100
0010
0000
1100
0000
0011
0000
0100
0010
0100
0010
,
1001
0000
1100
0000
1000
0001
1100
0000
1000
0000
1100
0000
1000
0001
1100
0000
,
1000
0000
1100
0000
1000
0001
1100
0000
1000
0000
1100
0000
1000
0011
1100
0000
,
0100
0000
1100
0000
0100
0010
1100
0000
0100
0000
1100
0000
0100
0010
1100
0000
,
0100
0000
1100
0000
0100
0010
1100
0000
0100
0000
1100
0000
1100
0011
1100
0000
,
0010
0000
1010
0000
0010
0100
1010
0000
0010
0000
1010
0000
0010
0100
1010
0000
,
0010
0000
1010
0000
0010
0100
1010
0000
0010
0000
1010
0000
0010
1100
0011
0000
,
0001
0000
1001
0000
0001
1000
0101
0000
0001
0000
1001
0000
0001
1000
0101
0000
,
0001
0000
1001
0000
0001
1000
0101
0000
0001
0000
1001
0000
0001
1000
0001
1000
,
0011
0000
1100
0000
0001
0010
0001
0000
0110
0000
1100
0000
0001
0010
0001
0000
,
0110
0000
0011
0000
0100
0010
0100
0000
0011
0000
1100
0000
0010
0101
1010
0000
,
1100
0000
0110
0000
0001
0010
0001
0000
1100
0000
0110
0000
0001
0010
0100
0000
,
0011
0000
1100
0000
0100
0010
0001
0000
0110
0000
1001
0000
1100
0011
1100
0000
,
0011
1001
0000
0000
0000
0000
0000
0000
,
0011
0011
0000
0011
1001
0000
1001
0000
,
0011
0000
1001
0000
0000
0000
0001
0100
0001
0010
0100
1000
0010
0000
0100
1000
,
0001
0000
1001
0000
0011
0000
0100
0010
0100
1000
0100
1000
0100
1000
0100
1000
,
0011
0000
1100
0000
0001
0000
1100
0010
0000
0000
1100
0010
0100
1000
0100
0010
,
1001
0000
1100
0000
0001
0000
1100
0010
0000
0000
1100
0010
0100
1000
0100
0010
,
1001
0000
1100
0000
0001
0000
1100
0010
0000
0000
1100
0010
0100
1000
0100
0010
,
1001
0000
1100
0000
0001
0000
1100
0010
0000
0000
1100
0010
0100
1000
0100
0010
,
1001
1001
1001
1001
0000
0000
1001
1001
1001
1001
0000
0000
,
1001
0000
0010
1001
0000
0000
1001
1001
1001
1001
0000
0000
,
1001
1001
1001
1001
0000
0000
1001
0000
0010
1001
0000
0000
,
0011
0000
1010
0000
0100
0010
0001
0000
1010
0000
0011
0000
1000
0100
0010
0000
,
1001
0000
0011
0000
1000
0100
0010
0000
1100
0000
0110
0000
0001
1000
0100
0000
,
1001
0000
1100
0000
0010
0001
1000
0000
0011
0000
0110
0000
1000
0100
0010
0000
,
0110
0000
1100
0000
0001
0010
0100
0000
0011
0000
1100
0000
0100
0010
0100
0000
,
1001
0000
1100
0000
0001
0010
0001
0000
0110
0000
1100
0000
0010
0100
0010
0000
,
1100
0000
0110
0000
0001
0010
0001
0000
1100
0000
0110
0000
0100
0010
0100
0000
,
1100
0000
0110
0000
0001
0010
0001
0000
0110
0000
1100
0000
0010
0100
0010
0000
,
1100
0000
0011
0000
0100
0010
0100
0000
0011
0000
1100
0000
0010
0100
0010
0100
,
1001
0000
0011
0000
0001
1000
0011
0000
0001
0000
0011
0000
0001
1000
0011
0000
,
0001
0000
0011
0000
0001
1000
0011
0000
0001
0000
0011
0000
0001
1100
0011
0000
,
0010
0000
0011
0000
0010
0100
0011
0000
0010
0000
0011
0000
0010
0100
0011
0000
,
0010
0000
0011
0000
0010
0100
0011
0000
0010
0000
0011
0000
0011
1100
0011
0000
,
0100
0000
0101
0000
0100
0010
0101
0000
0100
0000
0101
0000
0100
0010
0101
0000
,
0100
0000
0101
0000
0100
0010
0101
0000
0100
0000
0101
0000
0100
0011
1100
0000
,
1000
0000
1001
0000
1000
0001
1010
0000
1000
0000
1001
0000
1000
0001
1010
0000
,
1000
0000
1001
0000
1000
0001
1010
0000
1000
0000
1001
0000
1000
0001
1000
0001
,
1100
0000
0011
0000
1000
0100
1000
0000
0110
0000
0011
0000
1000
0100
1000
0000
,
0110
0000
1100
0000
0010
0100
0010
0000
1100
0000
0011
0000
0100
1010
0101
0000
,
0011
0000
0110
0000
1000
0100
1000
0000
0011
0000
0110
0000
1000
0100
0010
0000
,
1100
0000
0011
0000
0010
0100
1000
0000
0110
0000
1001
0000
0011
1100
0011
0000
,
0110
1001
0000
0000
0000
0000
0000
0000
;

//---------------dance-single - ----------------
#NOTES:
     dance-single:
     :
     Challenge:
     13:
     1.000,1.000,1.000,0.000,0.846,600.000,296.000,0.000,0.000,0.000:


1100
1001
0000
0000
0000
0000
0000
0000
,
1100
1100
0000
1100
1001
0000
1001
0000
,
1100
0000
1001
0000
0000
0000
0100
0100
1000
1000
0010
0010
0100
0000
0010
0010
,
1000
0000
1001
0000
1100
0000
0010
0010
0010
0010
0010
0010
0010
0010
0010
0010
,
1100
0000
0011
0000
1000
0000
0011
0100
0000
0000
0011
0100
0010
0010
0010
0100
,
1001
0000
0011
0000
1000
0000
0011
0100
0000
0000
0011
0100
0010
0010
0010
0010
,
1001
0000
0011
0000
1000
0000
0011
0100
0000
0000
0011
0100
0010
0010
0010
0100
,
1001
0000
0011
0000
1000
0000
0011
0100
0000
0000
0011
0100
0010
0010
0010
0100
,
1001
1001
1001
1001
0000
0000
1001
1001
1001
1001
0000
0000
,
1001
0000
0100
1001
0000
0000
1001
1001
1001
1001
0000
0000
,
1001
1001
1001
1001
0000
0000
1001
0000
0100
1001
0000
0000
,
1100
0000
0101
0000
0010
0010
0010
0000
0101
0000
1100
0000
0001
0001
0001
0000
,
1001
0000
1100
0000
0001
0001
0001
0000
0011
0000
0110
0000
1000
1001
1001
0000
,
1001
0000
0011
0000
0100
0100
0100
0000
1100
0000
0110
0000
0001
0001
0001
0000
,
0110
0000
0011
0000
1000
1000
1000
0000
1100
0000
0011
0000
0110
0110
0110
0000
,
1001
0000
0011
0000
1000
1000
1000
0000
0110
0000
0011
0000
0100
0100
0100
0000
,
0011
0000
0110
0000
1000
1000
1000
0000
0011
0000
0110
0000
0010
1010
1010
0000
,
0011
0000
0110
0000
1000
1000
1000
0000
0110
0000
0011
0000
0100
0100
0100
0000
,
0011
0000
1100
0000
0010
0010
0010
0000
1100
0000
0011
0000
0110
0110
0110
0110
,
1001
0000
1100
0000
1000
1000
1100
0000
1000
0000
1100
0000
1000
1000
1100
0000
,
1000
0000
1100
0000
1000
1000
1100
0000
1000
0000
1100
0000
1000
1001
1001
0000
,
0100
0000
1100
0000
0100
0100
1100
0000
0100
0000
1100
0000
0100
0100
1100
0000
,
0100
0000
1100
0000
0100
0100
1100
0000
0100
0000
1100
0000
1100
1100
1100
0000
,
0010
0000
1010
0000
0010
0010
1010
0000
0010
0000
1010
0000
0010
0010
1010
0000
,
0010
0000
1010
0000
0010
0010
1010
0000
0010
0000
1010
0000
0010
1010
0011
0000
,
0001
0000
1001
0000
0001
0001
0101
0000
0001
0000
1001
0000
0001
0001
0101
0000
,
0001
0000
1001
0000
0001
0001
0101
0000
0001
0000
1001
0000
0001
0001
0001
0001
,
0011
0000
1100
0000
0001
0001
0001
0000
0110
0000
1100
0000
0001
0001
0001
0000
,
0110
0000
0011
0000
0100
0100
0100
0000
0011
0000
1100
0000
0100
0110
1100
0000
,
1100
0000
0110
0000
0001
0001
0001
0000
1100
0000
0110
0000
0001
0001
0001
0000
,
0011
0000
1100
0000
0100
0100
0100
0000
0110
0000
1001
0000
1100
1100
1100
0000
,
0011
1001
0000
0000
0000
0000
0000
0000
,
0011
0011
0000
0011
1001
0000
1001
0000
,
0011
0000
1001
0000
0000
0000
0010
0010
0001
0001
0100
0100
0010
0000
0100
0100
,
0001
0000
1001
0000
0011
0000
0100
0100
0100
0100
0100
0100
0100
0100
0100
0100
,
0011
0000
1100
0000
0001
0000
1100
0010
0000
0000
1100
0010
0100
0100
0100
0010
,
1001
0000
1100
0000
0001
0000
1100
0010
0000
0000
1100
0010
0100
0100
0100
0100
,
1001
0000
1100
0000
0001
0000
1100
0010
0000
0000
1100
0010
0100
0100
0100
0010
,
1001
0000
1100
0000
0001
0000
1100
0010
0000
0000
1100
0010
0100
0100
0100
0010
,
1001
1001
1001
1001
0000
0000
1001
1001
1001
1001
0000
0000
,
1001
0000
0010
1001
0000
0000
1001
1001
1001
1001
0000
0000
,
1001
1001
1001
1001
0000
0000
1001
0000
0010
1001
0000
0000
,
0011
0000
1010
0000
0100
0100
0100
0000
1010
0000
0011
0000
1000
1000
1000
0000
,
1001
0000
0011
0000
1000
1000
1000
0000
1100
0000
0110
0000
0001
1001
1001
0000
,
1001
0000
1100
0000
0010
0010
0010
0000
0011
0000
0110
0000
1000
1000
1000
0000
,
0110
0000
1100
0000
0001
0001
0001
0000
0011
0000
1100
0000
0110
0110
0110
0000
,
1001
0000
1100
0000
0001
0001
0001
0000
0110
0000
1100
0000
0010
0010
0010
0000
,
1100
0000
0110
0000
0001
0001
0001
0000
1100
0000
0110
0000
0100
0101
0101
0000
,
1100
0000
0110
0000
0001
0001
0001
0000
0110
0000
1100
0000
0010
0010
0010
0000
,
1100
0000
0011
0000
0100
0100
0100
0000
0011
0000
1100
0000
0110
0110
0110
0110
,
1001
0000
0011
0000
0001
0001
0011
0000
0001
0000
0011
0000
0001
0001
0011
0000
,
0001
0000
0011
0000
0001
0001
0011
0000
0001
0000
0011
0000
0001
1001
1001
0000
,
0010
0000
0011
0000
0010
0010
0011
0000
0010
0000
0011
0000
0010
0010
0011
0000
,
0010
0000
0011
0000
0010
0010
0011
0000
0010
0000
0011
0000
0011
0011
0011
0000
,
0100
0000
0101
0000
0100
0100
0101
0000
0100
0000
0101
0000
0100
0100
0101
0000
,
0100
0000
0101
0000
0100
0100
0101
0000
0100
0000
0101
0000
0100
0101
1100
0000
,
1000
0000
1001
0000
1000
1000
1010
0000
1000
0000
1001
0000
1000
1000
1010
0000
,
1000
0000
1001
0000
1000
1000
1010
0000
1000
0000
1001
0000
1000
1000
1000
1000
,
1100
0000
0011
0000
1000
1000
1000
0000
0110
0000
0011
0000
1000
1000
1000
0000
,
0110
0000
1100
0000
0010
0010
0010
0000
1100
0000
0011
0000
0010
0110
0011
0000
,
0011
0000
0110
0000
1000
1000
1000
0000
0011
0000
0110
0000
1000
1000
1000
0000
,
1100
0000
0011
0000
0010
0010
0010
0000
0110
0000
1001
0000
0011
0011
0011
0000
,
0110
1001
0000
0000
0000
0000
0000
0000
;
