#TITLE:Sending Postcards from a Plane Crash;
#SUBTITLE:(wish you were here);
#ARTIST:Fall Out Boy;
#TITLETRANSLIT:;
#SUBTITLETRANSLIT:;
#ARTISTTRANSLIT:;
#CREDIT:;
#BANNER:bn.png;
#BACKGROUND:bg.png;
#LYRICSPATH:;
#CDTITLE:;
#MUSIC:Fall Out Boy - Sending Postcards From A Plane  Crash (Wish You Were Here).mp3;
#OFFSET:-0.030;
#SAMPLESTART:30.650;
#SAMPLELENGTH:18.000;
#SELECTABLE:YES;
#BPMS:0.000=105.000,148.000=210.000,270.500=26.250,271.500=210.000,328.000=52.500,343.750=105.000,360.500=210.000;
#STOPS:18.000=1.500
;
#BGCHANGES:;
// cache tags:
#FIRSTBEAT:2.000;
#LASTBEAT:388.500;
#SONGFILENAME:Songs/toune/00post/7m.sm;
#HASMUSIC:1;
#HASBANNER:1;
#MUSICLENGTH:176.808;
// end cache tags

//---------------dance-single - Blank----------------
#NOTES:
     dance-single:
     Blank:
     Hard:
     9:
     0.607,0.906,0.554,0.288,0.147,602.000,98.000,51.000,0.000,3.000:

0000
0000
0000
0000
0010
0010
0100
0100
,
1000
1000
1100
0101
0100
0100
1000
1000
,
0100
0010
0011
1100
1100
0110
0001
0110
,
1100
0110
1010
0010
0100
0100
1000
1000
,
0100
0001
0001
0010
1100
0000
1100
0001
,
0010
0100
1000
1100
0100
0100
0010
0000
,
0011
0010
1100
0101
0010
0010
0100
0100
,
1000
1000
0001
0001
0010
0010
0100
1000
,
1100
0101
0010
0010
1100
1010
0100
0100
,
1000
1000
0100
0100
0010
0000
0001
1100
,
0100
0010
0110
0100
1000
1000
1100
0101
,
0010
0010
0100
0100
1000
1000
0100
0100
,
0010
0001
0001
0001
0001
0001
2002
0000
,
0000
3000
0200
1300
0200
0000
0303
0100
,
2100
0100
0010
0100
3002
0000
0000
0000
,
0003
0000
0001
0000
0000
0000
0000
0010
0000
0000
0000
1000
0100
1000
0100
0000
,
0000
0010
0001
0010
0100
0000
1000
0000
0000
0100
0000
0100
0000
0100
0000
0100
,
0000
0000
1000
0000
0100
0010
0001
0010
,
0100
1000
1000
0100
0000
0000
1100
0101
,
0010
0100
0000
0100
0000
0000
1000
1000
,
0100
0010
0001
0100
0100
1100
0100
1000
,
1000
0100
0100
0010
0001
0010
0010
0100
,
1000
1100
0101
0010
0011
1010
1100
1100
,
0010
0100
0010
1010
1100
0101
1100
0100
,
0010
0001
0010
1100
1010
0101
1010
1100
,
0011
1100
0010
0001
0010
0100
1000
0100
,
0100
1000
0100
1010
0101
0001
0011
0010
,
0100
1100
1010
0100
0010
0100
0100
1000
,
1000
0100
0100
1000
1000
0100
0100
0100
,
0100
0100
0100
0100
0100
1000
0001
0001
,
0010
0100
1000
1000
0100
1000
0100
0010
,
0001
0010
0100
0010
0001
0010
0100
0010
,
0001
0010
0100
0010
0001
0001
1000
1000
,
0100
0000
0100
0000
0010
0000
0000
0000
1000
0100
0000
0010
1100
0000
0000
0010
,
0100
0010
0001
0000
0010
0000
0000
0000
1000
0000
1000
0000
0100
0000
0010
0000
,
0001
0001
1000
0001
1001
0010
1010
0100
,
0100
0010
0001
0010
0100
0100
0100
0100
,
1000
0000
0001
0010
0000
0100
2000
0000
,
0000
0000
0100
0000
3100
0010
0000
0002
,
0000
0010
0000
0100
0000
2000
0000
0000
,
0000
0000
0000
0000
0000
3003
0000
2002
,
0000
0000
0003
0010
0000
0000
3000
0100
,
1000
0100
1000
0000
0000
0010
0001
0010
,
0100
0000
1000
0000
0100
0100
0000
1100
,
0000
1100
0000
1100
0000
0101
0000
0101
,
0000
0020
0000
0100
0000
2030
0000
0100
,
0000
3010
0000
0002
0010
0200
0000
0000
,
0300
2000
0000
0000
0000
0000
0000
3003
,
1010
0100
1000
1100
0000
0002
0000
0010
,
0000
0000
0200
0000
0000
0000
0003
0300
,
1100
0000
0000
1010
0101
0000
0010
0000
,
0200
0000
0000
1000
,
1000
0300
0000
0200
0000
0001
0002
0300
,
0010
0000
0200
0000
0000
0000
0000
0303
,
0100
0000
0100
0000
1000
0000
0100
1000
,
0000
0100
0010
0000
0001
0010
0200
0000
,
2000
0000
0000
0000
,
0000
0000
3300
1100
,
0101
0100
0100
0010
,
0100
1000
0100
1000
0010
0001
0010
0000
,
0010
0100
0200
1000
,
2000
0300
0020
0000
0000
0000
3030
0000
,
0010
0010
0000
0000
1000
0100
0000
1000
,
0100
0010
0000
0001
0010
0100
1000
0000
,
0010
0010
0100
1000
,
1000
0000
0100
0000
1000
0000
1100
0101
,
0000
0001
0010
0000
0010
0010
0000
0100
,
0000
0000
0000
0000
0000
0000
0000
0000
1000
0000
0000
0000
0000
0000
0000
0000
0001
0000
0000
0000
0000
0000
0000
0000
0010
0000
0000
0000
0000
0000
0000
0000
0100
0000
0000
0000
0000
0000
0000
0000
1000
0000
0001
0010
0000
1100
0000
1100
0010
0000
0000
0010
0100
1000
0000
0010
0001
0000
0000
0000
0000
0000
0000
0000
,
0000
0000
1100
0010
0000
0100
1000
0100
,
1000
0010
0100
0010
0001
0010
0100
1000
,
0010
0100
1000
1100
0010
0100
1000
0010
,
0001
0010
0000
1100
0010
0001
0010
0000
,
1000
0100
0010
0001
0010
0100
1000
0001
,
0010
0100
1000
0010
0100
0000
0010
0100
,
1000
0010
0100
0010
0001
0010
0100
0000
,
0010
0100
1000
0010
0100
0010
0001
0000
,
0000
0110
0100
1000
0010
0100
0010
0001
,
0000
0010
1100
0010
0000
1100
1000
0010
,
0001
0010
0100
1100
0000
0010
0100
0010
,
0001
0010
0100
0000
0101
0010
0100
0000
,
1010
1000
0100
0010
0001
0000
0010
0100
,
1000
0010
1010
0100
1000
0010
0001
0020
,
0000
0000
0000
0000
0030
0000
1000
0000
0000
2000
0000
0000
0200
0000
0000
0000
0000
0000
0300
0000
0100
0000
0000
0100
0000
0100
0000
3002
0010
0000
0200
0000
,
0000
0000
0300
1000
0200
0000
0000
0000
0000
0000
0300
0000
0100
0000
2000
0000
0003
0010
0000
0000
0200
0000
0000
0000
3300
0000
0100
0000
0100
1000
1100
0010
,
0000
0001
0010
0000
0200
0000
1000
0000
2000
0000
0300
0020
0000
0000
0000
0000
0000
0030
0000
0000
0010
0000
0000
0010
0000
0000
3002
0010
0000
0200
0000
0000
,
1300
0000
0003
0010
2000
0000
0000
0000
0000
0000
0000
0010
3000
0000
2010
0000
0200
0000
3000
0302
0000
0000
0000
0000
0000
0010
0000
1103
0010
0000
0100
0000
,
0000
2000
0000
0100
0100
3000
0020
0030
,
0001
0010
1100
0110
0011
0010
1100
0010
,
0011
0000
1100
0000
0000
0000
1100
0000
1100
0000
2200
0000
3300
0010
0001
0010
,
0100
0000
0000
0000
1100
0000
0010
0000
1100
0000
0010
0000
0001
0020
0000
0000
,
0000
0030
2000
0000
,
0000
0100
0000
0000
3100
0000
0010
0001
,
0000
0110
1000
0000
0010
0100
1010
0001
,
0000
0010
1000
0001
0010
1000
0001
0010
,
1000
0001
0010
1000
0001
0000
0010
0001
,
0010
0000
1100
0010
0000
0001
0010
0001
,
0100
1000
0010
0001
0010
0000
0200
0000
,
0000
0300
0000
0000
0000
0000
0000
0000
;
