#TITLE:Baby, Please Kill Me;
#SUBTITLE:;
#ARTIST:In_Chiki;
#TITLETRANSLIT:;
#SUBTITLETRANSLIT:;
#ARTISTTRANSLIT:;
#CREDIT:;
#BANNER:../_bn-1.png;
#BACKGROUND:../bg-1.png;
#LYRICSPATH:;
#CDTITLE:;
#MUSIC:Baby, Please Kill Me.ogg;
#OFFSET:2.602;
#SAMPLESTART:111.236;
#SAMPLELENGTH:21.800;
#SELECTABLE:YES;
#BPMS:0.000=175.000;
#STOPS:;
#BGCHANGES:;
// cache tags:
#FIRSTBEAT:8.000;
#LASTBEAT:1036.250;
#SONGFILENAME:Songs/Index Tournament 1/Baby, Please Kill Me/Baby, Please Kill Me.sm;
#HASMUSIC:1;
#HASBANNER:1;
#MUSICLENGTH:354.089;
// end cache tags

//---------------dance-single - Happy Feet----------------
#NOTES:
     dance-single:
     Happy Feet:
     Challenge:
     14:
     1.000,1.000,0.116,0.429,1.000,2922.000,41.000,152.000,29.000,0.000:

0000
0000
0000
0000
,
0000
0000
0000
0000
,
1000
0000
0000
0000
0100
0000
1000
0000
0000
0000
1000
0000
0001
0000
1000
0100
,
1000
0001
0100
0000
0001
0100
0001
0000
1000
0100
0010
0000
0001
1000
0001
0000
,
1000
0000
0000
0000
1010
0000
0000
0000
0000
0000
1000
0000
0100
0000
0010
0001
,
1000
1001
0001
1100
,
1000
0000
0000
0000
0001
0000
0010
0000
0000
0000
0010
0000
0100
0000
1000
0001
,
0100
0010
1000
0000
0001
0010
0001
0000
1000
0010
0100
0000
0001
1000
0001
0000
,
1000
0000
0000
0000
0100
0000
0000
0000
0000
0000
0010
0000
0001
0000
1000
0010
,
0100
0101
0001
1001
,
1000
0000
1000
0100
0010
0000
0001
0000
0000
0000
0001
0000
0100
0000
0010
1000
,
0001
1000
1100
0200
0300
0000
0110
0020
,
0031
0000
0001
1000
0100
0000
1000
0000
0100
0000
1000
0000
0100
0000
0100
1000
,
0001
0000
0000
0000
0200
0000
0000
0300
0101
0000
0000
0000
0002
0000
0000
0000
1003
0000
0000
0000
0000
0000
0000
0000
1010
0000
0000
0000
0010
0000
0000
0000
,
1000
0000
1000
0001
0010
0000
0100
0000
1000
0000
0001
0000
0100
0000
0001
0000
,
1000
0000
0100
0000
1000
0000
0001
0000
0010
0000
0000
0001
0000
0000
1000
0000
,
0001
0100
0001
1000
0001
1000
0010
0100
0001
1000
0100
1000
0001
0010
0001
1000
,
0M00
0M00
0M00
0M00
0M00
0M00
0M00
0M00
0M00
0M00
0M00
0M00
0M00
0M00
0M00
0M00
,
0001
0010
0001
1000
0010
0100
0001
1000
0001
0100
0010
1000
0001
0010
0001
0100
,
0010
1000
0100
0010
0001
1000
0100
1000
0001
1000
0010
0100
0001
1000
0100
1000
,
0001
0010
0001
1000
0010
0100
0001
1000
0001
1000
0100
0010
0001
1000
0010
1000
,
0001
0100
0010
1000
0100
0010
0001
1000
0100
1000
0001
0010
0001
0100
0010
1000
,
0001
1000
0100
0010
0001
1000
0100
1000
0001
0010
0001
1000
0010
0100
0001
1000
,
0001
0100
0010
1000
0100
0010
0001
1000
0100
1000
0001
1000
0010
0100
0001
1000
,
0001
0010
0100
1000
0001
0010
0001
1000
0100
1000
0001
1000
0010
0100
0001
1000
,
0100
1000
0001
0010
0001
1000
0100
1000
0001
0100
0010
1000
0100
0010
0001
1000
,
0100
1000
0001
1000
0010
0100
0001
1000
0100
1000
0001
0010
0001
1000
0001
0100
,
0010
1000
0001
0010
0001
1000
0010
0100
0001
1000
0100
1000
0001
1000
0010
0100
,
0001
1000
0001
0010
0100
1000
0001
0010
0001
1000
0010
1000
0001
0100
0010
1000
,
0001
1000
0100
0010
0001
1000
0100
1000
0001
0010
0001
1000
0010
0100
0001
1000
,
0100
1000
0001
0010
0001
1000
0010
1000
0001
0100
0010
1000
0001
1000
0100
1000
,
0010
0100
0001
1000
0100
1000
0001
0010
0001
1000
0100
1000
0001
1000
0010
0100
,
0001
1000
0001
0010
0100
1000
0001
0010
0001
1000
0010
0100
0001
1000
0001
0010
,
0100
1000
0001
0010
0001
1000
0010
1000
0001
0100
0001
1000
0100
1000
0001
0010
,
0001
1000
0010
0100
0001
1000
0001
0010
0100
1000
0001
0100
0001
1000
0100
0010
,
0001
1000
0001
0100
0010
1000
0100
0010
0001
1000
0010
1000
0001
0010
0001
1000
,
0100
1000
0001
1000
0010
0100
0001
1000
0100
1000
0001
0010
0001
1000
0010
0100
,
0001
1000
0001
0010
0100
1000
0001
0010
0001
1000
0100
1000
0001
0100
0001
1000
,
0010
0100
0001
1000
0100
1000
0001
0010
0001
1000
0100
1000
0001
0100
0010
1000
,
0001
1000
0100
0010
0001
1000
0100
1000
0001
0010
0001
1000
0010
0100
0001
1000
,
0001
0010
0100
1000
0001
0010
0001
1000
0010
1000
0001
0100
0001
1000
0100
0010
,
0001
1000
0001
0100
0010
1000
0001
0010
0001
1000
0010
0100
0001
1000
0100
1000
,
0001
1000
0010
0100
0001
1000
0100
1000
0001
0010
0001
1000
0010
0100
0001
1000
,
0100
1000
0001
1000
0010
0100
0001
1000
0100
1000
0001
0010
0001
1000
0001
0100
,
0010
1000
0100
0010
0001
1000
0100
1000
0001
0100
0001
1000
0001
0010
0100
1000
,
0001
0010
0001
1000
0010
1000
0001
0100
0010
1000
0001
1000
0100
0010
0001
1000
,
0100
1000
0001
0100
0001
1000
0001
0010
0100
1000
0010
0100
0001
1000
0100
1000
,
0001
0010
0001
1000
0001
0100
0010
1000
0100
1000
0001
1000
0010
0100
0001
1000
,
0100
1000
0001
0010
0001
1000
0001
0100
0010
1000
0100
0010
0001
1000
0100
1000
,
0001
0010
0001
1000
0001
0100
0010
1000
0100
0010
0001
1000
0100
1000
0001
0100
,
0002
0003
0000
0000
0000
0000
0000
0000
0000
0000
0000
0000
0000
0000
0000
0000
0000
0000
0000
0000
0000
0000
0000
0000
0000
0000
0000
0000
0000
0000
0000
0000
,
0000
0000
0000
0000
,
2002
3003
0000
0000
0000
0000
0000
0000
0000
0000
0000
0000
0000
0000
0000
0000
0000
0000
0000
0000
0000
0000
0000
0000
0000
0000
0000
0000
0000
0000
0000
0000
,
0000
0000
0000
0000
,
2002
3003
0000
0000
0000
0000
0000
0000
0000
0000
0000
0000
0000
0000
0000
0000
0000
0000
0000
0000
0000
0000
0000
0000
0000
0000
0000
0000
0000
0000
0000
0000
,
2002
3003
0000
0000
0000
0000
0000
0000
0000
0000
0000
0000
0000
0000
0000
0000
0022
0033
0000
0000
0000
0000
0000
0000
0000
0000
0000
0000
0000
0000
0000
0000
,
2200
3300
0000
0000
0000
0000
0000
0000
0000
0000
0000
0000
0000
0000
0000
0000
0000
0000
0000
0000
0000
0000
0000
0000
0000
0000
0000
0000
0000
0000
0000
0000
,
2002
3003
0000
0000
0000
0000
0000
0000
0000
0000
0000
0000
0000
0000
0000
0000
0000
0000
0000
0000
0000
0000
0000
0000
0000
0000
0000
0000
0000
0000
0000
0000
,
0202
0303
0000
0000
0000
0000
0000
0000
0000
0000
0000
0000
0000
0000
0000
0000
0000
0000
0000
0000
0000
0000
0000
0000
0000
0000
0M00
0000
0000
0000
0000
0000
,
2020
3030
0000
0000
0000
0000
0000
0000
0000
0000
0000
0000
0000
0000
0000
0000
0000
0000
0000
0000
0000
0000
0000
0000
0000
0000
0000
0000
0000
0000
0000
0000
,
0202
0303
0000
0000
0000
0000
0000
0000
0000
0000
0000
0000
0000
0000
0000
0000
2002
3003
0000
0000
0000
0000
0000
0000
0000
0000
0000
0000
0000
0000
0000
0000
,
2200
3300
0000
0000
0000
0000
0000
0000
0000
0000
0000
0000
0000
0000
0000
0000
0220
0330
0000
0000
0000
0000
0000
0000
0000
0000
0000
0000
0000
0000
0000
0000
,
0022
0033
0000
0000
0000
0000
0000
0000
0010
0000
0000
0000
0000
0000
0000
0000
0100
0000
0000
0000
0000
0000
0000
0000
1000
0000
0000
0000
0000
0000
0000
0000
,
2002
3003
0000
0000
0001
0000
0000
0000
0100
0000
0000
0000
0001
0000
0000
0000
0010
0000
0000
0000
0100
0000
0000
0000
1000
0000
0000
0000
0010
0000
0000
0000
,
0200
0300
0010
0000
0100
0000
0001
0000
1000
0000
0100
0000
0010
0000
0001
0000
1000
0000
0100
0000
1000
0000
0010
0000
0100
0000
0001
0000
1000
0000
0001
0000
,
0040
0030
0100
1000
0004
0003
0100
0001
4000
3000
0010
0100
0004
0003
1000
0100
,
0010
0000
0100
0000
1000
0000
0100
1000
0001
1000
0010
0100
0001
0000
1000
0000
,
0001
0100
0001
1000
0001
0010
0100
1000
0001
0010
0001
1000
0010
1000
0001
0100
,
0001
1000
0100
0010
0001
0100
0001
1000
0100
0000
0000
0000
1000
0001
1000
0001
,
0100
0010
1000
0001
0010
0001
1000
0010
0100
0001
1000
0100
1000
0001
0010
0001
,
1000
0001
0100
0010
1000
0100
0010
0001
1000
0100
1000
0001
1000
0010
0100
0001
,
1000
0100
1000
0001
0100
0010
1000
0001
0100
0001
1000
0010
1000
0100
0010
0001
,
1000
0001
0100
0010
1000
0001
0010
0001
1000
0000
0000
0000
0001
0010
0001
1000
,
0001
0100
0010
1000
0001
1000
0100
0010
0001
1000
0100
1000
0001
0100
0001
1000
,
0010
1000
0001
0100
0010
1000
0100
0010
0001
1000
0100
1000
0001
1000
0010
0100
,
0001
1000
0100
1000
0001
0010
0001
1000
0010
0100
0001
1000
0100
0010
0001
1000
,
0001
0100
0010
1000
0100
1000
0001
0100
0001
0000
0000
0000
1000
0100
1000
0001
,
1000
0010
0100
0001
1000
0001
0010
0001
1000
0010
0100
0001
1000
0100
1000
0010
,
0100
0001
1000
0001
0010
0100
1000
0001
0010
0001
1000
0010
0100
0001
1000
0001
,
0010
0100
1000
0001
0010
0001
1000
0010
0100
0001
1000
0100
1000
0001
0100
0010
,
1000
0001
0010
0001
1000
0100
0010
0001
1000
0000
0000
0000
0001
0100
0001
1000
,
0100
1000
0001
0100
0001
1000
0010
0100
0001
0010
0100
1000
0001
0100
0001
1000
,
0400
0300
0000
0000
0400
0300
0000
0000
0400
0300
0000
0000
0400
0300
0000
0000
,
1000
0100
0010
0001
1000
0010
0100
0001
1000
0100
1000
0001
0010
0001
1000
0010
,
0100
0001
1000
0100
0010
0001
1000
0010
0100
0001
1000
0100
1000
0001
0010
0001
,
1000
0001
0100
0010
1000
0100
1000
0001
0010
0001
1000
0010
0100
0001
1000
0100
,
1000
0001
1000
0010
0100
0001
1000
0001
0010
0001
1000
0010
0100
0001
1000
0100
,
0010
0001
1000
0100
1000
0001
0010
0001
1000
0010
0100
0001
1000
0100
1000
0001
,
1000
0010
0100
0001
1000
0001
0010
0100
1000
0001
0010
0001
1000
0100
1000
0001
,
0100
0010
1000
0100
0010
0001
1000
0100
1000
0001
0010
0001
1000
0010
1000
0001
,
0100
0001
1000
0100
1000
0001
1000
0010
0100
0001
1000
0001
0010
0001
0100
0010
,
1000
0100
0010
0001
1000
0100
1000
0001
0010
0001
1000
0010
0100
0001
1000
0100
,
1000
0001
0010
0001
1000
0010
0100
0001
0010
0100
1000
0001
0010
0001
1000
0010
,
0100
0001
1000
0100
1000
0001
1000
0010
0100
0001
1000
0100
1000
0001
0010
0001
,
1000
0010
0100
0001
1000
0100
1000
0001
1000
0010
0100
0001
1000
0001
0010
0100
,
1000
0010
0100
0001
1000
0100
0010
0001
1000
0010
1000
0001
1000
0010
0100
0001
,
1000
0100
1000
0001
0010
0001
0100
0010
1000
0001
1000
0100
0010
0001
1000
0100
,
1000
0001
0010
0001
1000
0010
0100
0001
1000
0100
1000
0010
0100
0001
0010
0100
,
2000
3000
0000
0000
0000
0000
0000
0000
0000
0000
0000
0000
0000
0000
0000
0000
0001
0000
0000
0000
0001
0000
1000
0000
0100
0000
0000
0000
1000
0000
0000
0000
,
0001
1000
0001
0010
0100
1000
0010
0100
0001
1000
0100
0010
0001
1000
0010
0100
,
0001
1000
0100
0010
0001
1000
0010
0100
0001
1000
0100
1000
0001
0010
0001
1000
,
0010
0100
0001
0010
0001
1000
0010
0100
0001
1000
0100
1000
0001
0010
0001
1000
,
0010
0100
0001
1000
0100
0010
0001
1000
0010
1000
0100
1000
0001
0010
0001
0100
,
0010
1000
0100
1000
0001
0010
0001
1000
0010
0100
0001
1000
0100
0010
0001
1000
,
0100
1000
0001
0010
0001
1000
0010
0100
0001
1000
0100
0010
0001
1000
0010
1000
,
0001
0010
0001
1000
0010
1000
0100
1000
0001
0010
0001
1000
0010
0100
0001
1000
,
0100
0010
0001
1000
0010
0100
0001
1000
0100
1000
0010
1000
0001
0010
0001
1000
,
0010
0100
0001
1000
0100
1000
0001
0010
0001
1000
0010
1000
0100
1000
0001
1000
,
0010
0100
0001
1000
0001
0100
0001
1000
0100
1000
0001
0010
0001
1000
0010
0100
,
0001
1000
0100
1000
0001
0010
0001
1000
0010
1000
0100
1000
0001
0010
0001
1000
,
0010
0100
0001
1000
0100
0010
0001
1000
0010
1000
0100
1000
0001
0010
0001
1000
,
0010
1000
0100
1000
0001
0010
0001
0100
0001
1000
0010
0100
0001
1000
0100
0010
,
0001
1000
0001
0010
0001
1000
0010
0100
0001
1000
0100
0010
0001
1000
0010
0100
,
0001
1000
0100
0010
0001
1000
0010
0100
0001
1000
0010
1000
0100
1000
0001
0010
,
0001
1000
0010
0100
0001
1000
0100
1000
0001
0010
0001
1000
0010
1000
0100
0010
,
0001
1000
0010
0100
0001
1000
0100
0010
0001
1000
0001
0010
0001
0100
0001
1000
,
0010
1000
0100
1000
0001
0010
0001
1000
0010
1000
0100
1000
0001
0010
0001
1000
,
0001
0100
0001
1000
0010
1000
0100
0010
0001
1000
0010
0100
0001
1000
0100
0010
,
0001
0100
0001
1000
0010
1000
0100
1000
0001
0010
0001
1000
0100
1000
0001
1000
,
0010
0100
0001
1000
0100
0010
0001
0100
0001
1000
0010
1000
0100
1000
0001
0010
,
0001
0100
0001
1000
0100
1000
0001
0010
0001
1000
0010
1000
0100
0010
0001
1000
,
0010
0100
0001
1000
0100
1000
0001
0010
0001
1000
0010
0100
0001
1000
0100
1000
,
0010
1000
0001
0010
0001
0100
0001
1000
0100
1000
0001
0010
0001
1000
0010
0100
,
0001
1000
0100
1000
0001
0010
0001
0100
0010
0100
0001
1000
0100
0010
0001
1000
,
0010
1000
0100
1000
0001
0010
0001
1000
0010
0100
0001
1000
0100
0010
0001
1000
,
0010
1000
0100
1000
0001
0010
0001
0100
0001
1000
0010
1000
0100
1000
0001
0010
,
0001
1000
0010
1000
0001
0100
0001
1000
0100
0010
0001
1000
0010
1000
0100
1000
,
0001
0010
0001
1000
0010
1000
0100
0010
0001
0100
0001
1000
0010
0100
0001
1000
,
0100
0010
0001
1000
0010
1000
0001
0010
0001
0100
0001
1000
0100
1000
0001
0010
,
0001
0100
0010
1000
0100
1000
0001
0010
0001
1000
0010
0100
0001
1000
0100
0010
,
0001
0000
1000
0000
0010
0000
1000
0000
0001
0000
0000
0000
0000
0000
0000
0000
2000
3000
0000
0000
0200
0300
0000
0000
2000
3000
0000
0000
0002
0003
0000
0000
,
0MM0
0000
0000
0000
,
0000
0000
0000
0000
,
0000
0000
0000
0000
,
0000
0000
0000
0000
,
0000
0000
0000
0000
,
0000
0000
0000
0000
,
0000
0000
0000
0000
,
0000
0000
0000
0000
,
0000
0000
0000
0000
,
0000
0000
0000
0000
,
0001
0100
0001
1000
0100
0010
0001
1000
,
0010
0100
0001
1000
0100
1000
0010
0100
,
0001
0010
0001
1000
0010
0100
0001
1000
,
0100
1000
0001
0010
0001
1000
0010
0100
,
0001
1000
0100
1000
0001
0010
0001
0100
,
0010
1000
0100
0010
0001
1000
0100
1000
,
0010
0100
0001
1000
0100
1000
0001
0010
,
0001
1000
0001
0100
0010
1000
0100
1000
,
0001
0010
0001
1000
0010
0100
0001
1000
,
0100
1000
0010
0100
0001
1000
0001
0010
,
0100
1000
0001
0010
0001
0100
0010
1000
,
0100
0010
0001
1000
0010
0100
0001
1000
,
0100
1000
0010
0100
0001
1000
0001
0010
,
0100
1000
0001
0100
0001
1000
0010
0100
,
0001
1000
0100
1000
0010
0100
0001
1000
,
0001
0010
0100
1000
0001
0010
0001
1000
,
0010
0100
0001
1000
0100
1000
0001
0010
,
0001
1000
0010
0100
0001
1000
0100
1000
,
0001
1000
0010
0100
0001
1000
0100
0010
,
0001
1000
0100
1000
0001
0010
0001
0100
,
0010
1000
0001
0100
0010
1000
0100
0010
,
0001
1000
0100
1000
0001
0100
0010
1000
,
0MM1
1000
0001
0010
0100
1000
0010
0100
,
0001
0100
0001
1000
0100
0010
0001
1000
,
0010
0100
0001
1000
0100
0010
0001
1000
,
0010
0100
0001
1000
0100
1000
0010
0100
,
0001
1000
0100
0010
0001
1000
0010
1000
,
0001
0010
0001
1000
0010
0100
0001
1000
,
0100
0010
0001
1000
0010
0100
0001
1000
,
0100
1000
0001
0010
0001
1000
0010
0100
,
0001
1000
0100
1000
0010
1000
0100
1000
,
0001
0010
0001
1000
0010
0100
0001
1000
,
0100
1000
0001
0010
0001
1000
0010
0100
,
0001
1000
0100
1000
0001
0010
0001
0100
,
0010
1000
0100
0010
0001
1000
0010
1000
,
0100
1000
0001
0010
0001
0100
0010
1000
,
0100
1000
0001
0010
0001
1000
0010
1000
,
0001
0100
0001
1000
0100
0010
0001
1000
,
2002
3003
0000
0000
0001
0000
0000
0000
0100
0000
0000
0000
0001
0000
0000
0000
1000
0000
0000
0000
0100
0000
0000
0000
0010
0000
0000
0000
0001
0000
0000
0000
,
0101
0100
0010
1000
0100
1000
1010
0110
,
0101
0001
0100
0010
1000
0100
1000
0100
,
0110
0010
0001
1000
0010
0100
0001
1000
,
1010
0010
0100
0001
0010
0100
1000
0010
,
0110
0100
0001
1000
0100
1000
0001
0010
,
0011
0001
1000
0010
0110
0100
0001
1000
,
0100
0000
0110
0000
0010
0000
0011
0001
,
2002
3003
0000
0000
0000
0000
0000
0000
1100
0000
0000
0000
0000
0000
0000
0000
0001
0000
0000
0000
0000
0000
0000
0000
0101
0000
0000
0000
0000
0000
0000
0000
,
1000
1010
0001
0011
,
2002
3003
0000
0000
1000
0000
0000
0000
0001
0000
0000
0000
0100
0000
0000
0000
0010
0000
0000
0000
1000
0000
0000
0000
0001
0000
0000
0000
0010
0000
0000
0000
,
0001
1000
0010
0100
0001
0010
0001
1000
,
0002
0003
0010
0000
0001
0000
1000
0000
0001
0000
0100
0000
0010
0000
1000
0000
0001
0000
1000
0000
0100
0000
0010
0000
0001
0000
1000
0000
0010
0000
0100
0000
,
0001
1000
0040
0030
0100
0001
4000
3000
0100
0010
0004
0003
0100
0010
4000
3000
,
0004
4000
0000
0000
0000
0000
0000
0000
0000
0000
0000
0000
0000
0000
0000
0000
0000
0000
0000
0000
0000
0000
0003
3000
,
0M00
0M00
0M00
0M00
0M00
0M00
0M00
0M00
,
0001
0100
0001
1000
0100
0010
0001
1000
0100
1000
0001
1000
0010
0100
0001
1000
,
0001
0010
0100
1000
0001
0010
0001
1000
0010
1000
0001
0100
0001
1000
0001
0100
,
0010
1000
0100
0010
0001
1000
0100
1000
0001
0100
0010
1000
0001
1000
0100
0010
,
0001
1000
0010
1000
0001
0010
0001
1000
0100
1000
0001
1000
0010
0100
0001
1000
,
0100
1000
0001
0010
0001
1000
0010
0100
0001
1000
0100
1000
0001
0010
0001
1000
,
0010
0100
0001
1000
0100
1000
0001
1000
0010
0100
0001
1000
0100
0010
0001
1000
,
0100
1000
0001
0010
0001
1000
0010
0100
0001
1000
0100
1000
0001
0010
0001
1000
,
0001
0100
0010
1000
0100
0010
0001
1000
0100
1000
0001
0010
0001
1000
0001
0100
,
0010
1000
0100
0010
0001
1000
0100
1000
0001
0010
0001
1000
0010
0100
0001
1000
,
0100
1000
0001
0100
0001
1000
0100
1000
0001
0100
0010
1000
0100
0010
0001
1000
,
0100
1000
0001
0010
0001
1000
0001
0100
0010
1000
0001
0100
0001
1000
0001
0010
,
0100
1000
0010
0100
0001
1000
0100
1000
0001
0010
0001
1000
0010
1000
0001
0100
,
0010
1000
0100
0010
0001
1000
0100
1000
0001
0010
0001
1000
0010
1000
0001
0100
,
0001
1000
0100
1000
0001
0010
0001
1000
0010
0100
0001
1000
0100
0010
0001
1000
,
0001
0000
0100
0000
0001
0000
1000
0000
0100
1000
0001
0000
1000
0000
0100
0000
,
0000
0000
0200
0300
2000
3000
0002
0003
0200
0300
0002
0003
2000
3000
0200
0300
,
1000
0001
0100
0001
1000
0100
1000
0010
0100
0001
1000
0001
0010
0100
1000
0001
,
0010
0001
1000
0001
0100
0010
1000
0100
0010
0001
1000
0100
1000
0001
0010
0001
,
1000
0010
0100
0001
1000
0100
1000
0001
0100
0010
1000
0001
1000
0100
0010
0001
,
1000
0100
1000
0001
0010
0001
1000
0010
0100
0001
1000
0100
1000
0001
0010
0001
,
1000
0010
0100
0001
1000
0100
1000
0001
1000
0010
0100
0001
1000
0100
0010
0001
,
1000
0100
1000
0001
0010
0001
1000
0001
0100
0010
1000
0100
0010
0001
1000
0100
,
1000
0001
0010
0001
1000
0010
0100
0001
1000
0100
1000
0001
0010
0001
1000
0001
,
0100
0010
1000
0100
0010
0001
1000
0100
1000
0001
1000
0010
0100
0001
1000
0100
,
1000
0001
0010
0001
1000
0010
0100
0001
1000
0100
1000
0001
0010
0001
0100
0010
,
1000
0100
1000
0001
0010
0001
1000
0001
0100
0010
1000
0100
0010
0001
1000
0100
,
1000
0001
0010
0001
1000
0010
0100
0001
1000
0100
1000
0001
0010
0001
1000
0010
,
0100
0001
1000
0100
1000
0001
1000
0010
0100
0001
1000
0100
1000
0001
0010
0001
,
1000
0100
1000
0001
0100
0010
1000
0100
0010
0001
1000
0100
1000
0001
0010
0001
,
1000
0010
0100
0001
1000
0100
1000
0001
0100
0010
1000
0100
0010
0001
1000
0100
,
1000
0001
0010
0001
1000
0010
0100
0001
1000
0100
1000
0001
0010
0001
1000
0001
,
0100
0010
1000
0100
0010
0001
1000
0100
1000
0001
0010
0001
1000
0001
0100
0010
,
0100
0001
1000
0100
1000
0001
0010
0001
0100
0010
1000
0001
1000
0100
1000
0001
,
0010
0001
1000
0100
1000
0001
0100
0010
1000
0001
1000
0100
0010
0001
1000
0100
,
1000
0001
0010
0001
0100
0010
1000
0001
1000
0001
0010
0100
1000
0010
0100
0001
,
1000
0100
1000
0001
0010
0001
1000
0010
1000
0001
0100
0001
1000
0100
0010
0001
,
1000
0100
1000
0001
0010
0001
1000
0010
0100
0001
1000
0100
1000
0001
0010
0001
,
1000
0010
0100
0001
1000
0100
1000
0001
0010
0001
1000
0010
0100
0001
1000
0100
,
1000
0010
0100
0001
1000
0001
0010
0100
1000
0001
0010
0001
1000
0001
0100
0010
,
1000
0100
0010
0001
1000
0100
1000
0001
1000
0010
0100
0001
1000
0100
1000
0001
,
0010
0001
1000
0010
0100
0001
1000
0001
0010
0100
1000
0001
0100
0001
1000
0100
,
1000
0010
0100
0001
1000
0001
0010
0100
1000
0010
0100
0001
1000
0100
1000
0001
,
0010
0001
1000
0001
0100
0010
1000
0100
0010
0001
1000
0100
1000
0001
0010
0001
,
1000
0001
0100
0010
1000
0001
1000
0100
0010
0001
1000
0010
1000
0001
0010
0001
,
1000
0010
0100
0001
1000
0100
1000
0001
0010
0001
1000
0100
1000
0001
1000
0010
,
0100
0001
1000
0001
0010
0100
1000
0001
0010
0001
1000
0010
0100
0001
1000
0100
,
1000
0001
0100
0001
1000
0100
0010
0001
,
1000
0000
0010
0000
0100
0000
0001
0000
0010
0100
1000
0000
0001
0000
0100
0000
,
0020
0000
0030
0000
2000
0000
3000
0000
0020
0000
0030
0000
2000
0000
3000
0000
0002
0000
0000
0003
0000
0000
0000
0000
2000
0000
3000
0000
0200
0000
0000
0300
,
0000
0000
0000
0000
0200
0000
0300
0000
2000
0000
3000
0000
0002
0000
0003
0000
0200
0000
0000
0300
0000
0000
0000
0000
0002
0000
0000
0003
0000
0000
0000
0000
,
0200
0000
0300
0000
0002
0000
0003
0000
0200
0000
0300
0000
0002
0000
0003
0000
2000
0000
3000
0000
0000
0000
0000
0000
0200
0000
0000
0300
0020
0000
0000
0030
,
0000
0000
0000
0000
0020
0000
0030
0000
0002
0000
0003
0000
2000
0000
3000
0000
0020
0000
0000
0030
0000
0000
0000
0000
0200
0000
0000
0300
0000
0000
0000
0000
,
0002
0000
0003
0000
2000
0000
3000
0000
0002
0000
0003
0000
2000
0000
3000
0000
0200
0000
0000
0300
0000
0000
0000
0000
0020
0000
0030
0000
0200
0000
0000
0300
,
0000
0000
0000
0000
0200
0000
0300
0000
2000
0000
3000
0000
0002
0000
0003
0000
0200
0000
0000
0300
0000
0000
0000
0000
0020
0000
0000
0030
0000
0000
0000
0000
,
2000
0000
3000
0000
0200
0000
0300
0000
2000
0000
3000
0000
0200
0000
0300
0000
0020
0000
0000
0030
0000
0000
0000
0000
0200
0000
0300
0000
2000
0000
0000
3000
,
0000
0000
0000
0000
2000
0000
3000
0000
0002
0000
0003
0000
0200
0000
0300
0000
0020
0000
0000
0030
0000
0000
0000
0000
2000
0000
0000
3000
0000
0000
0000
0000
,
0002
0000
0003
0000
0020
0000
0030
0000
0002
0000
0003
0000
0020
0000
0030
0000
0200
0000
0000
0300
0000
0000
0000
0000
0020
0000
0030
0000
0002
0000
0000
0003
,
0000
0000
0000
0000
0002
0000
0003
0000
2000
0000
3000
0000
0020
0000
0030
0000
0200
0000
0000
0300
0000
0000
0000
0000
0002
0000
0000
0003
0000
0000
0000
0000
,
2000
0000
3000
0000
0020
0000
0030
0000
2000
0000
3000
0000
0020
0000
0030
0000
0200
0000
0000
0300
0000
0000
0000
0000
0020
0000
0030
0000
2000
0000
0000
3000
,
0000
0000
0000
0000
2000
0000
3000
0000
0002
0000
0003
0000
0020
0000
0030
0000
0200
0000
0000
0300
0000
0000
0000
0000
2000
0000
0000
3000
0000
0000
0000
0000
,
0002
0000
0003
0000
0200
0000
0300
0000
0002
0000
0003
0000
0200
0000
0300
0000
0020
0000
0000
0030
0000
0000
0000
0000
2000
0000
3000
0000
0200
0000
0000
0300
,
0000
0000
0000
0000
0200
0000
0300
0000
2000
0000
3000
0000
0002
0000
0003
0000
0200
0000
0000
0300
0000
0000
0000
0000
0002
0000
0000
0003
0000
0000
0000
0000
,
2000
0000
3000
0000
0200
0000
0300
0000
2000
0000
3000
0000
0200
0000
0300
0000
0020
0000
0000
0030
0000
0000
0000
0000
0002
0000
0003
0000
2000
0000
0000
3000
,
0000
0000
2000
3000
0020
0030
0200
0300
0002
0003
2000
3000
0200
0300
0020
0030
,
0002
0003
0000
0000
0000
0000
0000
0000
0000
0000
0000
0000
0000
0000
0000
0000
;
