#TITLE:Those Who Fight (Final Fantasy VII Advent Children version);
#SUBTITLE:;
#ARTIST:植松伸夫;
#TITLETRANSLIT:;
#SUBTITLETRANSLIT:;
#ARTISTTRANSLIT:Nobuo Uematsu;
#CREDIT:Arch0wl;
#BANNER:thosewhofightffviiac-bn.png;
#BACKGROUND:thosewhofightffviiac-bg.png;
#LYRICSPATH:;
#CDTITLE:!Arch0wlTitle.png;
#MUSIC:thosewhofightffviiac.ogg;
#OFFSET:0.050;
#SAMPLESTART:17.228;
#SAMPLELENGTH:14.144;
#SELECTABLE:YES;
#BPMS:0.000=170.000;
#STOPS:;
#BGCHANGES:0.000=thosewhofightffviiac-bg.png=1.000=0=0=1,
99999=-nosongbg-=1.000=0=0=0 // don't automatically add -songbackground-
;
// cache tags:
#FIRSTBEAT:1.000;
#LASTBEAT:276.875;
#SONGFILENAME:Songs/Archmage and Dark0wl Hammer of Thor UltraHyperMegaPack/Those Who Fight (FFVII AC version)/thosewhofightffviiac.sm;
#HASMUSIC:1;
#HASBANNER:1;
#MUSICLENGTH:105.000;
// end cache tags

//---------------dance-single - Arch0wl----------------
#NOTES:
     dance-single:
     Arch0wl:
     Medium:
     10:
     0.804,0.988,1.000,0.657,0.157,336.000,179.000,69.000,0.000,18.000:
0000
0000
2000
0000
0000
3200
0000
0000
,
0320
0000
0000
0032
0000
0000
2203
3300
,
0220
0330
0022
0000
0033
0222
0000
0333
,
0001
1000
0010
0001
0010
0100
0010
1000
,
0010
0001
2000
0000
0000
3200
0000
0000
,
0320
0000
0000
2030
0000
0000
3200
0300
,
0220
0330
2220
0000
3330
0000
0000
0000
,
0000
0000
0000
0000
,
0000
0000
0000
0000
,
0000
0000
0000
0000
,
0000
0000
0000
0000
,
0000
0000
0000
0000
,
0000
0000
0011
0000
0100
0011
0000
0100
,
0011
0000
0100
0011
0000
0100
0011
1001
,
1100
1010
0110
0000
0001
0110
0000
0001
,
0110
0000
0000
0000
2020
0000
0200
0030
,
3002
0000
1313
0000
0001
1010
0000
0001
,
1010
0000
0001
1010
0000
0001
1010
0110
,
0101
1001
1100
0000
0001
1100
0000
0001
,
1100
0000
0001
1100
0000
0001
1100
0110
,
0011
1001
0101
0000
1000
0101
0000
1000
,
0101
0000
2220
0000
,
3330
0000
0000
0000
,
0000
0000
0000
0000
,
0000
0000
0002
0000
0000
0023
0000
0000
,
0230
0000
0000
2300
0000
0000
3022
0033
,
0220
0330
2200
0000
3300
2220
0000
3330
,
1000
0001
0100
1000
0100
0010
0100
0001
,
0100
1000
0002
0000
0000
0023
0000
0000
,
0230
0000
0000
0302
0000
0000
0023
0030
,
0220
0330
1100
0000
0001
1100
0000
0001
,
1100
0000
0001
1100
0000
0001
1100
1010
,
0110
0101
0011
0000
0100
0011
0000
0100
,
0011
0000
0000
0000
0022
0000
0200
0030
,
2003
0000
0000
0000
3310
0000
0000
0010
0000
0000
0010
0000
0001
0000
0000
0001
,
0000
0000
0001
0000
1000
0000
0000
1000
0000
0000
1000
0000
0010
0000
0000
0010
,
0000
0000
0010
0000
0100
0000
0000
0100
0000
0000
0100
0000
0001
0000
0000
0001
,
0000
0000
0001
0000
1000
0000
0000
1000
0000
0000
1000
0000
0100
0000
0000
0100
,
0000
0000
0100
0000
0010
0000
0000
0010
0000
0000
0010
0000
2001
0000
0000
0001
,
0000
0000
0001
0000
0100
0000
0000
0100
0000
0000
0100
0000
0001
0000
0000
0001
,
0000
0000
0001
0000
0010
0000
0000
0010
0000
0000
3010
0000
1002
0000
0000
1000
,
0000
0000
1000
0000
0010
0000
0000
0010
0000
0000
0010
0000
1000
0000
0000
1000
,
0000
0000
1000
0000
0100
0000
0000
0100
0000
0000
0100
0000
0010
0000
0000
0010
,
0000
0000
0010
0000
1000
0000
0000
1000
0000
0000
1000
0000
0100
0000
0000
0100
,
0000
0000
0100
0000
1000
0000
0000
1000
0000
0000
1000
0000
0010
0000
0000
0010
,
0000
0000
0013
0000
0101
0000
0000
0101
0000
0000
0101
0000
1001
0000
0000
1001
,
0000
0000
1001
0000
0110
0000
0000
0110
0000
0000
0110
0000
1010
0000
0000
1010
,
0000
0000
1000
0000
0011
0000
0000
0011
0000
0000
0011
0000
1100
0000
0000
1100
,
0000
0000
1100
0000
0110
0000
0110
0000
0110
0000
0010
0000
0010
0001
0010
0000
,
0110
0000
0110
0000
0100
1000
0100
0000
0110
0000
0110
0000
0010
0001
0010
0000
,
0110
0110
1100
0000
0001
1100
0000
0001
,
1100
0000
0001
1100
0000
0001
1100
0110
,
0011
0101
1001
0000
0100
1001
0000
0100
,
1001
0000
0000
0000
2020
0000
0200
0030
,
3002
0000
1313
0000
0001
1010
0000
0001
,
1010
0000
0001
1010
0000
0001
1010
0110
,
0101
0011
0110
0000
0001
0110
0000
0001
,
0110
0000
2220
0000
,
3330
0000
0110
1010
0110
0101
1100
0101
,
0110
1010
0110
0101
1100
0101
0110
1010
,
0011
0110
0110
1010
0110
0101
1100
0101
,
0110
1010
2022
0000
0000
0000
0000
0000
,
3033
0000
0110
0101
0110
1010
0011
1010
,
0110
0101
0110
1010
0011
1010
0110
0101
,
1100
0110
0110
0101
0110
1010
0011
1010
,
0110
0101
2202
0000
0000
0000
0000
0000
,
3303
0000
0110
1010
0110
0101
1100
0101
,
0110
1010
0110
0101
1100
0101
0110
1010
,
0011
0110
0110
1010
0110
0101
1100
0101
,
0001
0100
1000
0100
0000
0000
0000
0000
0000
0000
0000
0000
0000
0000
0000
0000
;

//---------------dance-single - Arch0wl----------------
#NOTES:
     dance-single:
     Arch0wl:
     Hard:
     12:
     1.000,1.000,0.276,0.000,1.000,824.000,29.000,0.000,0.000,0.000:
0000
0000
0000
0000
0001
0000
0001
0000
0010
0000
0001
0100
0001
1000
0010
0000
,
1000
0100
0010
0001
0100
0010
1000
0001
0010
0100
0010
0001
1000
0001
0100
0000
,
0100
0001
1000
0100
1000
0000
1000
0000
0010
0000
0100
0001
1000
0100
0010
0000
,
0001
0100
0001
1000
0001
0100
0001
0100
0010
1000
0010
1000
0001
0100
0001
0100
,
0010
1000
0000
0000
0100
0000
0100
0000
0010
0000
0001
1000
0100
1000
0010
0000
,
1000
0100
1000
0001
0100
0001
0100
0001
0010
0100
0000
0000
1000
0100
0010
0000
,
0010
0000
0010
0100
1000
0000
0000
1000
0000
0000
1000
0000
0000
1000
0000
0000
,
1000
0010
0100
0001
0010
0100
0000
0100
1000
0000
0100
1000
0000
0100
1000
0000
,
0100
1000
0010
0100
0001
0010
0000
0001
0010
0000
0001
0010
0000
0001
0010
0000
,
0001
0100
0010
1000
0100
0010
0000
0100
0010
0000
0100
0010
0000
0100
0010
0000
,
0100
0010
0001
1000
0100
0010
0001
0010
0001
0010
0100
0010
0001
0010
0001
0010
,
0100
0010
0001
0010
0100
0010
0001
0010
0001
0010
0100
0010
0001
0010
0001
0010
,
0100
0010
0001
0010
0100
0000
0100
0000
1000
0000
0010
0100
0001
0010
1000
0000
,
0010
0001
0100
0001
0100
0010
0100
0010
1000
0100
0000
0000
0010
0100
1000
0000
,
0001
0010
0001
0010
0100
0000
0100
0000
1000
0000
0010
0100
0001
0010
1000
0000
,
0010
0001
0010
0001
0100
0010
0100
0010
1000
0100
0000
0000
0010
0100
0010
0100
,
1000
0100
0000
0000
1000
0000
1000
0000
0010
0000
0100
0001
1000
0100
0010
0000
,
1000
0001
0100
0001
1000
0100
1000
0100
0010
0100
0000
0000
1000
0100
0010
0000
,
0100
1000
0010
0100
0001
0000
0001
0000
0010
0000
0100
1000
0100
1000
0010
0000
,
1000
0100
1000
0100
0001
0100
0001
0100
0010
0001
0000
0000
0001
0100
0010
0000
,
1000
0001
1000
0001
0100
0000
0100
0000
0010
0000
1000
0100
1000
0100
0010
0000
,
0010
0000
0000
0010
0001
0010
0001
0000
0000
0000
0000
0000
1100
0000
0000
0000
0000
0000
0000
0000
0000
0000
0000
0000
,
0000
0000
0000
0000
1000
0000
1000
0000
0001
0000
1000
0100
1000
0100
0001
0000
,
0100
1000
0100
1000
0010
0000
0010
0000
0001
0000
1000
0100
1000
0100
0001
0000
,
0010
0000
0100
0000
0010
0000
0000
0000
0010
0000
0000
0000
0100
0000
0000
0000
0000
0000
0100
0000
0000
0000
0000
0000
1000
0000
0000
0000
0000
0000
0010
0000
0000
0100
0000
0000
0010
0000
0000
0100
0000
0000
1000
0000
0000
0000
0000
0000
,
0100
0010
0100
0010
0001
0010
0001
0010
0100
1000
0000
0000
0100
0010
1000
0000
,
0100
0010
1000
0010
0001
0000
0001
0000
0010
0000
0001
0100
0001
0100
0010
0000
,
1000
0001
1000
0001
0100
0001
0100
0001
0010
0100
0000
0000
1000
0001
1000
0001
,
0010
0100
0000
0000
1000
0000
1000
0000
0010
0000
0100
0001
0100
0001
0010
0000
,
0100
1000
0100
1000
0001
0100
0001
0100
0010
1000
0000
0000
0100
1000
0010
0000
,
0100
0001
0100
0001
1000
0000
1000
0000
0010
0000
0100
0001
0100
0001
0010
0000
,
0100
1000
0100
1000
0001
0100
0001
0100
0010
1000
0000
0000
0001
0100
0001
0100
,
0010
1000
0000
0000
0100
0000
0100
0000
0010
0000
0100
1000
0100
1000
0010
0000
,
1000
0000
0000
0001
0000
0000
1000
0000
0000
0001
0000
0000
0100
0000
0000
0001
0000
0000
0100
0000
0000
0001
0000
0000
0010
0000
0000
0100
0000
0000
0000
0000
0000
0000
0000
0000
1000
0000
0001
0000
1000
0000
0001
0000
1000
0000
0001
0000
,
0100
0000
0010
0000
0100
0000
0010
0000
0100
0000
0010
0000
1000
0000
0000
0000
0000
0000
0000
0000
0000
1000
0000
0000
0000
0000
0000
0000
0000
0000
1000
0000
0000
0000
0000
0000
0001
0000
0000
0010
0000
0000
0001
0000
0000
0010
0000
0000
,
0001
1000
0001
1000
0010
0000
0000
0010
0000
0000
0010
0000
0100
0001
0100
0001
,
0100
0010
0100
0010
1000
0000
0000
1000
0000
0000
1000
0000
0100
0010
0100
0010
,
0100
1000
0100
1000
0001
0000
0000
0001
0000
0000
0001
0000
0100
0010
0100
0010
,
0100
0001
0100
0001
0010
0000
0000
0010
0000
0000
0010
0000
0100
1000
0100
0010
,
0001
0100
0001
0010
0100
0000
0000
0100
0000
0000
0100
0000
1000
0010
1000
0001
,
0100
0010
0100
0001
1000
0000
0000
1000
0000
0000
1000
0000
0001
0100
0001
0010
,
0100
1000
0100
0010
0001
0000
0000
0001
0000
0000
0001
0000
0100
0010
0100
0001
,
1000
0100
1000
0010
1001
0000
0000
1001
0000
0000
1001
0000
0010
0001
1000
0100
,
0010
0100
1000
0001
1010
0000
0000
1010
0000
0000
1010
0000
0100
0001
1000
0010
,
0100
0010
1000
0001
0110
0000
0000
0110
0000
0000
0110
0000
1000
0010
0100
0001
,
1000
0001
0010
0100
1001
0000
0000
1001
0000
0000
1001
0000
1000
0100
0010
0001
,
0100
0010
1000
0100
1001
0000
0000
1001
0000
0000
1001
0000
0001
0010
0100
1000
,
0010
0100
0001
0010
1001
0000
0000
1001
0000
0000
1001
0000
0010
0100
0001
0010
,
0100
1000
0010
0100
1001
0000
0101
0000
0101
0000
0101
0000
0010
1000
0010
0000
,
0101
0000
0101
0000
0010
1000
0010
0000
0101
0000
0101
0000
0010
1000
0010
0000
,
0101
0000
0101
0000
1000
0000
1000
0000
0010
0000
1000
0100
1000
0100
0010
0000
,
0100
1000
0100
1000
0001
0100
0001
0100
0010
1000
0000
0000
0001
0100
0010
0000
,
1000
0100
1000
0100
0010
0000
0010
0000
0001
0000
0010
0100
0010
0100
0001
0000
,
0100
1000
0100
1000
0010
0100
0010
0100
0001
0010
0000
0000
0100
0010
0100
0010
,
0001
1000
0000
0000
0001
0000
0001
0000
0100
0000
0001
0010
0001
0010
0100
0000
,
1000
0001
1000
0001
0010
0001
0010
0001
0100
0010
0000
0000
1000
0001
0100
0000
,
0001
1000
0001
1000
0010
0000
0010
0000
0100
0000
0010
1000
0010
1000
0100
0000
,
0010
0001
0010
0001
1000
0001
1000
0001
0100
0010
0000
0000
1000
0001
1000
0001
,
0100
0010
0000
0000
1000
0000
1000
0000
0001
0000
1000
0100
1000
0100
0001
0000
,
0100
1000
0100
1000
0010
0100
0010
0100
0001
1000
0000
0000
0010
0100
0001
0000
,
0010
0100
0010
0100
1000
0000
1000
0000
0010
0000
1000
0001
1000
0001
0010
0000
,
0001
1000
0001
1000
0100
1000
0100
1000
0010
0100
0000
0000
0001
1000
0001
0000
,
1000
0001
1000
0001
0100
0000
0100
0000
0001
0000
0100
0010
0100
0010
0001
0000
,
0010
1000
0010
1000
0010
0100
0010
0100
0001
1000
0000
0000
0010
0100
0010
0100
,
0001
1000
0000
0000
0001
0000
0001
0000
0010
0000
0100
1000
0100
1000
0010
0000
,
1000
0001
1000
0001
0100
0001
0100
0001
0010
0100
0000
0000
1000
0001
0010
0000
,
0100
1000
0100
1000
0001
0000
0001
0000
0100
0000
0010
1000
0010
1000
0100
0000
,
1000
0001
1000
0001
1000
0010
1000
0010
0100
0001
0000
0000
1000
0010
1000
0010
,
0100
0001
0000
0000
1000
0000
1000
0000
0100
0000
0010
0001
0010
0001
0100
0000
,
0010
1000
0001
0010
0000
0000
0000
0000
0000
0000
0000
0000
0000
0000
0000
0000
;

//---------------dance-single - Arch0wl----------------
#NOTES:
     dance-single:
     Arch0wl:
     Challenge:
     14:
     1.000,1.000,0.667,0.057,1.000,944.000,70.000,6.000,0.000,5.000:
0000
0000
0000
0000
1000
0010
1000
0010
1000
0010
0100
0001
0100
0001
0100
0001
,
0010
0001
0010
0001
0010
0001
0010
0100
0010
0100
0010
0100
1000
0001
1000
0001
,
0100
0001
0100
0001
0010
0001
0010
0001
0010
0001
1000
0100
1000
0100
1000
0100
,
0010
0100
0001
0100
1000
0100
0001
0100
0010
0100
0001
0100
1000
0100
0010
0100
,
0001
0100
1000
0100
0010
0001
0010
0001
0010
0001
1000
0010
1000
0010
1000
0010
,
0100
0001
0100
0001
0100
0001
0010
0001
0010
0001
0010
0001
1000
0010
1000
0010
,
0100
0001
0100
0001
2002
0000
0000
0000
0000
0000
0003
0000
0000
0000
0000
0000
,
3000
0000
0000
0000
0001
0000
0000
0001
0000
0000
0001
0000
0000
0001
0000
0001
,
0010
0100
0010
0100
1000
0000
1000
0100
0000
1000
0100
0000
1000
0100
0000
1000
,
0100
0010
0100
0010
0001
0000
0010
0001
0000
0010
0001
0000
0010
0001
0000
0010
,
0001
0010
0100
0010
0100
1000
0010
0100
0010
0100
0010
1000
0010
0100
0010
1000
,
0010
1000
0001
0010
0100
1000
0100
0010
0100
0010
0100
1000
0100
0010
0001
1000
,
0001
1000
0010
0100
0001
0010
0001
0010
0100
1000
0001
0010
0001
0010
0100
1000
,
0001
0010
0001
0010
0100
1000
0001
0010
0001
0010
0100
1000
0001
0010
0100
1000
,
0001
0010
0100
1000
0001
0010
0001
0010
0100
1000
0001
0010
0001
0010
0100
1000
,
0001
0010
0001
0010
0001
0010
0001
0010
0100
1000
0010
1000
0001
0100
0010
0100
,
0001
1000
0100
1000
0010
0100
0010
0100
0001
1000
0010
0100
0010
0100
0001
1000
,
0010
0100
0010
0100
0001
1000
0010
0100
0010
0100
0001
1000
0010
0100
0001
1000
,
0010
0100
0001
1000
0010
0100
0010
0100
0001
1000
0010
0100
0010
0100
0001
1000
,
0010
0100
0010
0100
0001
1000
0010
0100
0010
0100
0001
1000
0010
0100
0001
1000
,
0010
0100
0001
1000
0010
0100
0010
0100
0001
1000
0010
0100
0010
0100
0001
1000
,
0010
0000
0000
0100
0000
0000
0001
0000
0010
0000
0100
0000
1000
0000
0000
0000
0000
0000
0000
0000
0000
0000
0000
0000
0111
0000
0000
0000
0000
0000
0000
0000
0000
0000
0000
0000
0000
0000
0000
0000
0000
0000
0000
0000
0000
0000
0000
0000
,
0000
0000
0000
0000
0010
0000
0010
0000
1001
0000
0010
1000
0100
0010
1001
0000
,
0100
0010
1000
0100
0010
0000
0010
0000
1001
0000
0100
0010
1000
0100
1001
0000
,
1000
0000
0100
0000
1000
0000
0000
0000
0100
0000
0000
0000
1000
0000
0000
0100
0000
0000
1000
0000
0000
0100
0000
0000
1000
0000
0000
0010
0000
0000
0100
0000
0000
0010
0000
0000
0100
0000
0000
0010
0000
0000
0100
0000
0000
0001
0000
0000
,
0010
0001
0010
0001
0010
0100
0010
0100
0010
0100
0010
0100
1000
0001
1000
0001
,
0100
0001
0100
0001
0010
0001
0010
0001
0010
0001
1000
0100
1000
0100
1000
0100
,
0010
0100
0001
0100
1000
0100
0001
0100
0010
0100
0001
0100
1000
0100
0010
0100
,
0001
0100
1000
0100
0010
0001
0010
0001
0010
0001
1000
0010
1000
0010
1000
0010
,
0100
0001
0100
0001
0100
0001
0010
0001
0010
0001
0010
0001
1000
0010
1000
0010
,
0100
0001
0100
0001
1000
0100
1000
0100
0010
0001
1000
0100
1000
0100
0010
0001
,
1000
0100
1000
0100
0010
0001
1000
0100
1000
0100
0010
0001
1000
0100
0010
0001
,
1000
0100
0010
0001
1000
0100
1000
0100
0010
0001
1000
0100
1000
0100
0010
0001
,
1000
0100
1000
0100
1000
0100
1000
0100
0010
0001
0100
0001
1000
0100
0010
0100
,
1000
0010
0100
0010
1001
0000
0000
1001
0000
0000
1010
0000
0100
0001
0100
0001
,
0010
0100
1000
0100
0011
0000
0000
0011
0000
0000
1001
0000
0010
1000
0010
1000
,
0100
0010
0001
0010
1100
0000
0000
1100
0000
0000
1010
0000
0100
0001
0100
0001
,
1000
0010
1000
0001
0110
0000
0000
0110
0000
0000
0101
0000
0010
1000
0010
1000
,
0001
0010
0100
0010
1001
0000
0000
1001
0000
0000
0011
0000
0101
1000
0100
1000
,
0010
0100
0001
0100
1010
0000
0000
1010
0000
0000
1001
0000
1010
0001
0010
0001
,
1000
0010
0100
0010
1001
0000
0000
1001
0000
0000
0101
0000
1010
0100
0010
0100
,
0001
0010
0100
0010
1100
0000
0000
1100
0000
0000
0110
0000
0101
1000
0001
1000
,
0010
0100
0001
0100
1010
0000
0000
1010
0000
0000
1100
0000
1001
0010
1000
0010
,
0100
0001
1000
0001
0110
0000
0000
0110
0000
0000
0101
0000
0011
1000
0001
1000
,
0010
0100
0001
0100
1010
0000
0000
1010
0000
0000
1001
0000
1010
0100
0010
0100
,
0001
0010
0100
0010
1001
0000
0000
1001
0000
0000
0101
0000
0110
1000
0010
1000
,
0100
0010
0001
0010
1100
0000
0000
1100
0000
0000
1010
0000
0110
0001
0100
0001
,
0010
0100
1000
0100
0011
0000
0000
0011
0000
0000
0110
0000
1010
0100
0010
0100
,
0001
1000
0010
1000
0101
0000
0011
0000
1100
0000
0011
0000
1000
0010
1000
0000
,
0101
0000
1010
0000
0100
0001
0100
0000
1010
0000
0101
0000
1000
0010
1000
0000
,
0101
0000
1010
0000
0010
0100
0010
0100
0001
1000
0010
0100
0010
0100
0001
1000
,
0010
0100
0010
0100
0001
1000
0010
0100
0010
0100
0001
1000
0010
0100
0001
1000
,
0010
0100
0001
1000
0010
0100
0010
0100
0001
1000
0010
0100
0010
0100
0001
1000
,
0010
0100
0010
0100
0001
1000
0010
0100
0001
0010
0100
0010
0001
1000
0100
1000
,
0010
0100
0001
0100
0010
1000
0010
1000
0001
0100
0010
1000
0010
1000
0001
0100
,
0010
1000
0010
1000
0001
0100
0010
1000
0010
1000
0001
0100
0010
1000
0001
0100
,
0010
1000
0001
0100
0010
1000
0010
1000
0001
0100
0010
1000
0010
1000
0001
0100
,
0010
1000
0010
1000
0010
1000
0010
1000
0001
0010
0001
0010
0001
0010
0001
0010
,
0001
0010
0001
0010
0100
0010
1000
0010
0100
0010
1000
0010
0100
0010
0100
0010
,
0001
0010
0001
0010
0100
0010
1000
0010
0100
0010
0100
0010
1000
0010
0100
0010
,
0001
0010
0100
0010
1000
0010
0100
0010
1000
0010
0100
0010
0001
0010
0001
0010
,
0100
0010
1000
0010
2210
0000
0000
0000
0000
0000
0000
0000
0000
0000
0000
0000
,
0000
0000
0000
0000
3310
0100
0001
0100
0010
0100
0001
0100
0010
0100
0010
0100
,
1000
0100
1000
0100
0010
0100
0001
0100
0010
0100
0010
0100
0001
0100
0010
0100
,
1000
0100
0010
0100
0001
0100
0010
0100
0001
0100
0010
0100
1000
0100
1000
0100
,
0010
0100
0001
0100
0122
0000
0000
0000
0000
0000
0000
0000
0000
0000
0000
0000
,
0000
0000
0000
0000
0133
0010
1000
0010
0100
0010
1000
0010
0100
0010
0100
0010
,
0001
0010
0001
0010
0100
0010
1000
0010
0100
0010
0100
0010
1000
0010
0100
0010
,
0001
0010
0100
0010
1000
0010
0100
0010
1000
0010
0100
0010
0001
0010
0001
0010
,
0100
1000
0100
0010
0100
0001
1000
0100
0000
0000
0000
0000
0000
0000
0000
0000
0000
0000
0000
0000
0000
0000
0000
0000
0000
0000
0000
0000
0000
0000
0000
0000
;
