#TITLE:Demon Princess;
#SUBTITLE:;
#ARTIST:The Devils Choir;
#TITLETRANSLIT:;
#SUBTITLETRANSLIT:;
#ARTISTTRANSLIT:;
#CREDIT:;
#BANNER:DP-bn.png;
#BACKGROUND:DP-bg.png;
#LYRICSPATH:;
#CDTITLE:!reachTitle.png;
#MUSIC:18. Demon Princess.mp3;
#OFFSET:-0.395;
#SAMPLESTART:22.921;
#SAMPLELENGTH:12.626;
#SELECTABLE:YES;
#BPMS:0.000=190.000,12.000=208.000,16.000=190.000,48.000=154.000,60.000=157.500,62.000=160.000,64.000=175.000,66.000=186.000,68.000=190.000,156.000=191.000,164.000=188.000;
#STOPS:;
#BGCHANGES:;
// cache tags:
#FIRSTBEAT:4.000;
#LASTBEAT:361.500;
#SONGFILENAME:Songs/Keyboard Collaboration II/Reach - Demon Princess/Demon Princess.sm;
#HASMUSIC:1;
#HASBANNER:1;
#MUSICLENGTH:126.464;
// end cache tags

//---------------dance-single - ----------------
#NOTES:
     dance-single:
     :
     Hard:
     13:
     1.000,1.000,1.000,0.190,0.850,845.000,208.000,24.000,0.000,0.000:  // measure 1
0000
0000
0000
0000
,  // measure 2
2000
0000
3200
0000
,  // measure 3
0320
0032
0000
0000
,  // measure 4
0000
0020
0003
0000
0000
0000
0030
0000
,  // measure 5
1001
0001
0001
0001
,  // measure 6
1001
0001
0101
0011
,  // measure 7
0001
1000
0001
0000
0001
0010
0001
0000
,  // measure 8
1001
0001
0110
0110
,  // measure 9
1001
0001
0001
0001
,  // measure 10
1001
0001
0101
0011
,  // measure 11
1001
0001
0001
0001
,  // measure 12
1001
0001
0101
0001
,  // measure 13
2002
3003
0000
0000
,  // measure 14
0001
0010
0100
0000
1000
0000
0100
0000
0010
0000
0001
0010
0100
1000
0010
0000
,  // measure 15
0001
0010
0100
0000
1000
0000
0100
0000
0001
0000
0010
0100
0001
1000
0010
0000
,  // measure 16
0001
1000
0010
0000
0100
1000
0010
1000
0100
0001
1000
0100
0010
0000
1000
0000
,  // measure 17
0100
0010
0001
0000
0000
0000
0000
0000
,  // measure 18
1001
0000
0000
0000
0100
0000
0000
0000
0010
0000
0000
0000
0100
0001
0010
0000
,  // measure 19
0100
0001
1000
0000
0010
0000
0100
0010
1000
0000
0010
0000
1000
0000
0010
1000
,  // measure 20
0100
0000
0010
0000
0100
0010
1000
0001
0010
0000
1000
0001
0010
0000
1000
0000
,  // measure 21
0010
0000
0100
0001
1000
0000
0000
0100
0000
0000
1000
0000
0001
0000
1000
0000
,  // measure 22
0001
0100
0010
0000
1000
0000
0001
0010
0100
0000
1000
0000
0010
1000
0001
0100
,  // measure 23
1001
1000
1010
1000
1100
1000
1010
1000
,  // measure 24
1001
0000
1000
0100
1000
0000
1000
0000
1000
0001
0010
0000
1000
0000
1000
0000
,  // measure 25
1000
0001
0100
0000
1000
0000
1000
0000
1020
0000
1030
0000
1002
0000
1003
0000
,  // measure 26
1200
1300
1020
1030
1002
1003
1020
1030
,  // measure 27
1200
0000
1300
0000
1020
0000
1030
0000
1000
0001
1000
0100
1000
0010
1000
0100
,  // measure 28
1001
0000
0100
0010
1000
0000
0001
0000
1000
0000
0001
0100
0001
0000
0010
0000
,  // measure 29
1000
0000
0010
0001
1000
0010
0100
0000
1000
0100
0010
0100
1000
0010
0100
0000
,  // measure 30
0001
0010
0100
0010
0001
1000
0010
0000
0100
0001
1000
0010
0100
0001
1000
0000
,  // measure 31
0001
1000
0010
0100
0001
1000
0010
0000
0200
0000
0000
0000
0000
0000
0000
0000
,  // measure 32
0310
0000
0002
0000
0000
0000
0003
0000
0110
0000
1000
0100
0010
0001
0010
0100
,  // measure 33
1001
0010
0100
1000
0001
0010
0100
1000
0010
0000
0000
0000
0001
0000
0010
0000
,  // measure 34
0100
1000
1000
0010
1000
0000
0001
0010
,  // measure 35
0100
0000
0020
0000
0000
0000
0030
0000
1000
0000
0001
0000
0100
0000
0010
0001
,  // measure 36
0010
0100
1000
0010
0100
0001
0010
0100
1001
0000
0100
0000
0010
0000
1000
0000
,  // measure 37
0001
0100
0010
0000
1000
0000
0010
0100
1001
0000
0100
0000
0010
0000
1000
0000
,  // measure 38
0101
1000
0010
0100
0001
0010
0100
0010
0001
1000
0001
0010
0100
0000
1000
0000
,  // measure 39
0001
0010
0100
1000
0010
0100
0001
0010
1100
0000
0001
0000
0010
0000
0100
0000
,  // measure 40
1000
0100
0010
0100
1000
0001
0010
0100
0011
0000
0100
0000
0010
0000
0001
0000
,  // measure 41
1000
0000
0100
0000
0010
0000
0001
0000
1000
0000
0100
0000
0010
0001
0010
0100
,  // measure 42
1001
0000
0000
1001
0000
0000
1001
0000
1001
0000
0000
0000
0010
0000
1000
0000
,  // measure 43
0010
0001
0100
0010
1000
0001
0100
0010
,  // measure 44
2000
0000
0000
0000
0000
0000
0000
0000
0000
0000
3001
0000
0010
0100
1000
0100
,  // measure 45
0010
0001
0010
0100
1001
0000
0010
0000
1001
0000
0100
0000
0001
0000
1000
0000
,  // measure 46
0010
0000
0100
0000
0010
0001
1000
0010
0100
0000
0010
0001
1000
0000
0010
0000
,  // measure 47
1000
0000
0001
0000
0100
0000
0010
0000
0001
0000
0010
0000
1000
0100
0010
0100
,  // measure 48
1000
0001
0010
0100
1001
0000
0100
0000
1010
0000
0110
0000
0101
0000
0011
0000
,  // measure 49
0110
0000
1100
0000
0110
0000
0110
0000
0000
0000
1001
0000
0110
1000
0100
0010
,  // measure 50
0001
0000
1100
0001
0010
0100
1001
0000
0110
0000
1010
0000
1010
0100
0010
0001
,  // measure 51
0010
0100
1000
0010
0100
0001
1000
0010
1001
0000
0101
0000
0110
0000
1010
0000
,  // measure 52
1100
0000
1010
0000
1001
0000
1010
0000
1001
0000
0010
0100
1000
0010
0100
0010
,  // measure 53
1001
0010
0100
1000
0001
0100
0010
1000
0001
0010
0100
1000
0100
0010
0001
0010
,  // measure 54
0100
1000
0100
0010
0100
1000
0100
0010
1001
0000
0110
0000
1010
0000
0001
0100
,  // measure 55
0010
1000
0001
0000
1010
0000
0101
0000
0110
0000
1010
0000
0101
0000
1000
0010
,  // measure 56
0100
0001
1000
0000
0101
0000
0110
0000
1010
0000
0110
0000
0101
0000
0001
0100
,  // measure 57
0010
1000
0001
0000
1010
0000
0110
0000
0101
0000
0110
0000
1001
0000
1000
0010
,  // measure 58
0100
0001
1000
0000
0010
1000
0001
0100
1001
0000
0110
0000
0001
0100
0010
1000
,  // measure 59
0001
0000
1000
0010
0100
0001
1000
0010
1001
0010
0100
1000
0001
0100
0010
1000
,  // measure 60
0001
0010
0100
1000
0100
0010
0001
0010
1001
0000
0000
0000
0110
0000
0000
0000
,  // measure 61
1001
0100
0010
0100
1000
0001
0100
0001
1100
0000
0100
0001
1000
0010
1001
0000
,  // measure 62
0010
1000
0001
0100
0010
0100
0001
0010
1100
0000
0011
0000
1100
0000
0110
0000
,  // measure 63
1001
0110
0011
1100
0011
1001
0110
0101
,  // measure 64
0011
0101
0110
1010
1001
1001
1001
1001
,  // measure 65
1001
1001
1001
1001
0110
0110
0110
0110
,  // measure 66
0110
0110
0110
0110
1001
1010
0101
0110
,  // measure 67
1100
1001
1010
1001
0110
0101
1010
1100
,  // measure 68
1001
0000
0101
0000
0110
0000
1001
0000
0110
0001
0010
0100
1000
0010
0100
0010
,  // measure 69
0001
0100
0010
0100
1001
0010
1000
0010
0100
0001
0100
0010
0001
1000
0100
1000
,  // measure 70
0001
0100
0001
1000
0010
0100
0010
0100
1001
0000
0010
0000
1100
0000
0110
0000
,  // measure 71
0001
1000
0001
0100
0001
0000
0100
0000
1100
0000
0110
0000
0011
0000
1100
0000
,  // measure 72
0001
0100
0010
1000
0001
0000
0100
0000
1010
0000
0110
0000
0011
0000
0110
0000
,  // measure 73
1000
0010
0100
0001
1000
0000
0101
0000
1010
0000
1001
0000
1100
0000
0011
0000
,  // measure 74
1000
0010
0100
0001
1000
0000
0110
0000
0012
0000
0010
0000
1000
0000
0100
0000
,  // measure 75
0023
1000
0001
1000
0230
0010
0001
0010
,  // measure 76
2300
0001
0100
0010
3200
1000
0001
1000
,  // measure 77
0010
0000
0001
0000
1300
0000
0010
0000
1001
0000
0010
0100
1000
0010
1001
0000
,  // measure 78
0010
1000
0001
0100
0010
1000
0001
0100
1010
0000
0001
1000
0001
0000
0010
0100
,  // measure 79
0010
0000
1000
0001
1000
0000
0010
0100
1010
0000
0001
0100
0001
0000
0010
0100
,  // measure 80
0010
0000
0001
1000
0001
0000
0010
0100
0011
0000
1000
0010
1000
0000
0001
0100
,  // measure 81
0001
0000
1000
0001
1000
0000
0010
0100
1001
0000
0100
0001
0100
0000
0010
1000
,  // measure 82
0010
0100
0001
0010
1000
0001
0100
0010
1001
0000
0110
0000
1001
0000
0110
0000
,  // measure 83
0011
1100
0011
1100
0101
1010
0101
0011
,  // measure 84
1100
0000
0011
0000
1000
0001
0100
0010
1001
0000
0010
1000
0001
0000
0100
0001
,  // measure 85
1000
0000
0010
0100
1000
0000
0001
0010
0100
1000
0100
0010
0001
0010
0001
0010
,  // measure 86
0100
1000
0010
0100
0001
1000
0010
0100
1001
0000
0110
0000
1001
0000
0001
0000
,  // measure 87
0001
0000
1010
0000
0110
0000
1010
0000
0001
1000
0001
1000
0010
0100
0010
0100
,  // measure 88
1001
0110
1001
1000
1000
0101
0011
0101
,  // measure 89
1000
0000
0010
0000
0100
0000
0001
0000
0000
0010
0000
0000
1100
0000
0000
0110
0000
0000
1100
0000
0000
1000
0000
0000
,  // measure 90
0011
0110
0011
0010
0010
1001
0110
1001
,  // measure 91
0001
1001
0110
1001
0000
0000
0000
0000
;
