#TITLE:Destiny GAMMA;
#SUBTITLE:;
#ARTIST:Smiley vs. hi19hi19;
#TITLETRANSLIT:;
#SUBTITLETRANSLIT:;
#ARTISTTRANSLIT:;
#CREDIT:;
#BANNER:../fthescorept1bn.png;
#BACKGROUND:../fthescorept1bg.png;
#LYRICSPATH:;
#CDTITLE:HI19.png;
#MUSIC:DestinyGamma.ogg;
#OFFSET:-0.021;
#SAMPLESTART:51.220;
#SAMPLELENGTH:14.560;
#SELECTABLE:YES;
#BPMS:0.000=262.500;
#STOPS:;
#BGCHANGES:;
// cache tags:
#FIRSTBEAT:16.000;
#LASTBEAT:545.000;
#SONGFILENAME:Songs/Fuck The Score Part I/Destiny Gamma [Dossar]/DestinyGamma.sm;
#HASMUSIC:1;
#HASBANNER:1;
#MUSICLENGTH:126.249;
// end cache tags

//---------------dance-single - ----------------
#NOTES:
     dance-single:
     :
     Medium:
     17:
     1.000,1.000,0.000,0.024,1.000,1213.000,0.000,3.000,0.000,0.000:
0000
0000
0000
0000
,
0000
0000
0000
0000
,
0000
0000
0000
0000
,
0000
0000
0000
0000
,
1000
0100
0000
0010
0001
0000
1000
0010
0000
0100
0001
0000
1000
0000
0100
0000
,
0010
0001
0000
1000
0010
0000
0100
0001
0000
1000
0100
0000
0010
0000
0100
0000
,
1000
0001
0000
0100
0001
0000
1000
0010
0000
0100
0001
0000
1000
0000
0100
0000
,
0010
0001
0000
1000
0100
0000
0010
0100
0000
1000
0001
0000
0100
0000
0001
0000
,
1000
0000
0010
0100
0000
0100
0001
0000
,
1000
0000
0100
0010
0000
0010
0001
0000
,
1000
0000
0010
0100
0000
0100
0001
0000
,
1000
0000
0001
0010
0000
0010
0100
0000
,
1000
0000
0100
0010
0000
0010
0001
0000
,
1000
0000
0010
0100
0000
0100
0001
0000
,
1000
0100
0010
0001
,
1000
0010
0100
0001
,
1000
0100
1000
0001
0100
0001
1000
0010
,
0100
0001
0100
0010
1000
0010
0100
0001
,
1000
0100
1000
0001
0010
0001
1000
0100
,
0010
0001
0010
0100
1000
0100
0010
0001
,
1000
0010
1000
0001
0100
0001
0010
0100
,
1000
0001
1000
0010
0100
0010
1000
0100
,
0010
0001
0010
0100
1000
0001
1000
0100
,
0010
0001
0010
0100
1000
0001
1000
0100
,
0010
0001
1000
0100
1000
0001
0010
0100
1000
0001
0010
0001
1000
0000
0000
0000
,
0001
0100
0001
1000
0010
1000
0001
0100
0010
1000
0001
1000
0100
0000
0000
0000
,
1000
0100
0010
0001
1000
0100
0010
0001
1000
0100
1000
0001
1000
0000
0000
0000
,
0001
0010
0100
1000
0001
0010
0100
1000
0001
0010
0001
1000
0001
0000
0000
0000
,
1000
0010
0100
0001
1000
0010
1000
0001
0100
0010
1000
0001
0100
0000
0000
0000
,
0001
0100
0001
1000
0010
0100
0001
1000
0010
1000
0001
0100
0001
0000
0000
0000
,
1000
0100
0010
0001
1000
0100
0010
0001
1000
0100
0010
0001
1000
0000
0000
0000
,
0001
0010
0001
1000
0100
0010
0001
1000
0100
1000
0001
0010
0001
0000
0000
0000
,
1000
0010
0100
0001
1000
0001
1000
0100
1000
0001
0100
0001
1000
0000
0000
0000
,
0001
0100
0010
1000
0001
1000
0010
0100
0001
1000
0001
0100
0001
0000
0000
0000
,
1000
0100
0010
0001
1000
0100
1000
0001
0010
0100
1000
0001
1000
0000
0000
0000
,
0001
0010
0100
1000
0001
0010
0001
1000
0100
0010
0001
1000
0001
0000
0000
0000
,
1000
0010
0100
0001
1000
0001
1000
0100
1000
0001
0100
0001
1000
0000
0000
0000
,
0001
0100
0010
1000
0001
1000
0001
0010
0001
1000
0010
1000
0001
0000
0000
0000
,
1000
0100
0010
0001
1000
0100
0010
0001
1000
0001
0010
0100
1000
0000
0000
0000
,
0001
0010
0100
1000
0001
0010
0100
1000
0001
1000
0100
0010
0001
0000
0000
0000
,
1000
0000
0010
0100
0000
0001
1000
0100
,
1000
0000
0000
0001
0000
0100
0001
0000
,
1000
0100
0010
0000
0001
0000
0100
0010
,
0000
0000
0000
1000
0000
0001
0010
0100
,
1000
0100
0010
0000
0001
0000
0010
0001
,
0000
0000
0000
1000
0000
0010
0100
0001
,
1000
0000
0000
0010
0000
0000
0100
0001
,
0000
0000
0000
1000
0000
0000
0001
0000
,
1000
0000
0010
0100
0000
0001
1000
0100
,
1000
0000
0000
0001
0000
0100
0001
0000
,
1000
0100
0010
0000
0001
0000
0100
0010
,
0000
0000
0000
1000
0000
0001
0010
0100
,
1000
0100
0010
0000
0001
0000
0010
0001
,
0000
0000
0000
1000
0000
0010
0100
0001
,
1000
0000
0000
0010
0000
0000
0100
0001
,
0000
0000
0000
0000
0000
0000
1000
0000
0001
0100
0001
1000
0010
0100
0001
1000
,
0010
1000
0001
0100
0010
1000
0001
0100
0001
1000
0010
1000
0001
0000
0000
0000
,
1000
0010
0100
0001
1000
0001
1000
0010
0100
0001
0100
0010
1000
0000
0000
0000
,
0001
0010
0100
1000
0001
0010
0100
1000
0001
0010
0001
1000
0001
0000
0000
0000
,
1000
0100
0010
0001
1000
0100
0010
0001
1000
0100
1000
0001
1000
0000
0000
0000
,
0001
0100
0010
1000
0001
0100
0001
1000
0010
0100
0001
1000
0010
0000
0000
0000
,
1000
0010
1000
0001
0100
0010
1000
0001
0100
0001
1000
0010
1000
0000
0000
0000
,
0001
0010
0100
1000
0001
0010
0100
1000
0001
0010
0100
1000
0001
0000
0000
0000
,
1000
0100
1000
0001
0010
0100
1000
0001
0010
0001
1000
0100
1000
0000
0000
0000
,
0001
0100
0010
1000
0001
1000
0001
0010
0001
1000
0010
1000
0001
0000
0000
0000
,
1000
0010
0100
0001
1000
0001
0100
0010
1000
0001
1000
0010
1000
0000
0000
0000
,
0001
0010
0100
1000
0001
0010
0001
1000
0100
0010
0001
1000
0001
0000
0000
0000
,
1000
0100
0010
0001
1000
0100
1000
0001
0010
0100
1000
0001
1000
0000
0000
0000
,
0001
0100
0010
1000
0001
1000
0001
0010
0001
1000
0010
1000
0001
0000
0000
0000
,
1000
0010
0100
0001
1000
0001
1000
0100
1000
0001
0100
0001
1000
0000
0000
0000
,
0001
0010
0100
1000
0001
0010
0100
1000
0001
1000
0100
0010
0001
0000
0000
0000
,
1000
0100
0010
0001
1000
0100
0010
0001
1000
0001
0010
0100
1000
0000
0000
0000
,
0001
0100
0001
0000
1000
0000
0100
0000
0000
0000
1000
0000
0001
0000
0000
0000
,
1000
0100
1000
0000
0001
0000
0010
0000
0000
0000
0100
0000
1000
0000
0000
0000
,
0100
0010
0100
0000
1000
0000
0001
0000
0000
0000
0010
0000
0100
0000
0000
0000
,
1000
0001
1000
0000
0010
0000
0100
0000
0000
0000
0001
0000
0100
0000
0000
0000
,
0010
1000
0010
0100
0001
0000
0000
0000
1000
0000
0000
0000
0100
0000
0000
0000
,
0010
0001
0010
0100
1000
0000
0000
0000
0001
0000
0000
0000
0100
0000
0000
0000
,
0020
1000
1000
1000
,
1000
0000
1000
0000
1030
0010
0100
0001
,
1000
0100
1000
0000
0001
0000
0010
0000
0000
0000
0100
0000
1000
0000
0000
0000
,
0100
0010
0100
0000
1000
0000
0001
0000
0000
0000
0010
0000
0100
0000
0000
0000
,
1000
0001
1000
0000
0010
0000
0100
0000
0000
0000
0001
0000
0100
0000
0000
0000
,
0010
1000
0010
0000
0100
0000
0001
0000
0000
0000
1000
0000
0100
0000
0000
0000
,
0010
0001
0010
0100
1000
0000
0000
0000
0001
0000
0000
0000
1000
0000
0000
0000
,
0100
1000
0100
0010
0001
0000
0000
0000
1000
0000
0000
0000
0010
0000
0000
0000
,
0200
0001
0001
0001
,
0001
0000
0001
0000
0301
1000
0010
0100
,
0001
0000
1000
0100
0000
0010
0001
0000
,
1000
0010
0000
0100
0001
0100
0010
1000
,
0001
0000
1000
0100
0000
0010
0001
0000
,
0010
0100
0000
1000
0001
0010
0100
0010
,
0001
0000
1000
0010
0000
0100
0001
0000
,
1000
0100
0000
1000
0001
0100
0001
1000
,
0010
0000
0100
0001
0000
1000
0100
0000
,
0010
0001
0000
1000
0001
0010
0100
0010
,
0001
0000
1000
0100
0000
0010
0001
0000
,
1000
0010
0000
0100
0001
0100
0010
1000
,
0001
0000
1000
0100
0000
0010
0001
0000
,
0010
0100
0000
1000
0001
0010
0100
0010
,
0001
0000
1000
0010
0000
0100
0001
0000
,
1000
0000
0100
0000
0000
0000
1000
0000
0001
0100
0001
1000
0010
0100
0001
1000
,
0010
1000
0001
0100
0010
1000
0001
0100
0001
1000
0010
1000
0001
0100
0010
1000
,
0001
0100
0001
1000
0001
0000
0100
0000
0010
1000
0010
0100
0001
0000
1000
0000
,
0001
0010
0001
1000
0100
0010
0001
0010
0100
1000
0100
0010
0001
0000
0000
0000
,
1000
0010
1000
0001
0100
0001
1000
0010
0100
0001
1000
0001
0010
0000
0000
0000
,
0001
0010
0100
1000
0001
0010
0100
1000
0001
0010
0001
1000
0001
0000
0000
0000
,
1000
0100
0010
0001
1000
0100
0010
0001
1000
0100
1000
0001
1000
0000
0000
0000
,
0001
0100
0010
1000
0001
0100
0001
1000
0010
0100
0001
1000
0010
0000
0000
0000
,
1000
0010
1000
0001
0100
0010
1000
0001
0100
0001
1000
0010
1000
0000
0000
0000
,
0001
0010
0100
1000
0001
0010
0100
1000
0001
0010
0100
1000
0001
0000
0000
0000
,
1000
0100
1000
0001
0010
0100
1000
0001
0010
0001
1000
0100
1000
0000
0000
0000
,
0001
0100
0010
1000
0001
1000
0001
0010
0001
1000
0010
1000
0001
0000
0000
0000
,
1000
0010
0100
0001
1000
0001
0100
0010
1000
0001
1000
0010
1000
0000
0000
0000
,
0001
0010
0100
1000
0001
0010
0001
1000
0100
0010
0001
1000
0001
0000
0000
0000
,
1000
0100
0010
0001
1000
0100
1000
0001
0010
0100
1000
0001
1000
0000
0000
0000
,
0001
0100
0010
1000
0001
1000
0001
0010
0001
1000
0010
1000
0001
0000
0000
0000
,
1000
0010
0100
0001
1000
0001
1000
0100
1000
0001
0100
0001
1000
0000
0000
0000
,
0001
0010
0100
1000
0001
0010
0100
1000
0001
1000
0100
0010
0001
0000
0000
0000
,
1000
0100
0010
0001
1000
0100
0010
0001
1000
0001
0010
0100
1000
0000
0000
0000
,
0001
0100
0001
1000
0010
1000
0001
0100
0010
1000
0001
0100
0001
0000
0000
0000
,
1000
0100
1000
0001
0010
0001
1000
0100
0010
0001
0010
0100
1000
0000
0000
0000
,
0001
0010
0001
1000
0100
1000
0001
0010
0100
1000
0100
0010
0001
0000
0000
0000
,
1000
0010
1000
0001
0100
0001
1000
0010
0100
0001
1000
0010
1000
0000
0000
0000
,
0001
0100
0001
1000
0010
1000
0001
0100
0010
1000
0001
0100
0001
0000
0000
0000
,
1000
0100
1000
0001
0010
0001
1000
0100
0010
0001
0010
0100
1000
0000
0000
0000
,
0001
0010
0001
1000
0100
1000
0001
0010
0100
1000
0100
0010
0001
0000
0000
0000
,
1000
0010
1000
0001
0100
0001
1000
0010
0100
0001
1000
0010
1000
0000
0000
0000
,
0001
0000
0100
0010
0000
1000
0001
0010
,
0100
0000
0000
1000
0000
0001
0100
0000
,
0001
0010
0100
0000
0010
0000
0001
1000
,
0000
0000
0000
0010
0000
0100
0001
1000
,
0100
0010
0001
0000
0100
0000
0010
1000
,
0000
0000
0000
0001
0000
1000
0100
0010
,
0001
0000
0000
0100
0000
0000
0010
1000
,
0000
0000
0000
0000
0000
0000
0001
0000
1000
0010
0100
0001
1000
0010
0100
0001
,
2000
3000
0000
0000
;

//---------------dance-single - ----------------
#NOTES:
     dance-single:
     :
     Hard:
     18:
     1.000,1.000,0.000,0.024,1.000,1213.000,0.000,3.000,0.000,0.000:
0000
0000
0000
0000
,
0000
0000
0000
0000
,
0000
0000
0000
0000
,
0000
0000
0000
0000
,
1000
0100
0000
0010
0001
0000
1000
0010
0000
0100
0001
0000
1000
0000
0100
0000
,
0010
0001
0000
1000
0010
0000
0100
0001
0000
1000
0100
0000
0010
0000
0100
0000
,
1000
0001
0000
0100
0001
0000
1000
0010
0000
0100
0001
0000
1000
0000
0100
0000
,
0010
0001
0000
1000
0100
0000
0010
0100
0000
1000
0001
0000
0100
0000
0001
0000
,
1000
0000
0010
0100
0000
0100
0001
0000
,
1000
0000
0100
0010
0000
0010
0001
0000
,
1000
0000
0010
0100
0000
0100
0001
0000
,
1000
0000
0001
0010
0000
0010
0100
0000
,
1000
0000
0100
0010
0000
0010
0001
0000
,
1000
0000
0010
0100
0000
0100
0001
0000
,
1000
0100
0010
0001
,
1000
0010
0100
0001
,
1000
0100
1000
0001
0100
0001
1000
0010
,
0100
0001
0100
0010
1000
0010
0100
0001
,
1000
0100
1000
0001
0010
0001
1000
0100
,
0010
0001
0010
0100
1000
0100
0010
0001
,
1000
0010
1000
0001
0100
0001
0010
0100
,
1000
0001
1000
0010
0100
0010
1000
0100
,
0010
0001
0010
0100
1000
0001
1000
0100
,
0010
0001
0010
0100
1000
0001
1000
0100
,
0010
0001
1000
0010
0100
0001
0010
0100
1000
0010
0100
0010
1000
0000
0000
0000
,
0001
0100
0010
1000
0100
0010
0001
0100
0010
0100
0001
1000
0100
0000
0000
0000
,
1000
0100
0010
0001
0100
0010
0100
0001
0010
0100
1000
0010
0100
0000
0000
0000
,
0001
1000
0100
1000
0010
0100
0001
0010
0100
1000
0001
0100
0001
0000
0000
0000
,
1000
0100
0010
0001
0100
0010
0100
0001
1000
0100
0010
0001
0100
0000
0000
0000
,
0001
1000
0010
0100
0001
0010
0001
1000
0100
0010
0001
0100
0010
0000
0000
0000
,
1000
0100
0010
0001
0100
0010
1000
0100
1000
0010
0100
0001
0010
0000
0000
0000
,
0001
0100
0010
1000
0100
0010
0100
1000
0010
0100
0001
1000
0100
0000
0000
0000
,
1000
0010
0100
0001
0010
0100
1000
0010
1000
0100
0010
0001
1000
0000
0000
0000
,
0001
0100
0010
1000
0100
0010
0001
0100
0001
0010
0100
1000
0001
0000
0000
0000
,
1000
0100
0010
0001
0100
0010
0100
0001
0010
0100
1000
0010
0100
0000
0000
0000
,
0001
0010
0100
1000
0010
1000
0100
0010
0100
1000
0010
0100
0001
0000
0000
0000
,
1000
0010
0100
0001
0010
0001
0100
0001
0010
0100
1000
0001
0100
0000
0000
0000
,
0001
0100
0010
1000
0100
1000
0001
0100
0010
1000
0100
0010
0001
0000
0000
0000
,
0100
0001
0010
0001
1000
0010
0100
0001
0010
0100
1000
0001
0100
0000
0000
0000
,
0001
0010
0100
1000
0010
0100
0010
1000
0100
0010
0100
1000
0001
0000
0000
0000
,
1000
0000
0010
0100
0000
0001
1000
0100
,
1000
0000
0000
0001
0000
0100
0001
0000
,
1000
0100
0010
0000
0001
0000
0100
0010
,
0000
0000
0000
1000
0000
0001
0010
0100
,
1000
0100
0010
0000
0001
0000
0010
0001
,
0000
0000
0000
1000
0000
0010
0100
0001
,
1000
0000
0000
0010
0000
0000
0100
0001
,
0000
0000
0000
1000
0000
0000
0001
0000
,
1000
0000
0010
0100
0000
0001
1000
0100
,
1000
0000
0000
0001
0000
0100
0001
0000
,
1000
0100
0010
0000
0001
0000
0100
0010
,
0000
0000
0000
1000
0000
0001
0010
0100
,
1000
0100
0010
0000
0001
0000
0010
0001
,
0000
0000
0000
1000
0000
0010
0100
0001
,
1000
0000
0000
0010
0000
0000
0100
0001
,
0000
0000
0000
0000
0000
0000
1000
0000
0001
0100
0010
1000
0100
0010
0001
1000
,
0010
1000
0100
1000
0001
0100
0010
1000
0100
0010
0100
1000
0001
0000
0000
0000
,
1000
0010
0100
0001
0010
0001
1000
0001
0100
0010
1000
0100
0010
0000
0000
0000
,
0001
0010
0100
1000
0010
0100
0001
1000
0100
0010
0001
0100
0010
0000
0000
0000
,
1000
0100
0010
0001
0100
0010
1000
0100
1000
0010
0100
0001
0010
0000
0000
0000
,
0100
1000
0010
0100
0001
0010
0100
0010
0001
0100
0010
1000
0100
0000
0000
0000
,
1000
0010
0100
0001
0010
0001
0100
0010
1000
0100
0010
0001
1000
0000
0000
0000
,
0001
0100
0010
1000
0100
0010
0001
0100
0010
1000
0100
1000
0001
0000
0000
0000
,
1000
0010
0100
0001
0010
0100
0010
0001
0100
0010
1000
0100
0010
0000
0000
0000
,
0001
0100
0010
1000
0100
0010
0100
1000
0001
0100
0010
1000
0100
0000
0000
0000
,
1000
0001
0100
0010
1000
0100
0010
0001
0100
0010
0100
0001
1000
0000
0000
0000
,
0001
0010
0100
1000
0010
1000
0001
0010
0100
0010
0001
0100
0010
0000
0000
0000
,
1000
0100
0010
0100
1000
0010
0100
0001
1000
0100
0010
0001
1000
0000
0000
0000
,
0001
0100
0010
1000
0100
0010
0001
0100
0010
1000
0100
1000
0001
0000
0000
0000
,
1000
0010
0100
0001
0010
0001
1000
0100
1000
0010
1000
0001
0100
0000
0000
0000
,
0001
0010
0100
1000
0010
1000
0001
0100
0010
1000
0100
0010
0001
0000
0000
0000
,
1000
0010
0100
0001
1000
0010
1000
0100
1000
0001
0100
0001
0010
0000
0000
0000
,
0001
0100
0001
0000
1000
0000
0100
0000
0000
0000
1000
0000
0001
0000
0000
0000
,
1000
0100
1000
0000
0001
0000
0010
0000
0000
0000
0100
0000
1000
0000
0000
0000
,
0100
0010
0100
0000
1000
0000
0001
0000
0000
0000
0010
0000
0100
0000
0000
0000
,
1000
0001
1000
0000
0010
0000
0100
0000
0000
0000
0001
0000
0100
0000
0000
0000
,
0010
1000
0100
0010
0001
0000
0000
0000
1000
0000
0000
0000
0100
0000
0000
0000
,
0010
0001
0100
0010
1000
0000
0000
0000
0001
0000
0000
0000
0100
0000
0000
0000
,
0020
1000
1000
1000
,
1000
0000
1000
0000
1030
0010
0100
0001
,
1000
0100
1000
0000
0001
0000
0010
0000
0000
0000
0100
0000
1000
0000
0000
0000
,
0100
0010
0100
0000
1000
0000
0001
0000
0000
0000
0010
0000
0100
0000
0000
0000
,
1000
0001
1000
0000
0010
0000
0100
0000
0000
0000
0001
0000
0100
0000
0000
0000
,
0010
1000
0010
0000
0100
0000
0001
0000
0000
0000
1000
0000
0100
0000
0000
0000
,
0010
0001
0100
0010
1000
0000
0000
0000
0001
0000
0000
0000
1000
0000
0000
0000
,
0100
1000
0010
0100
0001
0000
0000
0000
1000
0000
0000
0000
0010
0000
0000
0000
,
0200
0001
0001
0001
,
0001
0000
0001
0000
0301
1000
0010
0100
,
0001
0000
1000
0100
0000
0010
0001
0000
,
1000
0010
0000
0100
0001
0100
0010
1000
,
0001
0000
1000
0100
0000
0010
0001
0000
,
0010
0100
0000
1000
0001
0010
0100
0010
,
0001
0000
1000
0010
0000
0100
0001
0000
,
1000
0100
0000
1000
0001
0100
0001
1000
,
0010
0000
0100
0001
0000
1000
0100
0000
,
0010
0001
0000
1000
0001
0010
0100
0010
,
0001
0000
1000
0100
0000
0010
0001
0000
,
1000
0010
0000
0100
0001
0100
0010
1000
,
0001
0000
1000
0100
0000
0010
0001
0000
,
0010
0100
0000
1000
0001
0010
0100
0010
,
0001
0000
1000
0010
0000
0100
0001
0000
,
1000
0000
0100
0000
0000
0000
1000
0000
0001
0100
0010
1000
0100
0010
0001
0100
,
0001
1000
0010
0100
0001
0010
0100
1000
0010
1000
0001
0100
0010
1000
0100
0010
,
0001
1000
0001
0100
0010
0000
1000
0000
0100
1000
0010
0100
0001
0000
1000
0000
,
0001
0010
0100
1000
0010
0100
0001
0010
0100
1000
0100
0010
0001
0000
0000
0000
,
1000
0010
0100
0001
0010
0001
0100
0010
1000
0100
1000
0001
0100
0000
0000
0000
,
0001
0010
0100
1000
0010
0100
0010
1000
0100
0010
0001
0100
0010
0000
0000
0000
,
1000
0100
0010
0001
0100
0010
0100
0001
0010
0100
1000
0010
0100
0000
0000
0000
,
0001
0100
0010
1000
0100
0010
0001
1000
0010
1000
0100
0010
0001
0000
0000
0000
,
1000
0010
0100
0001
0010
0001
1000
0100
1000
0010
0100
0001
0010
0000
0000
0000
,
0001
0010
0100
1000
0010
0100
0010
1000
0100
0010
0001
0100
0001
0000
0000
0000
,
1000
0100
0010
0001
0100
0010
1000
0100
0010
0100
1000
0001
0100
0000
0000
0000
,
0001
0100
0010
1000
0100
0010
0001
0100
0010
1000
0100
1000
0001
0000
0000
0000
,
1000
0010
0100
0001
0010
0001
1000
0100
0010
0001
0100
0010
1000
0000
0000
0000
,
0001
0010
0100
1000
0010
0100
0001
1000
0100
0010
0001
0100
0010
0000
0000
0000
,
1000
0100
0010
0001
0100
0010
0100
0001
0010
0100
1000
0010
1000
0000
0000
0000
,
0001
0100
0010
1000
0100
0010
0001
0100
0001
0010
0100
1000
0001
0000
0000
0000
,
1000
0010
0100
0001
1000
0100
0010
0100
1000
0010
0100
0001
1000
0000
0000
0000
,
0001
0010
0100
1000
0010
0100
0001
0100
0010
1000
0100
0010
0001
0000
0000
0000
,
1000
0100
0010
0001
0100
0010
0100
0001
1000
0100
0010
0001
0100
0000
0000
0000
,
0001
0100
0001
0010
0100
1000
0010
1000
0100
0010
0100
1000
0001
0000
0000
0000
,
1000
0100
0010
0001
0100
0001
0010
0100
0010
0001
0100
0010
1000
0000
0000
0000
,
0001
0010
0001
1000
0010
0100
0001
0010
0100
1000
0010
1000
0001
0000
0000
0000
,
1000
0010
0100
0001
0010
0100
1000
0010
1000
0001
0010
0100
1000
0000
0000
0000
,
0001
0100
0001
0010
0001
0100
0010
1000
0100
0010
0001
1000
0010
0000
0000
0000
,
0100
0001
0010
0100
1000
0001
0100
0010
1000
0010
0100
0001
0010
0000
0000
0000
,
0001
0010
0001
1000
0100
1000
0001
0010
0100
1000
0100
0010
0001
0000
0000
0000
,
1000
0010
1000
0001
0100
0001
0010
0100
1000
0010
0100
0001
1000
0000
0000
0000
,
0001
0000
0100
0010
0000
1000
0001
0010
,
0100
0000
0000
1000
0000
0001
0100
0000
,
0001
0010
0100
0000
0010
0000
0001
1000
,
0000
0000
0000
0010
0000
0100
0001
1000
,
0100
0010
0001
0000
0100
0000
0010
1000
,
0000
0000
0000
0001
0000
1000
0100
0010
,
0001
0000
0000
0100
0000
0000
0010
1000
,
0000
0000
0000
0000
0000
0000
0001
0000
0100
0010
1000
0100
0010
0001
0100
0010
,
2000
3000
0000
0000
;

//---------------dance-single - ----------------
#NOTES:
     dance-single:
     :
     Challenge:
     20:
     1.000,1.000,0.000,0.404,1.000,1447.000,0.000,51.000,0.000,0.000:
0000
0000
0000
0000
,
0000
0000
0000
0000
,
0000
0000
0000
0000
,
0000
0000
0000
0000
,
1000
0100
0000
0010
0001
0000
1000
0010
0000
0100
0001
0000
1000
0000
0100
0000
,
0010
0001
0000
1000
0010
0000
0100
0001
0000
1000
0100
0000
0010
0000
0100
0000
,
1000
0001
0000
0100
0001
0000
1000
0010
0000
0100
0001
0000
1000
0000
0100
0000
,
0010
0001
0000
1000
0100
0000
0010
0100
0000
1000
0001
0000
0100
0000
0001
0000
,
1000
0000
0000
0000
0100
0000
0000
0000
0000
0000
0000
0000
0010
0000
0000
0000
0001
0000
0000
0000
0000
0000
0000
0000
0100
0000
0000
0000
0010
0000
0000
0000
0000
0000
0000
0000
1000
0000
0000
0000
0001
0000
0000
0000
0000
0000
0000
0000
0200
0300
0000
0000
0000
0000
0000
0000
0010
0000
0000
0000
0000
0000
0000
0000
,
2000
3000
0000
0000
0100
0000
0000
0000
0000
0000
0000
0000
0010
0000
0000
0000
0001
0000
0000
0000
0000
0000
0000
0000
0200
0300
0000
0000
0010
0000
0000
0000
0000
0000
0000
0000
1000
0000
0000
0000
0100
0000
0000
0000
0000
0000
0000
0000
0020
0030
0000
0000
0000
0000
0000
0000
0001
0000
0000
0000
0000
0000
0000
0000
,
0200
0300
0000
0000
0010
0000
0000
0000
0000
0000
0000
0000
1000
0000
0000
0000
0100
0000
0000
0000
0000
0000
0000
0000
0020
0030
0000
0000
0001
0000
0000
0000
0000
0000
0000
0000
1000
0000
0000
0000
0010
0000
0000
0000
0000
0000
0000
0000
0200
0300
0000
0000
0000
0000
0000
0000
0001
0000
0000
0000
0000
0000
0000
0000
,
2000
3000
0000
0000
0100
0000
0000
0000
0000
0000
0000
0000
0010
0000
0000
0000
0001
0000
0000
0000
0000
0000
0000
0000
2000
3000
0000
0000
0010
0000
0000
0000
0000
0000
0000
0000
0100
0000
0000
0000
0001
0000
0000
0000
0000
0000
0000
0000
0020
0030
0000
0000
0000
0000
0000
0000
0100
0000
0000
0000
0000
0000
0000
0000
,
2000
3000
0000
0000
0010
0000
0000
0000
0000
0000
0000
0000
0100
0000
0000
0000
0001
0000
0000
0000
0000
0000
0000
0000
0020
0030
0000
0000
0100
0000
0000
0000
0000
0000
0000
0000
1000
0000
0000
0000
0010
0000
0000
0000
0000
0000
0000
0000
0200
0300
0000
0000
0000
0000
0000
0000
0001
0000
0000
0000
0000
0000
0000
0000
,
0020
0030
0000
0000
0100
0000
0000
0000
0000
0000
0000
0000
0010
0000
0000
0000
0001
0000
0000
0000
0000
0000
0000
0000
2000
3000
0000
0000
0010
0000
0000
0000
0000
0000
0000
0000
0100
0000
0000
0000
0010
0000
0000
0000
0000
0000
0000
0000
2000
3000
0000
0000
0000
0000
0000
0000
0001
0000
0000
0000
0000
0000
0000
0000
,
0020
0030
0000
0000
0100
0000
0000
0000
0000
0000
0000
0000
1000
0000
0000
0000
0200
0300
0000
0000
0000
0000
0000
0000
0010
0000
0000
0000
0001
0000
0000
0000
2000
3000
0000
0000
0010
0000
0000
0000
0100
0000
0000
0000
0000
0000
0000
0000
0002
0003
0000
0000
0000
0000
0000
0000
1000
0000
0000
0000
0000
0000
0000
0000
,
0020
0030
0000
0000
0100
0000
0000
0000
0000
0000
0000
0000
0001
0000
0000
0000
2000
3000
0000
0000
0000
0000
0000
0000
0100
0000
0000
0000
0010
0000
0000
0000
0002
0003
0000
0000
1000
0000
0000
0000
0010
0000
0000
0000
0000
0000
0000
0000
0200
0300
0000
0000
0000
0000
0000
0000
0001
0000
0000
0000
0000
0000
0000
0000
,
1000
0000
0000
0000
0010
0000
0000
0000
0000
0000
0000
0000
0100
0000
0000
0000
0001
0000
0000
0000
0000
0000
0000
0000
0100
0000
0000
0000
0010
0000
0000
0000
0000
0000
0000
0000
1000
0000
0000
0000
0001
0000
0000
0000
0000
0000
0000
0000
0200
0300
0000
0000
0000
0000
0000
0000
0010
0000
0000
0000
0000
0000
0000
0000
,
2000
3000
0000
0000
0100
0000
0000
0000
0000
0000
0000
0000
0010
0000
0000
0000
0001
0000
0000
0000
0000
0000
0000
0000
0200
0300
0000
0000
0010
0000
0000
0000
0000
0000
0000
0000
1000
0000
0000
0000
0100
0000
0000
0000
0000
0000
0000
0000
0020
0030
0000
0000
0000
0000
0000
0000
0001
0000
0000
0000
0000
0000
0000
0000
,
0200
0300
0000
0000
0010
0000
0000
0000
0000
0000
0000
0000
1000
0000
0000
0000
0100
0000
0000
0000
0000
0000
0000
0000
0020
0030
0000
0000
0001
0000
0000
0000
0000
0000
0000
0000
1000
0000
0000
0000
0010
0000
0000
0000
0000
0000
0000
0000
0200
0300
0000
0000
0000
0000
0000
0000
0001
0000
0000
0000
0000
0000
0000
0000
,
2000
3000
0000
0000
0100
0000
0000
0000
0000
0000
0000
0000
0010
0000
0000
0000
0001
0000
0000
0000
0000
0000
0000
0000
2000
3000
0000
0000
0010
0000
0000
0000
0000
0000
0000
0000
0100
0000
0000
0000
0001
0000
0000
0000
0000
0000
0000
0000
0020
0030
0000
0000
0000
0000
0000
0000
0100
0000
0000
0000
0000
0000
0000
0000
,
2000
3000
0000
0000
0010
0000
0000
0000
0000
0000
0000
0000
0100
0000
0000
0000
0001
0000
0000
0000
0000
0000
0000
0000
0020
0030
0000
0000
0100
0000
0000
0000
0000
0000
0000
0000
1000
0000
0000
0000
0010
0000
0000
0000
0000
0000
0000
0000
0200
0300
0000
0000
0000
0000
0000
0000
0001
0000
0000
0000
0000
0000
0000
0000
,
0020
0030
0000
0000
0100
0000
0000
0000
0000
0000
0000
0000
0010
0000
0000
0000
0001
0000
0000
0000
0000
0000
0000
0000
2000
3000
0000
0000
0010
0000
0000
0000
0000
0000
0000
0000
0100
0000
0000
0000
0010
0000
0000
0000
0000
0000
0000
0000
2000
3000
0000
0000
0000
0000
0000
0000
0001
0000
0000
0000
0000
0000
0000
0000
,
0020
0030
0000
0000
0100
0000
0000
0000
0000
0000
0000
0000
1000
0000
0000
0000
0200
0300
0000
0000
0000
0000
0000
0000
0010
0000
0000
0000
0001
0000
0000
0000
2000
3000
0000
0000
0010
0000
0000
0000
0100
0000
0000
0000
0000
0000
0000
0000
0002
0003
0000
0000
0000
0000
0000
0000
1000
0000
0000
0000
0000
0000
0000
0000
,
0020
0030
0000
0000
0100
0000
0000
0000
0000
0000
0000
0000
0001
0000
0000
0000
2000
3000
0000
0000
0000
0000
0000
0000
0100
0000
0000
0000
0010
0000
0000
0000
0002
0003
0000
0000
1000
0000
0000
0000
0010
0000
0000
0000
0000
0000
0000
0000
0200
0300
0000
0000
0000
0000
0000
0000
0001
0000
0000
0000
0000
0000
0000
0000
,
1000
0010
0100
0001
1000
0001
1000
0010
0100
0001
1000
0010
1000
0001
0100
0001
,
1000
0100
0010
0001
1000
0100
1000
0001
0010
0001
1000
0100
0010
0001
0010
0100
,
1000
0001
0100
0001
1000
0010
0100
0001
1000
0010
1000
0001
0100
0010
1000
0001
,
0010
0100
1000
0001
0010
0001
1000
0100
0010
0001
1000
0100
1000
0001
0010
0100
,
1000
0001
0100
0010
1000
0001
0100
0001
1000
0010
0100
0001
1000
0010
1000
0001
,
0010
0100
0010
0001
1000
0100
0010
0001
1000
0100
1000
0001
1000
0100
0010
0001
,
1000
0010
0100
0001
1000
0001
0100
0010
1000
0001
1000
0010
0100
0001
0100
0010
,
1000
0001
0010
0100
1000
0001
0010
0001
1000
0100
0010
0001
1000
0100
0010
0001
,
1000
0010
0100
0001
1000
0001
1000
0010
0100
0001
1000
0010
1000
0001
0100
0001
,
1000
0100
0010
0001
1000
0100
1000
0001
0010
0001
1000
0100
0010
0001
0010
0100
,
1000
0001
0100
0001
1000
0010
0100
0001
1000
0010
1000
0001
0100
0010
1000
0001
,
0010
0100
1000
0001
0010
0001
1000
0100
0010
0001
1000
0100
1000
0001
0010
0100
,
1000
0001
0100
0010
1000
0001
0100
0001
1000
0010
0100
0001
1000
0010
1000
0001
,
0010
0100
0010
0001
1000
0100
0010
0001
1000
0100
1000
0001
1000
0100
0010
0001
,
1000
0010
0100
0001
1000
0001
0100
0010
1000
0001
1000
0010
0100
0001
0100
0010
,
1000
0001
0010
0100
1000
0001
0010
0001
1000
0100
0010
0001
1000
0100
0010
0001
,
1000
0000
0010
0100
0000
0001
1000
0100
,
0010
0000
0000
0001
0000
1000
0001
0000
,
0100
0010
1000
0000
0001
0000
0010
0001
,
0000
0000
0000
0100
0000
0010
1000
0100
,
0010
0001
0100
0000
0010
0000
0000
1000
,
0000
0000
0000
0100
0000
0010
0001
1000
,
0010
0000
0000
0100
0000
0000
0001
1000
,
0000
0000
0000
0001
0000
0000
0001
0000
,
1000
0000
0010
0100
0000
0001
1000
0100
,
0010
0000
0000
0001
0000
1000
0001
0000
,
0100
0010
1000
0000
0001
0000
0010
0001
,
0000
0000
0000
0100
0000
0010
1000
0100
,
0010
0001
0100
0000
0010
0000
0000
1000
,
0000
0000
0000
0100
0000
0010
0001
1000
,
0010
0000
0000
0100
0000
0000
0001
1000
,
0000
0000
0000
0000
0000
0000
1000
0000
0001
0100
0001
0100
0010
1000
0010
1000
,
0001
0100
0010
1000
0001
1000
0001
0100
0010
1000
0001
0100
0001
1000
0010
1000
,
0001
0010
0100
1000
0001
0010
0001
1000
0100
1000
0001
0010
0100
1000
0100
0010
,
0001
1000
0010
1000
0001
0100
0010
1000
0001
0100
0001
1000
0010
0100
0001
1000
,
0100
0010
0001
1000
0100
1000
0001
0010
0100
1000
0001
0010
0001
1000
0100
0010
,
0001
1000
0010
0100
0001
1000
0010
1000
0001
0100
0010
1000
0001
0100
0001
1000
,
0100
0010
0100
1000
0001
0010
0100
1000
0001
0010
0001
1000
0001
0010
0100
1000
,
0001
0100
0010
1000
0001
1000
0010
0100
0001
1000
0001
0100
0010
1000
0010
0100
,
0001
1000
0100
0010
0001
1000
0100
1000
0001
0010
0100
1000
0001
0010
0100
1000
,
0001
0100
0010
1000
0001
1000
0001
0100
0010
1000
0001
0100
0001
1000
0010
1000
,
0001
0010
0100
1000
0001
0010
0001
1000
0100
1000
0001
0010
0100
1000
0100
0010
,
0001
1000
0010
1000
0001
0100
0010
1000
0001
0100
0001
1000
0010
0100
0001
1000
,
0100
0010
0001
1000
0100
1000
0001
0010
0100
1000
0001
0010
0001
1000
0100
0010
,
0001
1000
0010
0100
0001
1000
0010
1000
0001
0100
0010
1000
0001
0100
0001
1000
,
0100
0010
0100
1000
0001
0010
0100
1000
0001
0010
0001
1000
0001
0010
0100
1000
,
0001
0100
0010
1000
0001
1000
0010
0100
0001
1000
0001
0100
0010
1000
0010
0100
,
0001
1000
0100
0010
0001
1000
0100
1000
0001
0010
0100
1000
0001
0010
0100
1000
,
0001
0010
0001
0000
1000
0000
0100
0000
0000
0000
1000
0000
0001
0000
0000
0000
,
1000
0010
1000
0000
0001
0000
0100
0000
0000
0000
0001
0000
1000
0000
0000
0000
,
0010
0100
0010
0000
1000
0000
0001
0000
0000
0000
1000
0000
0100
0000
0000
0000
,
0010
0001
0010
0000
0100
0000
1000
0000
0000
0000
0001
0000
0100
0000
0000
0000
,
0010
1000
0010
0100
0001
0000
0000
0000
1000
0000
0000
0000
0100
0000
0000
0000
,
0010
0001
0010
0100
1000
0000
0000
0000
0001
0000
0100
0000
0010
0000
1000
0000
,
0002
1000
1000
1000
,
1000
0000
1000
0000
1003
0010
0100
0001
,
1000
0100
1000
0000
0001
0000
0010
0000
0000
0000
0001
0000
1000
0000
0000
0000
,
0001
0100
0001
0000
1000
0000
0010
0000
0000
0000
1000
0000
0001
0000
0000
0000
,
0100
0010
0100
0000
0001
0000
1000
0000
0000
0000
0001
0000
0010
0000
0000
0000
,
0100
1000
0100
0000
0010
0000
0001
0000
0000
0000
1000
0000
0010
0000
0000
0000
,
0100
0001
0100
0010
1000
0000
0000
0000
0001
0000
0000
0000
0010
0000
0000
0000
,
0100
1000
0100
0010
0001
0000
0000
0000
1000
0000
0010
0000
0100
0000
0001
0000
,
2000
0001
0001
0001
,
0001
0000
0001
0000
3001
0100
0010
1000
,
0001
0000
0100
0010
1000
0000
0010
0100
0001
0000
0100
0010
1000
0000
0010
0100
,
0001
0000
1000
0100
0010
0000
0100
0010
0001
0000
1000
0100
0010
0001
0010
0100
,
1000
0000
0001
0100
0010
0000
0100
0010
1000
0000
0010
0100
0001
0000
0100
0010
,
1000
0000
0001
0010
0100
0000
0010
0100
1000
0001
0010
0001
1000
0100
0010
0001
,
1000
0000
0010
0100
0001
0000
0100
0010
1000
0000
0010
0100
0001
0000
0100
0010
,
1000
0000
0001
0010
0100
0000
1000
0100
0010
0001
1000
0100
1000
0001
0010
0100
,
1000
0000
0001
0100
0010
0000
1000
0010
0100
0000
0001
0100
0010
0000
1000
0010
,
0100
0000
0001
0100
0010
0000
1000
0010
0100
0001
1000
0000
0010
0100
0001
0000
,
1000
0000
0100
0010
0001
0000
1000
0100
0010
0000
0100
0010
0001
0000
1000
0100
,
0010
0000
0001
1000
0010
0000
0100
0001
1000
0000
0010
0100
0001
0000
1000
0001
,
0100
0000
0010
1000
0001
0000
1000
0010
0100
0000
0001
0100
0010
1000
0010
0100
,
0001
0000
1000
0100
0010
0000
0100
0010
0001
0000
1000
0100
0010
0001
0010
0100
,
1000
0000
0001
0100
0010
0000
1000
0010
0100
0000
0001
0100
0010
0000
1000
0010
,
0100
0000
0001
1000
0010
0000
1000
0001
0100
0001
1000
0010
0100
0001
1000
0001
,
0100
0010
0100
0001
1000
0010
0100
0001
1000
0010
1000
0001
0100
0010
1000
0001
,
1000
0100
0000
0010
0001
0000
1000
0000
0100
1000
0100
0010
0001
0000
1000
0000
,
0001
0100
0010
1000
0001
1000
0001
0100
0010
1000
0001
0100
0001
1000
0010
1000
,
0001
0010
0100
1000
0001
0010
0001
1000
0100
1000
0001
0010
0100
1000
0100
0010
,
0001
1000
0010
1000
0001
0100
0010
1000
0001
0100
0001
1000
0010
0100
0001
1000
,
0100
0010
0001
1000
0100
1000
0001
0010
0100
1000
0001
0010
0001
1000
0100
0010
,
0001
1000
0010
0100
0001
1000
0010
1000
0001
0100
0010
1000
0001
0100
0001
1000
,
0100
0010
0100
1000
0001
0010
0100
1000
0001
0010
0001
1000
0001
0010
0100
1000
,
0001
0100
0010
1000
0001
1000
0010
0100
0001
1000
0001
0100
0010
1000
0010
0100
,
0001
1000
0100
0010
0001
1000
0100
1000
0001
0010
0100
1000
0001
0010
0100
1000
,
0001
0100
0010
1000
0001
1000
0001
0100
0010
1000
0001
0100
0001
1000
0010
1000
,
0001
0010
0100
1000
0001
0010
0001
1000
0100
1000
0001
0010
0100
1000
0100
0010
,
0001
1000
0010
1000
0001
0100
0010
1000
0001
0100
0001
1000
0010
0100
0001
1000
,
0100
0010
0001
1000
0100
1000
0001
0010
0100
1000
0001
0010
0001
1000
0100
0010
,
0001
1000
0010
0100
0001
1000
0010
1000
0001
0100
0010
1000
0001
0100
0001
1000
,
0100
0010
0100
1000
0001
0010
0100
1000
0001
0010
0001
1000
0001
0010
0100
1000
,
0001
0100
0010
1000
0001
1000
0010
0100
0001
1000
0001
0100
0010
1000
0010
0100
,
0001
1000
0100
0010
0001
1000
0100
1000
0001
0010
0100
1000
0001
0010
0100
1000
,
0001
0000
0010
0100
0000
1000
0001
0100
,
0010
1000
0000
0001
0000
0010
0100
0010
,
0001
1000
0010
0000
0100
0000
0001
1000
,
0000
1000
0000
0100
0000
0010
0001
0100
,
0010
1000
0001
0000
0010
0000
0000
0100
,
0000
1000
0100
0010
0001
1000
0010
0100
,
0001
0000
0000
1000
0000
0000
0001
0100
,
0000
0000
0000
0010
0000
1000
0001
0010
,
0100
0000
1000
0010
0000
0100
0001
1000
,
0100
0000
0000
0010
0000
0001
0010
0000
,
0100
1000
0001
0000
0100
0000
0010
1000
,
0000
0000
0000
0001
0000
1000
0100
0010
,
0001
1000
0010
0000
0100
0000
0000
0001
,
0000
0000
0000
1000
0000
0001
0010
0100
,
1000
0000
0000
0010
0000
0000
0100
0001
,
0000
0000
0000
0000
0000
0000
1000
0000
0001
0100
0010
1000
0001
0100
0010
1000
,
0002
0003
0000
0000
;
