#TITLE:Happiness Expressed By Poetry;
#SUBTITLE:;
#ARTIST:ASAKI;
#TITLETRANSLIT:;
#SUBTITLETRANSLIT:;
#ARTISTTRANSLIT:;
#CREDIT:;
#BANNER:elegy-bn.png;
#BACKGROUND:elegy-bg.png;
#LYRICSPATH:;
#CDTITLE:!djcsta-cdtitle.png.png;
#MUSIC:32. [ELEGY] Happiness Expressed by Poetry.mp3;
#OFFSET:-1.165;
#SAMPLESTART:53.040;
#SAMPLELENGTH:13.480;
#SELECTABLE:YES;
#BPMS:0.000=175.000,4.000=190.002,52.000=175.002,68.000=180.002,88.000=185.002,112.000=180.002,240.000=210.002,332.000=167.002;
#STOPS:;
#BGCHANGES:;
// cache tags:
#FIRSTBEAT:0.000;
#LASTBEAT:364.500;
#SONGFILENAME:Songs/Keyboard Collaboration II/CStarFlare - Happiness Expressed By Poetry/elegy.sm;
#HASMUSIC:1;
#HASBANNER:1;
#MUSICLENGTH:125.942;
// end cache tags

//---------------dance-single - ----------------
#NOTES:
     dance-single:
     :
     Hard:
     10:
     0.943,1.000,1.000,0.222,0.202,550.000,253.000,28.000,0.000,5.000:  // measure 1
1000
0000
0100
0000
,  // measure 2
1010
0000
0100
0010
1000
0000
0001
0000
,  // measure 3
0110
0010
1000
0000
0101
0000
0100
0010
,  // measure 4
1000
0000
0001
0000
0100
0010
1000
0000
,  // measure 5
0001
0000
0100
0010
1001
0000
0001
0000
,  // measure 6
1100
0010
1001
0000
0011
0000
0100
0010
,  // measure 7
1100
0010
0001
0000
1100
0010
1001
0000
,  // measure 8
0101
0000
0100
0010
1000
0000
0001
0000
,  // measure 9
0100
0010
1000
0100
0001
0010
0100
0010
,  // measure 10
1000
0000
0001
0000
0100
0010
1000
0000
,  // measure 11
0001
0000
0100
0010
1100
0000
0001
0000
,  // measure 12
0101
0010
1000
0001
2002
0000
0000
0000
,  // measure 13
0000
0000
0000
0000
,  // measure 14
3003
0000
0000
0000
0000
0000
0000
0100
0000
0000
0000
0000
0000
0000
0000
0000
,  // measure 15
0000
0010
0000
0000
0000
0000
0000
0000
1000
0000
0000
0000
0000
0000
0000
0000
,  // measure 16
0100
0000
0010
0000
,  // measure 17
0001
0000
0000
1001
0000
0000
0000
0000
,  // measure 18
0010
0001
0100
0010
,  // measure 19
0001
0000
0100
0010
,  // measure 20
1000
0100
0010
0000
,  // measure 21
1000
0100
1000
0010
,  // measure 22
0001
1000
0100
0010
,  // measure 23
1001
1010
0101
1010
1100
0011
0110
1100
,  // measure 24
1001
1010
0011
0101
1010
0010
1100
1000
,  // measure 25
0011
0010
1100
0001
1001
0010
1100
0001
,  // measure 26
0010
0100
0001
1000
0001
1002
0003
0200
,  // measure 27
0310
0000
1000
0000
0100
0000
0001
0000
0100
0000
1001
0010
1100
0000
0001
0000
,  // measure 28
0100
0000
0000
0000
1001
0000
0000
0000
0110
0001
1000
0000
0010
0000
0000
0000
,  // measure 29
0120
0000
0000
1230
0000
0000
0301
0000
,  // measure 30
0000
0100
0000
0000
1200
0000
0312
0000
,  // measure 31
2003
0000
0000
0000
3100
0000
0000
0000
0200
0000
0010
1000
0301
0000
2002
0000
,  // measure 32
0000
0000
0000
0000
3003
0000
0001
0000
0010
0001
0100
0000
0101
0000
1010
0000
,  // measure 33
1001
0000
1010
0000
0011
0000
1100
0001
1010
0001
1100
0000
0101
0000
1010
0000
,  // measure 34
0010
0000
1010
0000
1100
0000
0011
1000
0110
1000
0011
0000
0110
0000
0101
0010
,  // measure 35
1001
0000
1100
0000
0110
0000
1010
0100
0011
0100
1010
0000
0101
0000
1010
0000
,  // measure 36
0110
0000
1010
0000
0101
0000
0110
0001
1010
0000
1001
0000
1010
0100
0011
0100
,  // measure 37
1010
1100
0010
0001
0101
0110
1000
0100
,  // measure 38
0011
0000
1001
0000
0100
0000
1010
0000
0101
0000
1001
0010
0100
0010
1000
0001
,  // measure 39
2001
0000
0100
0000
0100
0000
3001
0010
0001
0010
0101
0000
1001
0000
0202
0000
,  // measure 40
0000
0000
0000
0000
0000
0000
0000
0303
2000
0000
0000
0000
0001
0100
0001
0100
,  // measure 41
3011
1100
0010
0101
1000
1100
0010
1001
,  // measure 42
0000
1010
0100
0010
0001
0110
1000
1100
,  // measure 43
0010
0101
0010
0101
1000
0110
1000
0011
,  // measure 44
0100
0000
0011
0000
1000
0000
0101
0000
0010
0000
0101
0010
1001
0000
0010
0000
,  // measure 45
0001
0000
0010
0000
1100
0000
0110
0000
0011
0000
1000
0000
1100
0010
0101
0000
,  // measure 46
1010
0000
0000
0000
0110
0000
1010
0100
0011
0000
1000
0000
0101
1000
0011
1000
,  // measure 47
0000
1010
0101
1010
0101
1010
0101
1010
,  // measure 48
0011
1100
0011
1100
0011
1100
0011
1100
,  // measure 49
0110
0000
1001
0000
0110
0000
1001
0000
0110
0000
1001
0010
1100
0001
1010
0000
,  // measure 50
0000
1010
0010
0000
0110
0100
0110
0101
,  // measure 51
0000
0000
0100
0000
0100
0000
0000
0000
1001
0010
0100
0000
1000
0000
0000
0000
,  // measure 52
2001
0010
0100
0010
,  // measure 53
0001
3100
1002
0100
,  // measure 54
1000
0000
0010
1000
1103
0000
0011
0000
,  // measure 55
1001
0200
0001
1000
,  // measure 56
0010
1300
0120
1000
,  // measure 57
0001
0000
0130
0000
0000
0000
0000
1000
,  // measure 58
0000
0000
0000
0000
0000
0000
0000
0000
0000
0001
0000
0000
0000
0000
0000
0000
,  // measure 59
0000
0000
1000
0000
,  // measure 60
0100
0000
0001
0000
,  // measure 61
1001
0011
1100
0011
1100
1010
0110
1001
,  // measure 62
0100
0011
0101
1010
0110
1001
0110
1010
,  // measure 63
1001
0100
0011
0100
1001
1000
0110
1010
,  // measure 64
0100
0010
1000
0001
0101
0010
1100
0100
,  // measure 65
0011
0100
1010
1000
0011
1000
0101
0100
,  // measure 66
1010
0001
0110
1000
0011
1000
0110
0100
,  // measure 67
1001
0100
0001
0010
1001
0010
0101
0120
,  // measure 68
1000
0000
0130
0000
0011
0000
1000
0000
0001
0010
0100
1000
0100
0000
0010
0000
,  // measure 69
1001
0000
1001
0000
0110
1000
0011
1100
,  // measure 70
0010
0001
0110
1000
0110
0010
0101
0010
,  // measure 71
2001
0000
3001
0000
0120
0000
1030
1002
,  // measure 72
0000
0003
0000
0000
1000
1000
1100
0001
,  // measure 73
0110
1000
0011
0110
1000
0010
1001
1000
,  // measure 74
0110
0100
0011
0010
0101
0001
1010
0010
,  // measure 75
1000
1000
0101
1000
1000
0001
1000
1000
,  // measure 76
0001
0000
0010
0000
0100
0000
0000
0000
0000
0000
0000
0000
0000
0100
0000
1000
0000
0010
0000
0000
0000
0000
0000
0000
1000
0000
0001
0000
1000
0000
0001
0000
,  // measure 77
0110
0110
1100
1100
0011
0011
0110
0110
,  // measure 78
1001
1001
0011
0011
1010
1010
0101
0101
,  // measure 79
1020
0130
0011
0110
0011
0110
0011
1020
,  // measure 80
0100
0000
1000
0000
0031
0000
0110
0000
1001
0010
1000
0100
0011
1000
0010
0000
,  // measure 81
1000
0000
1001
1000
0110
0100
1010
0010
,  // measure 82
1001
0001
0110
0100
0011
0010
1001
1000
,  // measure 83
1001
0000
0000
0000
0000
1001
0000
0000
0000
0000
0000
1001
0000
0000
0000
0000
1001
0000
0000
0000
0000
1001
0000
0000
0000
0000
2002
0000
0000
0000
0000
0000
,  // measure 84
0000
0000
0000
0000
,  // measure 85
3103
0000
0010
0000
,  // measure 86
0001
0000
0000
0000
0000
0000
0000
0000
0100
0000
0010
1000
0001
0000
0000
0000
,  // measure 87
1010
0100
0011
0100
,  // measure 88
1001
0000
0000
0000
0100
0000
0000
0000
0001
0000
1000
0100
0011
0000
0000
0000
,  // measure 89
0110
1100
0101
0000
,  // measure 90
0000
0000
0000
0000
1001
0000
0000
0000
0000
0001
0000
0000
0000
0000
0001
0000
,  // measure 91
0000
0000
0000
0000
0001
0000
0000
0000
0000
0000
0000
0001
0000
0000
0000
0000
,  // measure 92
0000
0001
0000
0000
0000
0000
0000
0000
;
