#TITLE:Fury of the Storm;
#SUBTITLE:(cut);
#ARTIST:Dragonforce;
#TITLETRANSLIT:;
#SUBTITLETRANSLIT:;
#ARTISTTRANSLIT:;
#CREDIT:;
#BANNER:Fury of the Storm-bn.png;
#BACKGROUND:Fury of the Storm-bg.png;
#LYRICSPATH:;
#CDTITLE:;
#MUSIC:Fury of the Storm (cut).ogg;
#OFFSET:0.420;
#SAMPLESTART:47.260;
#SAMPLELENGTH:19.000;
#SELECTABLE:YES;
#BPMS:0.000=200.001;
#STOPS:31.000=0.600
;
#BGCHANGES:;
// cache tags:
#FIRSTBEAT:10.000;
#LASTBEAT:396.000;
#SONGFILENAME:Songs/in the groove2/Fury of the Storm (cut)/Fury of the Storm (cut).sm;
#HASMUSIC:1;
#HASBANNER:1;
#MUSICLENGTH:119.614;
// end cache tags

//---------------dance-single - ----------------
#NOTES:
     dance-single:
     :
     Hard:
     10:
     0.898,1.000,0.543,0.084,0.339,677.000,65.000,10.000,3.000,0.000:
0000
0000
0000
0000
,
0000
0000
0000
0000
,
0000
0000
0000
0000
,
0000
0000
0000
0000
,
0000
0000
0000
0000
1001
0000
0001
0100
,
0010
1000
0100
0000
0011
0000
1000
0100
,
0001
0100
1000
0000
0101
0000
0110
0000
,
1010
1001
0110
1001
,
1000
0100
0001
0100
1000
0010
0100
1000
,
0100
0000
0010
0100
0000
1001
0000
0000
,
0010
0001
0010
0001
1000
0010
1000
0010
,
0110
0000
0001
1001
0000
0010
0100
0000
,
1000
0100
1000
0100
0001
0100
0001
0100
,
0010
0000
0100
0010
0000
1001
0000
0000
,
0100
0001
0100
1000
0100
0010
1000
0001
,
0100
0000
0000
0000
0010
0000
1000
0000
0000
0000
0010
0000
1000
0100
0010
0000
,
0100
0000
0010
1100
0000
0100
1001
0000
,
0010
0000
0001
0110
0000
0100
1001
0000
,
1001
0000
0001
1010
0000
1000
0101
0000
,
0100
0010
0100
0010
0100
0010
0100
0010
0100
0010
0100
0010
0100
0000
0000
0000
,
0110
0000
0001
1000
0010
1000
0010
0000
,
0100
0000
0001
1001
0000
1000
0100
0000
,
0011
0000
0001
1000
0000
0010
0100
0000
,
1001
0000
1000
0000
0100
0000
0010
0000
0000
0000
0001
0000
0010
0100
1000
0000
,
0001
0000
0110
0000
0101
0000
1001
1001
,
0000
0010
1000
0010
0100
0010
0100
0001
,
1000
0000
0001
0100
0000
0010
1000
0001
,
0100
0000
0010
1000
0000
0010
0100
0010
,
1001
0000
0100
1001
0000
0010
1000
0100
,
0011
0110
1100
1001
,
0001
0100
0010
0100
0000
0001
0010
0000
,
1001
0000
0010
0000
1000
0000
0100
0000
0000
0000
0010
0000
0001
0010
0001
0010
,
0001
0010
0100
1000
0010
0100
0001
0010
,
0100
0000
1000
0000
0010
0000
1000
0000
0001
0000
0100
0000
0001
0100
0010
0000
,
1000
0100
1000
0100
0010
0001
0010
0001
,
0010
0100
1000
0000
0001
0000
0100
0000
0010
0000
0100
0000
0001
0000
0010
0000
,
0001
0010
0100
0000
0010
0000
0100
0000
1000
0100
1000
0000
0001
0000
1000
0000
,
0010
0100
0010
0000
1000
0000
0100
0000
1000
0100
1000
0000
0001
0000
0100
0000
,
0010
0100
0010
0100
0010
0100
0010
0100
0010
0100
0010
0100
0010
0100
0010
0100
,
0020
0100
0100
1M3M
,
1000
0010
0100
0010
1000
0001
0100
0001
,
0010
0001
1000
0100
1000
0001
0010
0001
,
0100
0010
1000
0001
0100
0010
1000
0001
,
0010
0100
0010
0001
1000
0100
0010
0001
,
1000
0010
0100
0010
0100
0001
1000
0010
,
0100
0001
0010
0001
1000
0001
0010
0100
,
1000
0100
0010
0001
0100
0010
1000
0100
,
0010
0001
0010
0001
0010
0000
0100
0000
1000
0100
1000
0100
1000
0000
0001
0000
,
0100
0010
1000
0001
0000
0001
0100
0010
,
1000
0010
0100
0000
0101
0000
1010
0000
,
0010
1000
0100
0010
0000
0001
0010
0100
,
1000
0001
0000
0000
1001
0000
1100
0000
,
0010
0001
1000
0100
M000
0000
1000
0000
,
1001
0000
0000
0000
0000
0000
0000
0110
0000
0000
0000
0000
0101
0000
0000
0000
,
1010
0000
0101
0101
0000
1000
0001
0000
,
1000
0100
1000
0000
0001
0000
0010
0000
0001
0000
0100
0000
0010
0000
1000
0000
,
0010
0100
0010
0000
1000
0000
0001
0000
0100
0000
0010
0000
1000
0000
0100
0000
,
0010
0001
0010
0000
0100
0000
1000
0000
0100
0000
1000
0000
0001
0000
0100
0000
,
0001
1000
0001
1000
0001
1000
0001
1000
0001
1000
0001
1000
0001
1000
0010
0000
,
0100
0001
0100
0000
0010
0000
1000
0000
0100
0000
0010
0000
0100
0000
1000
0000
,
0001
0100
0001
0000
0100
0000
0010
0000
1000
0000
0010
0000
0100
0000
0001
0000
,
0010
0001
0010
0000
0100
0000
0010
0000
0001
0000
0010
0000
0100
0000
1000
0000
,
0010
1000
0010
1000
0010
1000
0010
1000
0010
1000
0010
1000
0010
1000
0010
1000
,
0010
0100
0001
0000
1000
0000
0100
0000
0010
0000
0001
0000
0010
0000
0100
0000
,
1000
0010
0100
0000
0001
0000
0100
0000
0010
0000
1000
0000
0100
0000
0010
0000
,
0001
0010
0100
0000
1000
0000
0001
0000
0100
0010
0100
0000
0001
0000
1000
0000
,
0010
0100
0001
0000
1000
0001
0100
0000
0010
1000
0100
0000
1000
0000
0100
0000
,
0010
0001
0010
0000
0100
0000
1000
0000
0010
0100
0001
0000
0100
0000
0010
0000
,
1000
0010
0100
0000
0001
0100
0010
0000
1000
0001
0100
0000
0010
0100
0010
0000
,
0110
0110
0011
0110
,
1001
1100
1100
0110
,
2001
0000
0000
0000
,
3002
0000
0000
0000
,
0203
0000
0000
0000
,
0320
0000
2000
0030
,
3002
0000
0000
0000
,
2003
0000
0000
3010
,
1001
0000
0000
0011
0000
0000
0110
0000
,
1000
0001
1000
0000
0010
0000
0100
0000
0010
0000
0000
0000
1001
0000
0000
0000
,
0010
0000
0001
0000
0010
0000
0001
0000
1000
0000
0100
0000
0010
0000
0100
1000
,
0100
0010
0001
1000
0010
0100
0001
1000
,
0100
0000
0010
0000
0001
0000
0010
0000
0100
0000
1000
0000
0001
0000
1000
0010
,
0100
0010
0100
0001
0010
0001
1000
0100
,
0010
0000
0001
0000
1000
0000
0010
0000
0100
0000
0001
0000
1000
0000
0010
0100
,
0010
1000
0010
0100
0001
1000
0010
0100
,
0001
0000
1000
1010
0000
0001
0101
0000
,
1000
0010
1000
0010
0100
0001
0100
0001
0100
0000
0010
0000
0100
0000
0000
0000
,
0101
0000
0001
0000
1000
0000
0010
0000
0100
0000
0001
0000
1000
0000
0001
0010
,
0100
1000
0100
1000
0010
0100
0010
1000
,
0001
0000
0010
0000
0100
0000
1000
0000
0010
0000
0100
0000
0001
0000
1000
0001
,
0010
0001
1000
0100
0010
0001
0010
0100
,
1000
0000
0010
0000
0100
0000
0010
0000
0100
0000
0001
1000
0010
0000
0100
0000
,
0010
0000
1000
0000
0001
0000
0010
0000
0100
0000
1000
0000
0001
0000
1000
0100
,
0010
0001
1000
0010
0100
0010
1000
0001
,
0100
0000
0010
0000
1000
0000
0001
0000
0100
0000
0001
0000
0100
0010
0100
0010
,
0100
0000
0001
0001
0000
0000
1000
0000
,
1001
0000
0000
0010
0000
0010
0000
0000
,
1001
0000
0000
0000
1000
0000
1001
0000
0000
0000
0010
0000
1000
0100
0010
0001
,
1000
0000
0000
1001
0000
0000
0100
0000
0000
2002
0000
0000
0000
0000
0000
0000
,
3003
0000
0000
0000
;

//---------------dance-single - ----------------
#NOTES:
     dance-single:
     :
     Challenge:
     14:
     1.000,1.000,0.527,0.217,1.000,915.000,63.000,26.000,21.000,0.000:
0000
0000
0000
0000
,
0000
0000
0000
0000
,
0000
0000
0000
0000
1001
0000
0001
0100
,
0010
0000
0100
0000
0001
0000
0010
0000
0001
0010
0000
0000
0100
1000
0000
0000
,
0001
0010
0000
0000
0100
1000
0000
0000
1001
0000
0000
0000
0001
0000
0100
0000
,
1000
0100
0010
0000
1100
0000
0010
0001
,
1000
0100
0001
0000
0101
0000
1010
0000
,
0011
0101
0110
1001
,
1000
0100
0010
0001
0010
0100
1000
0010
0100
0001
1000
0010
0100
0001
0100
0010
,
2000
0000
0000
0000
3002
0000
2003
0000
0000
0000
0020
0000
3000
0030
0000
0000
,
1000
0001
0100
0001
1000
0010
1000
0001
1000
0100
1000
0001
0010
0001
1000
0010
,
0200
0000
0000
0000
0010
0000
0020
0000
0000
0000
0000
0000
0300
0030
0000
0000
,
0100
0001
1000
0100
1000
0001
0100
0010
0100
0001
1000
0100
0010
0001
0010
0100
,
2000
0000
3002
0203
0300
2020
0030
3000
,
0001
1000
0010
1000
0001
0100
0010
1000
0001
1000
0100
0010
0001
1000
0100
1000
,
0002
0000
0013
0220
0030
0300
1100
0000
,
1001
0000
0001
0100
0001
0000
1000
0010
1000
0000
0010
0100
0010
0000
0000
0000
,
1010
0000
1000
0001
1000
0000
0100
1000
0100
0000
0010
0001
0010
0000
0000
0000
,
1001
0000
0010
1000
0010
0000
0100
0001
0100
0000
0010
0100
0010
0000
0000
0000
,
1000
0100
0010
0001
0100
0010
1000
0100
0010
0001
0100
0010
1000
0100
0010
0001
,
1000
0000
1001
0101
1001
0101
1001
0000
,
1001
0000
0101
0101
0000
0100
0101
0000
,
0110
0000
0010
1010
0000
1000
1001
0000
,
0001
0000
0010
0000
0001
0000
0010
0000
0000
0000
0100
0000
1000
0010
0100
0001
,
1000
0100
1000
0100
0M00
0001
0100
0010
,
0000
1000
0001
0100
0M00
1000
0001
0010
,
0000
0100
0010
0001
000M
0100
1000
0010
,
0000
0100
0010
0100
0000
0M10
0M10
0000
,
1001
0100
0010
1001
0001
0010
0100
1000
,
1010
0010
0110
0100
0101
0001
1001
0000
,
0110
0000
1000
1001
0000
0100
0110
0000
,
0001
0000
0010
0000
0100
0000
1000
0000
0000
0000
0010
0000
0100
0001
1000
0010
,
0100
0010
1000
0001
0100
0010
1000
0100
,
0010
0000
0001
0000
0010
0000
0100
0000
1000
0000
0010
0000
0001
0010
0100
0010
,
1000
0001
0100
0010
1000
0100
0010
0100
,
1000
0010
0100
0001
0010
0100
1000
0010
,
0100
0001
0100
0001
0100
0000
0010
0000
1000
0001
1000
0001
0100
0000
0010
0000
,
1000
0100
0010
0001
1000
0000
0010
0000
0100
0001
1000
0010
0100
0000
0001
0000
,
0010
0100
0010
0100
1000
0010
0100
0001
0010
0100
1000
0010
0100
0001
0100
1000
,
0100
0000
00M0
M00M
M01M
0000
MM0M
0000
101M
000M
0M00
0000
1001
0000
0000
0000
,
0001
0100
0010
0100
0010
0000
0100
0000
0010
0000
1000
0000
0001
0000
1000
0000
,
0100
0010
0001
0000
1000
0000
0100
0000
0010
0001
1000
0000
0010
0100
0001
0000
,
1000
0010
0100
0001
1000
0000
0010
0000
0100
0000
0001
0000
0010
0000
0100
0000
,
1000
0001
0100
0000
0010
0000
0100
0000
0001
0100
0010
0000
1000
0001
0100
0000
,
0010
1000
0001
0100
0010
0000
0100
0000
0001
0000
1000
0000
0100
0000
0010
0000
,
0001
0100
0010
1000
0001
0000
0100
0000
0010
0000
1000
0000
0100
0000
0010
0000
,
0001
0100
0001
0100
0001
0000
1000
0000
0001
0000
0100
0000
0001
0000
0100
0010
,
1000
0000
0001
0000
1000
0000
0100
0000
1000
0010
0100
0001
1000
0010
0100
0001
,
1000
0100
1000
0000
0001
0000
0010
0000
0100
0000
1000
0000
0010
0000
0100
0000
,
0001
0000
0100
0000
0010
0000
1000
0000
0100
1000
0001
0000
0100
0001
1000
0000
,
0010
1000
0010
0100
0001
0000
1000
0000
0010
0000
1000
0000
0100
0000
0010
0000
,
0100
1000
0100
0000
0010
0000
0100
0000
1000
0000
0001
0000
0100
0010
0100
0010
,
0100
0000
0001
0000
1000
0000
1100
0000
0000
0000
0000
1001
0000
0000
0000
0000
,
1001
0000
0000
0000
0000
0000
0110
0000
0000
0000
0000
0110
0000
0000
0000
0000
,
1000
0100
1000
0100
1000
0000
0001
0000
0100
0010
1000
0000
0001
0000
0000
0000
,
1000
0100
0010
0100
1000
0100
0010
0100
1000
0100
0010
0100
1000
0100
0010
0001
,
0100
0010
1000
0010
0100
0010
1000
0010
0100
0010
1000
0010
0100
0010
1000
0100
,
0010
0001
1000
0001
0010
0001
1000
0001
0010
0001
1000
0001
0010
0001
0100
0010
,
1000
0001
1000
0001
1000
0001
1000
0001
1000
0001
1000
0001
1000
0001
1000
0001
,
0100
0010
0100
0010
1000
0010
1000
0010
0100
0001
1000
0100
0010
0001
0010
0100
,
1000
0100
1000
0100
0010
0100
0010
0100
1000
0001
0100
0010
1000
0100
0010
0001
,
1000
0001
1000
0001
0100
0010
0100
0010
1000
0001
1000
0100
1000
0001
0010
0100
,
1000
0010
1000
0010
1000
0010
1000
0010
1000
0010
1000
0010
1000
0010
1000
0010
,
0100
0001
1000
0100
1000
0001
0100
0010
1000
0001
0010
0100
1000
0001
0100
0010
,
1000
0001
0010
0001
1000
0100
0010
0100
1000
0001
0010
0100
0010
0001
1000
0010
,
0100
0001
1000
0010
0100
0001
1000
0100
1000
0001
0100
0010
1000
0001
1000
0100
,
0010
0001
1000
0010
0100
0001
1000
0010
1000
0001
0100
0010
1000
0001
0100
0010
,
0100
0001
1000
0010
1000
0001
0100
0010
1000
0100
0010
0100
1000
0001
0010
0001
,
1000
0010
0100
0001
0100
0001
1000
0100
0010
0001
1000
0010
0100
0001
1000
0100
,
0010
0011
0110
1100
,
1001
0101
0110
1010
,
2001
0000
0000
0001
0000
0000
0001
0000
,
3002
1003
0000
0000
0010
0000
1000
0000
,
0020
0000
0000
2030
0000
0000
3002
0000
,
2003
3100
0000
0000
0010
0000
0100
0000
,
0011
0000
0001
2000
0000
0000
3010
0000
,
2000
0000
3001
0200
0000
0000
0310
0000
,
1001
0000
0000
1010
0000
0000
0110
0000
,
0100
0010
0100
0010
1000
0001
1000
0001
0100
0001
0100
0000
0010
0000
0000
0000
,
0100
0001
1000
0010
0100
0000
0010
0000
1000
0000
0100
0000
0010
0001
0100
0000
,
0010
0000
0100
0000
0001
0000
1000
0000
0100
0000
1000
0000
0010
0100
0001
0000
,
1000
0000
0010
0000
0100
0000
0001
0000
1000
0000
0100
0000
0010
0001
0010
0000
,
0001
0000
0100
0000
0010
0000
1000
0000
0001
0000
0100
0000
0010
1000
0010
0000
,
0100
0000
0001
0000
0010
0000
0001
0000
0100
0000
0010
0000
1000
0100
1000
0000
,
0001
0000
1000
0000
0100
0000
0001
0000
0100
0000
0010
0000
0100
1000
0010
0000
,
0100
0001
0100
0010
1000
0010
0100
0001
0100
0010
1000
0010
0100
0001
0100
0001
,
2000
0000
3001
0000
0100
0001
0100
0001
1000
0010
0100
0001
1000
0100
0010
0001
,
1000
0000
0010
0000
0100
0000
0010
0000
1000
0000
0100
0000
1000
0001
0100
0000
,
0010
0000
1000
0000
0010
0000
1000
0000
0100
0000
0010
0000
1000
0010
0100
0000
,
1000
0000
0010
0000
1000
0000
0100
0000
0010
0000
0001
0000
0100
0010
0100
0000
,
0010
0000
1000
0000
0001
0000
0100
0000
0010
0000
1000
0000
0100
1000
0010
0000
,
0100
0000
0001
0000
0100
0000
0010
0000
1000
0000
0100
0000
0010
0001
1000
0000
,
0010
0000
0100
0000
0001
0000
0100
0000
0010
0000
1000
0000
0001
0100
0010
0000
,
0100
0000
0001
0000
1000
0000
0100
0000
0010
0000
0001
0000
1000
0010
0100
0000
,
0001
0000
0100
0000
0010
1000
0010
1000
0001
0100
0001
0100
0010
0100
0001
0000
,
1001
0000
0000
0000
1000
0000
1001
0000
0000
0000
0000
0011
0000
0000
0000
0000
,
0110
0000
0000
0000
0000
0000
1100
0000
0000
0000
0000
1001
0000
0000
0000
0000
,
1000
0010
0100
0001
0010
0100
1000
0010
0100
0001
0010
0100
1000
0010
0100
0001
,
1000
0000
0000
0MM0
0000
0000
1001
0000
0000
0000
0000
0000
M1MM
0000
0000
0000
0000
0000
2002
0000
0000
0000
0000
0000
0000
0000
0000
0000
0000
0000
0000
0000
,
3003
0000
0000
0000
;
