#TITLE:Last Beach;
#SUBTITLE:Oh Henry!;
#ARTIST:Jea;
#TITLETRANSLIT:;
#SUBTITLETRANSLIT:;
#ARTISTTRANSLIT:;
#CREDIT:;
#BANNER:../Fallback-Ban.png;
#BACKGROUND:../Fallback-BG.png;
#LYRICSPATH:;
#CDTITLE:../~CDTitle-@@.png;
#MUSIC:Jea - Last Beach.ogg;
#OFFSET:-6.824;
#SAMPLESTART:109.676;
#SAMPLELENGTH:19.670;
#SELECTABLE:YES;
#DISPLAYBPM:195.136;
#BPMS:0.000=195.136,256.000=161.471,268.000=195.136,588.000=187.922,620.000=195.136,684.000=185.471,712.000=195.136;
#STOPS:;
#BGCHANGES:;
// cache tags:
#FIRSTBEAT:0.000;
#LASTBEAT:1004.000;
#SONGFILENAME:Songs/Oh Henry! Mad Stamina/Last Beach (17+)/Last Beach.sm;
#HASMUSIC:1;
#HASBANNER:1;
#MUSICLENGTH:318.000;
// end cache tags

//---------------dance-single - @@----------------
#NOTES:
     dance-single:
     @@:
     Challenge:
     17:
     1.000,1.000,0.013,0.044,1.000,3402.000,4.000,14.000,1.000,0.000:
0001
0010
0100
1000
0001
0010
0001
1000
0010
0100
0001
0100
0010
1000
0001
0100
,
0001
1000
0100
0010
0100
1000
0001
0010
0001
1000
0010
0100
0001
0100
0010
1000
,
0001
0010
0100
1000
0001
1000
0100
0010
0001
1000
0010
1000
0001
0100
0001
1000
,
0100
0010
0100
1000
0001
0010
0100
1000
0001
0100
0010
0100
0001
1000
0010
1000
,
0001
0010
0100
0010
0001
1000
0100
0010
0001
1000
0010
0100
0010
1000
0001
0100
,
0001
1000
0100
0010
0100
1000
0001
0010
0001
1000
0010
1000
0001
0100
0010
1000
,
0001
1000
0100
0010
0001
0010
0100
1000
0001
0100
0001
1000
0010
1000
0001
0100
,
0001
1000
0100
1000
0001
0010
0001
1000
0010
0100
0001
1000
0010
1000
0001
0100
,
0001
1000
0100
0010
0001
1000
0100
1000
0001
0100
0001
1000
0010
0100
0001
1000
,
0001
0010
0100
1000
0001
0010
0001
1000
0010
1000
0001
0100
0001
1000
0010
1000
,
0001
0010
0100
0010
0001
1000
0100
1000
0001
0100
0001
1000
0010
0100
0001
1000
,
0100
0010
0001
1000
0001
0010
0100
1000
0001
0100
0010
1000
0001
0100
0001
1000
,
0100
0010
0100
1000
0001
0010
0001
1000
0010
0100
0001
0100
0010
1000
0001
1000
,
0100
0010
0001
0010
0100
1000
0001
1000
0010
0100
0001
1000
0010
1000
0001
0100
,
0001
1000
0100
0010
0100
1000
0001
0010
0001
1000
0010
0100
0001
0100
0010
1000
,
0002
0003
0002
0003
0000
0000
0002
0003
0000
0000
0002
0003
0002
0003
0000
0000
,
1000
0100
1000
0001
1000
0001
0100
0010
1000
0001
0100
0001
0010
0100
0010
0001
,
1000
0010
1000
0001
1000
0001
0010
0100
0010
0001
1000
0100
1000
0010
0100
0001
,
1000
0100
1000
0001
1000
0001
0100
0010
0100
0001
1000
0010
1000
0100
0010
0001
,
1000
0010
1000
0001
1000
0001
0010
0100
1000
0001
0010
0001
0100
0010
1000
0001
,
0010
0001
1000
0001
1000
0010
0100
0001
1000
0010
0100
0010
1000
0100
1000
0001
,
0100
0001
1000
0001
1000
0100
0010
0001
1000
0001
0010
0100
1000
0010
1000
0001
,
0010
0001
1000
0001
1000
0010
0100
0010
1000
0001
0100
0001
0010
0100
1000
0001
,
0100
0001
1000
0001
1000
0100
0010
0100
1000
0001
0010
0001
0100
0010
0100
0001
,
1000
0010
1000
0001
1000
0001
0010
0100
1000
0001
0010
0001
0100
0010
0100
0001
,
1000
0100
1000
0001
1000
0001
0100
0010
0100
0001
1000
0010
1000
0100
0010
0001
,
1000
0010
1000
0001
1000
0001
0010
0100
0010
0001
1000
0100
1000
0010
0100
0001
,
1000
0100
1000
0001
1000
0001
0100
0010
1000
0001
0100
0001
0010
0100
1000
0001
,
0100
0001
1000
0001
1000
0100
0010
0001
1000
0100
0010
0100
1000
0010
1000
0001
,
0010
0001
1000
0001
1000
0010
0100
0001
1000
0001
0100
0010
1000
0100
1000
0001
,
0100
0001
1000
0001
1000
0100
0010
0100
1000
0001
0010
0001
0100
0010
1000
0001
,
1000
0000
0100
0010
0001
1000
0010
1000
0100
0000
0010
0001
1000
0100
1000
0010
,
0100
0001
0100
0001
1000
0100
0010
0001
0100
0010
1000
0010
0100
0001
0010
0001
,
0100
0010
1000
0010
0100
0001
0010
0001
0100
0010
1000
0010
0100
0001
0010
0001
,
0100
0010
1000
0010
0100
0001
0010
0001
0100
0010
1000
0010
0100
0001
0010
0001
,
0100
0010
1000
0010
0100
0001
0010
0001
0100
0010
1000
0010
0100
0001
0010
0001
,
1000
0010
1000
0010
0100
0001
1000
0100
0010
0001
1000
0100
1000
0010
0100
0001
,
0010
0001
1000
0100
1000
0010
0100
0001
0010
0001
1000
0100
1000
0010
0100
0001
,
0010
0001
1000
0100
1000
0010
0100
0001
0010
0001
1000
0100
1000
0010
0100
0001
,
0010
0001
1000
0100
1000
0010
0100
0001
0010
0001
1000
0100
1000
0010
0100
0001
,
1000
0100
1000
0100
0010
0001
0010
0100
1000
0010
1000
0001
0100
0001
0010
0100
,
1000
0010
1000
0001
0100
0001
0010
0100
1000
0010
1000
0001
0100
0001
0010
0100
,
1000
0010
1000
0001
0100
0001
0010
0100
1000
0010
1000
0001
0100
0001
0010
0100
,
1000
0010
1000
0001
0100
0001
0010
0100
1000
0010
1000
0001
0100
0001
0010
0100
,
1000
0001
1000
0001
0100
0010
1000
0001
0010
0001
0100
0010
0100
0001
1000
0100
,
0010
0001
0100
0010
0100
0001
1000
0100
0010
0001
0100
0010
0100
0001
1000
0100
,
0010
0001
0100
0010
0100
0001
1000
0100
0010
0001
0100
0010
0100
0001
1000
0100
,
0010
0001
0100
0010
0100
0001
1000
0100
0010
0001
0100
0010
0100
0001
0010
0100
,
1000
0001
1000
0001
0100
0010
0100
0001
0010
0100
1000
0100
0010
0001
0100
0001
,
0010
0100
1000
0100
0010
0001
0100
0001
0010
0100
1000
0100
0010
0001
0100
0001
,
0010
0100
1000
0100
0010
0001
0100
0001
0010
0100
1000
0100
0010
0001
0100
0001
,
0010
0100
1000
0100
0010
0001
0100
0001
0010
0100
1000
0100
0010
0001
0100
0001
,
1000
0100
1000
0100
0010
0001
1000
0010
0100
0001
1000
0010
1000
0100
0010
0001
,
0100
0001
1000
0010
1000
0100
0010
0001
0100
0001
1000
0010
1000
0100
0010
0001
,
0100
0001
1000
0010
1000
0100
0010
0001
0100
0001
1000
0010
1000
0100
0010
0001
,
0100
0001
1000
0010
1000
0100
0010
0001
0100
0001
1000
0010
1000
0100
0010
0001
,
1000
0010
1000
0010
0100
0001
0100
0010
1000
0100
1000
0001
0010
0001
0100
0010
,
1000
0100
1000
0001
0010
0001
0100
0010
1000
0100
1000
0001
0010
0001
0100
0010
,
1000
0100
1000
0001
0010
0001
0100
0010
1000
0100
1000
0001
0010
0001
0100
0010
,
1000
0100
1000
0001
0010
0001
0100
0010
1000
0100
1000
0001
0010
0001
0100
0010
,
1000
0001
1000
0001
0010
0100
1000
0001
0100
0001
0010
0100
0010
0001
1000
0010
,
0100
0001
0010
0100
0010
0001
1000
0010
0100
0001
0010
0100
0010
0001
1000
0010
,
0100
0001
0010
0100
0010
0001
1000
0010
0100
0001
0010
0100
0010
0001
1000
0010
,
0200
0300
0200
0300
0000
0000
0002
0003
0000
0000
2000
3000
2000
3000
0000
0000
,
0000
0000
0000
0000
,
0000
0000
0000
0000
,
0000
0000
0000
0000
,
0001
0000
0010
0100
1000
0010
1000
0001
0010
0000
0100
1000
0010
0100
0001
1000
,
0100
0000
0010
0001
0100
0010
1000
0001
0010
0000
0100
1000
0010
0100
0001
1000
,
0100
0000
0010
0001
0100
0010
1000
0001
0010
0000
0100
1000
0010
0100
0001
1000
,
0100
0000
0010
0001
0100
0010
1000
0001
0010
0000
0100
1000
0010
0100
0001
1000
,
0001
0000
0100
0010
1000
0100
1000
0001
0100
0000
0010
1000
0100
0010
0001
1000
,
0010
0000
0100
0010
1000
0100
1000
0001
0100
0000
0010
1000
0100
0010
0001
1000
,
0010
0000
0100
0010
1000
0100
1000
0001
0100
0000
0010
1000
0100
0010
0001
1000
,
0010
0000
0100
0010
1000
0100
1000
0001
0100
0000
0010
1000
0100
0010
0001
1000
,
0001
0000
0010
0100
1000
0010
1000
0001
0010
0000
0100
1000
0010
0100
0001
1000
,
0100
0000
0010
0001
0100
0010
1000
0001
0010
0000
0100
1000
0010
0100
0001
1000
,
0100
0000
0010
0001
0100
0010
1000
0001
0010
0000
0100
1000
0010
0100
0001
1000
,
0100
0000
0010
0001
0100
0010
1000
0001
0010
0000
0100
1000
0010
0100
0001
1000
,
0001
0000
0100
0010
1000
0100
1000
0001
0100
0000
0010
1000
0100
0010
0001
1000
,
0010
0000
0100
0010
1000
0100
1000
0001
0100
0000
0010
1000
0100
0010
0001
1000
,
0010
0000
0100
0010
1000
0100
1000
0001
0100
0000
0010
1000
0100
0010
0001
1000
,
0001
0000
0010
0100
1000
0001
1000
0010
0100
0001
1000
0001
0010
0000
0000
0000
,
0001
0010
0100
1000
0001
1000
0100
0010
0001
0100
0010
0100
0001
1000
0010
1000
,
0100
0010
0100
1000
0001
0010
0100
1000
0010
0100
0001
1000
0010
0100
0010
1000
,
0100
0010
0100
1000
0001
1000
0100
0010
0001
0100
0010
0100
0001
1000
0010
1000
,
0100
0010
0001
1000
0100
0010
0100
1000
0010
0100
0001
0100
0010
1000
0100
0010
,
0001
0100
0010
1000
0001
1000
0010
0100
0001
0010
0100
0010
0001
1000
0100
1000
,
0010
0100
0010
1000
0001
0100
0010
1000
0100
0010
0001
1000
0100
0010
0100
1000
,
0010
0100
0010
1000
0001
1000
0010
0100
0001
0010
0100
0010
0001
1000
0100
1000
,
0010
0100
0001
1000
0010
0100
0010
1000
0100
0010
0001
0010
0100
1000
0010
0100
,
0001
0010
0100
1000
0001
0010
0100
0010
0001
0100
0010
0100
0001
1000
0010
1000
,
0100
0010
0100
1000
0001
1000
0100
0010
0001
0100
0001
1000
0010
0100
0010
1000
,
0100
0010
0100
1000
0001
0010
0100
1000
0010
0100
0001
0100
0010
1000
0010
0100
,
0001
0010
0001
1000
0100
1000
0001
0010
0001
0100
0010
0100
0001
0010
0100
1000
,
0010
0100
0001
1000
0010
1000
0001
0100
0001
0010
0100
1000
0001
0010
0100
0010
,
0001
0100
0010
0100
0001
1000
0010
1000
0100
0010
0100
1000
0001
0010
0100
1000
,
0010
0100
0001
1000
0001
0100
0010
1000
0100
0010
0100
1000
0001
0010
0100
1000
,
0020
0030
0020
0030
0000
0000
0000
0000
0000
0000
0000
0000
0000
0000
0000
0000
,
1000
0100
0010
0001
0100
0010
1000
0010
0100
0001
0100
0010
1000
0100
0010
0001
,
1000
0100
0010
0100
1000
0010
0100
0001
1000
0001
0100
0010
1000
0100
0010
0100
,
1000
0001
0010
0100
1000
0010
1000
0001
0100
0001
1000
0010
1000
0100
0010
0100
,
1000
0001
0010
0001
0100
0010
1000
0001
0100
0001
1000
0010
1000
0100
0010
0100
,
1000
0001
0010
0100
1000
0010
0100
0010
1000
0001
0100
0001
0010
0100
1000
0001
,
1000
0100
0010
0001
0100
0010
1000
0001
0100
0001
1000
0010
1000
0100
0010
0100
,
1000
0001
0010
0100
1000
0010
0100
0001
1000
0001
0100
0010
1000
0100
1000
0001
,
0010
0100
0010
0001
0100
0010
1000
0001
0100
0001
1000
0010
1000
0100
0010
0100
,
1000
0001
0010
0100
1000
0010
0100
0001
1000
0010
0100
0010
1000
0100
0010
0001
,
1000
0001
0010
0100
1000
0010
0100
0010
1000
0001
0100
0010
1000
0100
1000
0001
,
0010
0001
1000
0100
1000
0010
0100
0010
1000
0001
0100
0001
0010
0100
1000
0001
,
0010
0001
1000
0100
1000
0010
0100
0010
1000
0001
0100
0010
1000
0100
0010
0100
,
1000
0001
0010
0001
0100
0010
1000
0001
1000
0010
0100
0001
0010
0100
1000
0001
,
0010
0001
1000
0100
1000
0010
0100
0010
1000
0001
0100
0010
1000
0100
0010
0001
,
1000
0001
0010
0100
1000
0010
1000
0001
0100
0010
0100
0001
0010
0100
1000
0001
,
1000
0010
0100
0000
0001
0010
0100
1000
0010
0100
0001
0000
0010
0001
1000
0100
,
1000
0010
0100
0001
1000
0001
0100
0010
1000
0100
0010
0100
1000
0001
0010
0001
,
0100
0010
0100
0001
1000
0010
0100
0001
0010
0100
1000
0001
0010
0100
0010
0001
,
0100
0010
0100
0001
1000
0001
0100
0010
1000
0100
0010
0100
1000
0001
0010
0001
,
0100
0010
1000
0001
0100
0010
0100
0001
0010
0100
1000
0100
0010
0001
0100
0010
,
1000
0100
0010
0001
1000
0001
0010
0100
1000
0010
0100
0010
1000
0001
0100
0001
,
0010
0100
0010
0001
1000
0100
0010
0001
0100
0010
1000
0001
0100
0010
0100
0001
,
0010
0100
0010
0001
1000
0001
0010
0100
1000
0010
0100
0010
1000
0001
0100
0001
,
0010
0100
1000
0001
0010
0100
0010
0001
0100
0010
1000
0010
0100
0001
0010
0100
,
1000
0010
0100
0001
1000
0010
0100
0010
1000
0100
0010
0100
1000
0001
0010
0001
,
0100
0010
0100
0001
1000
0001
0100
0010
1000
0100
1000
0001
0010
0100
0010
0001
,
0100
0010
0100
0001
1000
0010
0100
0001
0010
0100
1000
0100
0010
0001
0010
0100
,
1000
0010
1000
0001
0100
0001
1000
0010
1000
0100
0010
0100
1000
0010
0100
0001
,
0010
0100
1000
0001
0010
0001
1000
0100
1000
0010
0100
0001
1000
0010
0100
0010
,
1000
0100
0010
0100
1000
0001
0010
0001
0100
0010
0100
0001
1000
0010
0100
0001
,
0010
0100
1000
0001
1000
0100
0010
0001
0100
0010
0100
0001
0010
0100
1000
0001
,
0200
0300
0200
0300
0000
0000
0000
0000
0000
0000
0000
0000
0000
0000
0000
0000
,
0001
0100
0010
1000
0100
0010
0001
0010
0100
1000
0100
0010
0001
0100
0010
1000
,
0001
0100
0010
0100
0001
0010
0100
1000
0001
1000
0100
0010
0001
0100
0010
0100
,
0001
1000
0010
0100
0001
0010
0001
1000
0100
1000
0001
0010
0001
0100
0010
0100
,
0001
1000
0010
1000
0100
0010
0001
1000
0100
1000
0001
0010
0001
0100
0010
0100
,
0001
1000
0010
0100
0001
0010
0100
0010
0001
1000
0100
1000
0010
0100
0001
1000
,
0001
0100
0010
1000
0100
0010
0001
1000
0100
1000
0001
0010
0001
0100
0010
0100
,
0001
1000
0010
0100
0001
0010
0100
1000
0001
1000
0100
0010
0001
0100
0001
1000
,
0010
0100
0010
1000
0100
0010
0001
1000
0100
1000
0001
0010
0001
0100
0010
0100
,
0001
1000
0010
0100
0001
0010
0100
1000
0001
0010
0100
0010
0001
0100
0010
1000
,
0001
1000
0010
0100
0001
0010
0100
0010
0001
1000
0100
0010
0001
0100
0001
1000
,
0010
1000
0001
0100
0001
0010
0100
0010
0001
1000
0100
1000
0010
0100
0001
1000
,
0010
1000
0001
0100
0001
0010
0100
0010
0001
1000
0100
0010
0001
0100
0010
0100
,
0001
1000
0010
1000
0100
0010
0001
1000
0001
0010
0100
1000
0010
0100
0001
1000
,
0010
1000
0001
0100
0001
0010
0100
0010
0001
1000
0100
0010
0001
0100
0010
1000
,
0001
1000
0010
0100
0001
0010
0001
1000
0100
0010
0100
1000
0010
0100
0001
1000
,
0000
0000
0000
0000
,
1001
0000
0000
0000
,
0000
0000
0000
0000
,
0000
0000
0000
0000
,
0000
0000
0000
0000
,
0000
0000
0000
0000
,
0000
0000
0000
0000
,
0000
0000
0000
0000
,
0000
0000
0000
0000
,
0001
0010
0001
0100
0010
1000
0100
1000
0001
0010
0001
0100
0010
1000
0100
1000
,
0010
0100
0001
0100
0010
1000
0100
1000
0010
0100
0001
0100
0010
1000
0100
1000
,
0010
0100
0001
0010
0001
1000
0100
1000
0010
0100
0001
0010
0001
1000
0100
1000
,
0010
0100
0001
0010
0100
1000
0001
0100
0010
0100
0001
0010
0100
1000
0001
0100
,
0001
0010
0100
1000
0010
1000
0001
0100
0001
0010
0100
1000
0010
1000
0001
0100
,
0001
0010
0100
1000
0010
0100
0001
1000
0001
0010
0100
1000
0010
0100
0001
1000
,
0001
0010
0100
1000
0010
1000
0100
0010
0001
0010
0100
1000
0010
1000
0100
0010
,
0001
0100
0001
0010
0100
1000
0010
1000
0100
0010
0001
0100
0001
0010
0100
1000
,
0001
0100
0001
0010
0100
1000
0010
1000
0001
0100
0001
0010
0100
1000
0010
1000
,
0100
0010
0001
0010
0100
1000
0010
1000
0100
0010
0001
0010
0100
1000
0010
1000
,
0100
0010
0001
0100
0001
1000
0010
1000
0100
0010
0001
0100
0001
1000
0010
1000
,
0100
0010
0001
0100
0010
1000
0001
0010
0100
0010
0001
0100
0010
1000
0001
0010
,
0001
0100
0010
1000
0100
1000
0001
0010
0001
0100
0010
1000
0100
1000
0001
0010
,
0001
0100
0010
1000
0100
0010
0001
1000
0001
0100
0010
1000
0100
0010
0001
1000
,
0001
0100
0010
1000
0100
1000
0010
0100
0001
0100
0010
1000
0100
1000
0010
0100
,
0001
0010
0001
0100
0010
1000
0100
1000
0010
0100
0001
0010
0001
0100
0010
1000
,
0000
0000
0000
0000
,
0000
0000
0000
0000
,
0000
0000
0000
0000
,
0000
0000
0000
0000
,
0000
0000
0000
0000
,
0000
0000
0000
0000
,
0000
0000
0000
0000
,
0001
0010
0001
0100
0010
0000
1000
0000
0001
0010
0001
0100
0010
0000
1000
0000
,
0001
0010
0001
0100
0010
0000
1000
0000
0001
0010
0001
0100
0010
0000
1000
0000
,
0001
0010
0001
0100
0010
0000
1000
0000
0001
0010
0001
0100
0010
0000
1000
0000
,
0001
0010
0001
0100
0010
0000
1000
0000
0001
0010
0001
0100
0010
0000
1000
0000
,
1000
0001
0100
0001
0010
0000
0001
0000
1000
0001
0100
0001
0010
0000
0001
0000
,
1000
0001
0100
0001
0010
0000
0001
0000
1000
0001
0100
0001
0010
0000
0001
0000
,
1000
0001
0100
0001
0010
0000
0001
0000
1000
0001
0100
0001
0010
0000
0001
0000
,
1000
0001
0100
0001
0010
0000
0001
0000
1000
0001
0100
0001
0010
0000
0001
0000
,
0001
1000
0100
1000
0010
0000
1000
0000
0001
1000
0100
1000
0010
0000
1000
0000
,
0001
1000
0100
1000
0010
0000
1000
0000
0001
1000
0100
1000
0010
0000
1000
0000
,
0001
1000
0100
1000
0010
0000
1000
0000
0001
1000
0100
1000
0010
0000
1000
0000
,
0001
1000
0100
1000
0010
0000
1000
0000
0001
1000
0100
1000
0010
0000
1000
0000
,
1000
0010
1000
0100
0010
0000
0001
0000
1000
0010
1000
0100
0010
0000
0001
0000
,
1000
0010
1000
0100
0010
0000
0001
0000
1000
0010
1000
0100
0010
0000
0001
0000
,
1000
0010
1000
0100
0010
0000
0001
0000
1000
0010
1000
0100
0010
0000
0001
0000
,
1000
0000
0010
0100
0010
0000
1000
0100
1000
0010
0100
0000
0001
0000
1000
0000
,
0001
0010
0001
0100
0010
1000
0010
0100
0001
0010
0001
0100
0010
1000
0010
0100
,
0001
0010
0001
0100
0010
1000
0010
0100
0001
0010
0001
0100
0010
1000
0010
0100
,
0001
0010
0001
0100
0010
1000
0010
0100
0001
0010
0001
0100
0010
1000
0010
0100
,
0001
0010
0001
0100
0010
1000
0010
0100
0001
0010
0001
0100
0010
1000
0010
0100
,
0001
0010
0100
1000
0010
1000
0001
0100
0001
0010
0100
1000
0010
1000
0001
0100
,
0001
0010
0100
1000
0010
1000
0001
0100
0001
0010
0100
1000
0010
1000
0001
0100
,
0001
0010
0100
1000
0010
1000
0001
0100
0001
0010
0100
1000
0010
1000
0001
0100
,
0001
0010
0100
1000
0010
1000
0001
0100
0001
0010
0100
1000
0010
1000
0001
0100
,
0010
1000
0100
1000
0010
0100
0001
0100
0010
1000
0100
1000
0010
0100
0001
0100
,
0010
1000
0100
1000
0010
0100
0001
0100
0010
1000
0100
1000
0010
0100
0001
0100
,
0010
1000
0100
1000
0010
0100
0001
0100
0010
1000
0100
1000
0010
0100
0001
0100
,
0010
1000
0100
1000
0010
0100
0001
0100
0010
1000
0100
1000
0010
0100
0010
1000
,
0001
0010
0100
1000
0010
1000
0100
0010
0001
0010
0100
1000
0010
1000
0100
0010
,
0001
0010
0100
1000
0010
1000
0100
0010
0001
0010
0100
1000
0010
1000
0100
0010
,
0001
0010
0100
1000
0001
0100
0010
0100
0001
1000
0100
0010
0001
1000
0001
0100
,
0010
1000
0001
1000
0100
0010
0001
0000
0100
0010
1000
0100
0010
0000
0100
0000
,
1000
0010
1000
0100
0010
0001
0010
0100
1000
0010
1000
0100
0010
0001
0010
0100
,
1000
0010
1000
0100
0010
0001
0010
0100
1000
0010
1000
0100
0010
0001
0010
0100
,
1000
0010
1000
0100
0010
0001
0010
0100
1000
0010
1000
0100
0010
0001
0010
0100
,
1000
0010
1000
0100
0010
0001
0010
0100
1000
0010
1000
0100
0010
0001
0010
0100
,
1000
0010
0100
0001
0010
0001
1000
0100
1000
0010
0100
0001
0010
0001
1000
0100
,
1000
0010
0100
0001
0010
0001
1000
0100
1000
0010
0100
0001
0010
0001
1000
0100
,
1000
0010
0100
0001
0010
0001
1000
0100
1000
0010
0100
0001
0010
0001
1000
0100
,
1000
0010
0100
0001
0010
0001
1000
0100
1000
0010
0100
0001
0010
0001
1000
0100
,
0010
0001
0100
0001
0010
0100
1000
0100
0010
0001
0100
0001
0010
0100
1000
0100
,
0010
0001
0100
0001
0010
0100
1000
0100
0010
0001
0100
0001
0010
0100
1000
0100
,
0010
0001
0100
0001
0010
0100
1000
0100
0010
0001
0100
0001
0010
0100
1000
0100
,
0010
0001
0100
0001
0010
0100
1000
0100
0010
0001
0100
0001
0010
0100
0010
0001
,
1000
0010
0100
0001
0010
0001
0100
0010
1000
0010
0100
0001
0010
0001
0100
0010
,
1000
0010
0100
0001
0010
0001
0100
0010
1000
0010
0100
0001
0010
0001
0100
0010
,
1000
0010
0100
0001
1000
0100
0010
0100
1000
0001
0100
0010
1000
0001
1000
0010
,
0100
0101
1001
1100
,
1000
0100
0010
0100
1000
0010
0100
0001
1000
0100
0010
0100
1000
0010
0100
0001
,
1000
0100
0010
0001
0100
0010
1000
0001
0010
0100
0010
0001
0100
0010
1000
0001
,
0010
0001
1000
0100
1000
0010
0100
0001
1000
0100
0010
0100
1000
0010
0100
0001
,
1000
0100
0010
0001
0100
0010
1000
0001
0010
0100
0010
0001
0100
0010
1000
0001
,
0010
0001
1000
0100
1000
0010
0100
0001
1000
0100
0010
0100
1000
0010
0100
0001
,
1000
0100
0010
0001
0100
0010
1000
0001
0010
0100
0010
0001
0100
0010
1000
0001
,
0010
0001
1000
0100
1000
0010
0100
0001
1000
0100
0010
0100
1000
0010
0100
0001
,
1000
0100
0010
0001
0100
0010
1000
0001
0010
0100
0010
0001
0100
0010
1000
0001
,
0010
0100
0010
0001
0100
0001
0010
0100
1000
0010
0100
0010
1000
0100
0010
0001
,
1000
0010
0100
0001
0010
0100
1000
0001
0100
0010
0100
0001
0010
0100
1000
0001
,
0100
0001
1000
0010
1000
0100
0010
0001
1000
0010
0100
0010
1000
0100
0010
0001
,
1000
0010
0100
0001
0010
0100
1000
0001
0100
0010
0100
0001
0010
0100
1000
0001
,
0100
0001
1000
0010
1000
0100
0010
0001
1000
0010
0100
0010
1000
0100
0010
0001
,
1000
0010
0100
0001
0010
0100
1000
0001
0100
0010
0100
0001
0010
0100
1000
0001
,
0100
0001
1000
0010
1000
0100
0010
0001
1000
0010
0100
0010
1000
0100
0010
0001
,
1000
0010
0100
0001
0010
0100
0010
0001
0100
0010
1000
0100
0010
0001
0100
0010
,
1000
0000
0000
0000
,
0000
0000
0000
0000
,
0000
0000
0000
0000
,
0000
0000
0000
0000
,
0000
0000
0000
0000
,
0000
0000
0000
0000
,
0000
0000
0000
0000
,
0000
0000
0000
0000
,
0000
0000
0000
0000
,
000M
0000
0000
0000
;
