#TITLE:DIP IT LOW;
#SUBTITLE:(EUROTRANCE SPEEDO MIX);
#ARTIST:SPEEDMASTER;
#TITLETRANSLIT:;
#SUBTITLETRANSLIT:;
#ARTISTTRANSLIT:;
#CREDIT:;
#BANNER:banner.png;
#BACKGROUND:bg.png;
#LYRICSPATH:;
#CDTITLE:./CDTITLES/DANCE MANIA SPEED G4.png;
#MUSIC:Dip It Low (Eurotrance Speedo Mix).mp3;
#OFFSET:-0.021;
#SAMPLESTART:61.310;
#SAMPLELENGTH:11.900;
#SELECTABLE:YES;
#BPMS:0.000=173.120;
#STOPS:;
#BGCHANGES:;
// cache tags:
#FIRSTBEAT:18.000;
#LASTBEAT:340.000;
#SONGFILENAME:Songs/new/Dip It Low (Eurotrance Speedo Mix)/Dip It Low (Eurotrance Speedo Mix).sm;
#HASMUSIC:1;
#HASBANNER:1;
#MUSICLENGTH:120.450;
// end cache tags

//---------------dance-single - ----------------
#NOTES:
     dance-single:
     :
     Medium:
     6:
     0.361,0.388,0.091,0.042,0.000,288.000,11.000,5.000,0.000,0.000:  // measure 1
0000
0000
0000
0000
,  // measure 2
0000
0000
0000
0000
,  // measure 3
0000
0000
0000
0000
,  // measure 4
0000
0000
0000
0000
,  // measure 5
0000
0000
0000
0000
,  // measure 6
0000
0000
0000
0000
,  // measure 7
0100
0000
0010
0000
,  // measure 8
0100
0100
0010
0010
,  // measure 9
0001
0100
0001
0100
,  // measure 10
0010
0000
1000
0001
0100
0000
0001
0000
,  // measure 11
0010
0100
0010
0001
,  // measure 12
1000
0000
1000
0010
0100
0000
0001
0000
,  // measure 13
1000
1000
0001
0001
,  // measure 14
0001
0000
0010
0100
1000
0000
1000
0000
,  // measure 15
0100
0100
0010
0001
,  // measure 16
0100
0000
0010
1000
0001
0000
1000
0000
,  // measure 17
1100
0010
0001
0000
,  // measure 18
1100
0010
0101
0000
,  // measure 19
1000
0000
0001
0000
,  // measure 20
0100
0010
0100
0000
,  // measure 21
1000
0001
0100
0000
0001
0000
1000
0000
,  // measure 22
0100
0010
0100
1001
,  // measure 23
1000
0000
0001
0000
,  // measure 24
0100
0001
0100
0000
,  // measure 25
1000
0001
0010
0100
,  // measure 26
1000
0010
1000
0000
0001
0000
0000
0000
,  // measure 27
0001
0010
0001
0100
,  // measure 28
0010
0000
0000
0010
0000
0000
0010
0000
,  // measure 29
1000
1000
0100
1000
,  // measure 30
0001
0010
0001
0100
,  // measure 31
0100
0000
0010
1000
0001
0000
0100
0000
,  // measure 32
0001
0010
0100
1000
,  // measure 33
1000
0010
0100
0000
0100
0010
1000
0000
,  // measure 34
0001
0010
0010
0100
,  // measure 35
0000
0000
1000
0100
0010
0000
0001
0000
,  // measure 36
0101
0001
0010
0100
,  // measure 37
1000
0000
0000
0001
0000
0000
1000
0000
,  // measure 38
0000
0000
0000
1000
0000
0000
0001
0000
,  // measure 39
0000
0001
0010
0100
,  // measure 40
1000
0000
1000
0100
,  // measure 41
0010
0001
0000
0000
,  // measure 42
0001
0010
0100
0010
,  // measure 43
0001
0100
0020
0000
,  // measure 44
0030
0000
1000
0000
0001
0000
1000
0010
,  // measure 45
0100
0010
1000
0000
1100
0000
0011
0000
,  // measure 46
0001
1000
0100
0000
,  // measure 47
0001
0000
1000
0000
1000
0001
0100
0000
,  // measure 48
0010
1000
0001
0101
,  // measure 49
0000
0000
0010
0000
0000
1000
0000
0000
,  // measure 50
0001
0100
0010
0000
,  // measure 51
1000
1000
0001
0001
,  // measure 52
0100
0010
0000
2001
,  // measure 53
0000
3010
0100
0000
,  // measure 54
0001
0010
0100
0000
,  // measure 55
1000
0100
0010
0000
0001
0000
0001
0100
,  // measure 56
0010
1000
0001
1000
,  // measure 57
0000
0000
1000
0000
0000
0001
0000
0000
,  // measure 58
0010
0100
0010
0000
,  // measure 59
0001
0010
0001
1000
,  // measure 60
0010
1000
0000
0000
,  // measure 61
1001
1000
0001
0000
,  // measure 62
1000
0010
0100
0000
,  // measure 63
1000
0010
0100
0001
,  // measure 64
0100
0010
1000
0100
,  // measure 65
0011
0000
0100
0000
0000
1000
0000
0000
,  // measure 66
0001
0100
0100
0010
,  // measure 67
1000
0000
0001
0000
1000
0001
0100
0000
,  // measure 68
0001
1000
0100
0000
0000
0000
0000
0010
,  // measure 69
0001
1000
0100
1000
,  // measure 70
0010
0000
0100
0001
0010
0000
0000
0100
,  // measure 71
1000
0001
0100
0001
,  // measure 72
0010
0000
0100
1000
0010
0000
0000
0001
,  // measure 73
1000
1000
0100
0010
,  // measure 74
0001
0000
0100
0010
1000
0000
0000
0000
,  // measure 75
1000
0001
1000
0001
,  // measure 76
1000
0001
0000
2000
,  // measure 77
3010
0100
0001
1000
,  // measure 78
0000
0000
1000
0000
0100
0010
0001
0000
,  // measure 79
0000
0000
0001
0000
0100
0010
1000
0000
,  // measure 80
0000
1000
0001
0001
,  // measure 81
0000
0000
0001
0000
0010
0100
1000
0000
,  // measure 82
0000
1000
0001
0010
,  // measure 83
0000
0001
1000
0010
,  // measure 84
0200
0000
0001
0001
,  // measure 85
0302
0000
0000
0000
,  // measure 86
0003
0000
0000
0000
;

//---------------dance-single - ----------------
#NOTES:
     dance-single:
     :
     Easy:
     4:
     0.288,0.353,0.025,0.058,0.000,233.000,3.000,7.000,0.000,0.000:  // measure 1
0000
0000
0000
0000
,  // measure 2
0000
0000
0000
0000
,  // measure 3
0000
0000
0000
0000
,  // measure 4
0000
0000
0000
0000
,  // measure 5
0000
0000
0000
0000
,  // measure 6
0000
0000
0000
0000
,  // measure 7
0010
0000
0000
0000
,  // measure 8
0100
0000
0000
0000
,  // measure 9
1001
0000
0100
0000
,  // measure 10
1000
0010
0100
0000
,  // measure 11
0001
0000
0010
0000
,  // measure 12
0001
0010
0100
0000
,  // measure 13
1000
0001
1000
0001
,  // measure 14
0100
0010
0010
0000
,  // measure 15
0001
1000
0001
1000
,  // measure 16
0010
0100
0100
0000
,  // measure 17
0001
0010
0010
0000
,  // measure 18
0100
0010
0001
0000
,  // measure 19
1000
1000
0001
0001
,  // measure 20
0100
0010
1000
0000
,  // measure 21
1000
0100
0001
0010
,  // measure 22
0001
1000
0100
1000
,  // measure 23
0000
0000
0010
0000
,  // measure 24
0100
0100
0100
0000
,  // measure 25
0002
0013
0000
0100
,  // measure 26
0000
0000
0000
2000
,  // measure 27
3010
0000
0100
0000
,  // measure 28
0001
0000
0000
1000
0000
0000
0000
0000
,  // measure 29
0001
0010
0010
0100
,  // measure 30
0000
1000
1000
0010
,  // measure 31
0000
0100
0001
0100
,  // measure 32
0010
1000
0001
0010
,  // measure 33
0001
0000
2000
0000
,  // measure 34
0000
3010
1000
0010
,  // measure 35
0000
0100
0001
0100
,  // measure 36
0000
0001
0010
0100
,  // measure 37
0000
1000
0000
0100
,  // measure 38
0000
0010
0000
0001
,  // measure 39
0000
0100
0010
0000
,  // measure 40
1000
1000
0010
0100
,  // measure 41
0001
1000
0000
1000
,  // measure 42
0010
0100
0001
0000
,  // measure 43
1000
0000
0010
0000
,  // measure 44
0000
1000
1000
1000
,  // measure 45
1000
0001
0100
0000
,  // measure 46
0001
0010
0100
0000
,  // measure 47
1000
0100
0001
0010
,  // measure 48
0001
0100
0010
1000
,  // measure 49
0000
1000
0000
0100
,  // measure 50
0000
0010
0001
0000
,  // measure 51
0001
0100
0001
1000
,  // measure 52
0001
0010
0000
0100
,  // measure 53
1000
0001
0001
0000
,  // measure 54
1000
0010
0010
0000
,  // measure 55
0100
0001
0100
0010
,  // measure 56
0100
0010
0100
0001
,  // measure 57
1001
1000
0000
0001
,  // measure 58
0100
0010
0100
0000
,  // measure 59
1000
0100
0010
0001
,  // measure 60
0100
0010
0000
2000
,  // measure 61
3100
0011
0100
0000
,  // measure 62
1000
0001
0100
0000
,  // measure 63
0001
0100
1000
0100
,  // measure 64
0001
1000
0001
0100
,  // measure 65
0000
0010
0000
1000
,  // measure 66
0001
0010
0100
0000
,  // measure 67
1000
0100
1000
0100
,  // measure 68
0010
0002
0000
1000
,  // measure 69
1003
0100
1000
0010
,  // measure 70
0100
0100
0100
0001
,  // measure 71
0010
0001
0100
0001
,  // measure 72
0010
0010
0010
0100
,  // measure 73
1000
0001
0100
0001
,  // measure 74
1000
0100
0100
0000
,  // measure 75
1000
0001
0010
0010
,  // measure 76
0001
1000
0100
0100
,  // measure 77
0001
1000
0010
0000
,  // measure 78
0000
0100
0001
0001
,  // measure 79
0000
0010
1000
0000
,  // measure 80
0000
1000
0100
0010
,  // measure 81
0000
0001
0002
0000
,  // measure 82
0003
0000
0001
1000
,  // measure 83
0000
0100
0010
0010
,  // measure 84
0200
0000
0000
0000
,  // measure 85
0000
0000
0000
0000
,  // measure 86
0300
0000
0000
0000
;

//---------------dance-single - ----------------
#NOTES:
     dance-single:
     :
     Hard:
     9:
     0.563,0.600,0.133,0.058,0.158,452.000,16.000,7.000,0.000,0.000:  // measure 1
0000
0000
0000
0000
,  // measure 2
0000
0000
0000
0000
,  // measure 3
0000
0000
0000
0000
,  // measure 4
0000
0000
0000
0000
,  // measure 5
0000
0000
0002
0000
,  // measure 6
0000
0000
2003
0000
,  // measure 7
0000
0000
3020
0000
,  // measure 8
0100
0000
0100
0100
,  // measure 9
0130
0000
0000
0001
0000
0000
1000
0000
0100
0000
0000
0010
0000
0000
0001
0000
,  // measure 10
1000
0000
0000
1000
0001
0000
0100
0000
0000
0001
1000
0000
0100
0000
0010
0000
,  // measure 11
0001
0000
0000
0001
0000
0000
1000
0000
0010
0000
0000
0100
0000
0000
0001
0000
,  // measure 12
1000
0000
0000
1000
0001
0000
0010
0000
0000
0100
1000
0000
0100
0000
0010
0000
,  // measure 13
0001
0000
0000
0100
0000
0000
0001
0000
0010
0000
0000
0010
0000
0000
0001
0000
,  // measure 14
1000
0000
0000
0010
0000
0000
1000
0000
0000
1000
0001
0000
0100
0000
0010
0000
,  // measure 15
1000
0000
0000
1000
0000
0000
0001
0000
0010
0000
0000
0001
0000
0000
1000
0000
,  // measure 16
0100
0000
0000
0010
0000
0000
0001
0000
0000
0001
0010
0000
0100
0000
1000
0000
,  // measure 17
0100
0000
1000
0001
0100
0000
0101
0000
,  // measure 18
0001
1000
0100
1000
0010
0000
1010
0000
,  // measure 19
1000
0100
0010
0001
,  // measure 20
0001
1000
0010
0100
0001
0000
1000
0000
,  // measure 21
0100
0010
0001
0010
0100
1000
0100
0001
,  // measure 22
0100
0010
0001
0100
0010
1000
0100
0000
,  // measure 23
1000
0001
0100
0010
,  // measure 24
1000
0000
0001
0000
1000
0000
0100
0000
0010
0000
0000
0001
1000
0000
0010
0000
,  // measure 25
1000
0000
0000
0100
0000
0000
0010
0000
0001
0000
0000
1000
0000
0000
0010
0000
,  // measure 26
1000
0000
0000
0100
0000
0000
0100
0000
0000
0000
0010
0000
0001
0000
1000
0000
,  // measure 27
0010
0100
0001
0100
,  // measure 28
0010
0000
1000
0000
0010
0000
0100
0001
,  // measure 29
0010
0000
1000
0000
1000
0100
0010
0000
,  // measure 30
1001
0000
0001
0000
0001
0100
0010
0000
,  // measure 31
1001
1000
0001
0100
,  // measure 32
0001
1000
0100
0000
1000
0001
0100
0000
,  // measure 33
0001
0000
1000
0000
1000
0100
0001
0100
,  // measure 34
1000
0000
1000
0000
0001
0100
0010
0000
,  // measure 35
0010
0000
1000
0100
0010
0000
0010
0000
,  // measure 36
0001
0000
1000
0000
0001
1000
0100
1000
,  // measure 37
0010
0100
0001
0010
0000
0101
0000
1000
,  // measure 38
0100
0010
0001
0100
0000
1010
0000
1000
,  // measure 39
0100
0000
1000
0000
0001
0000
0001
0100
,  // measure 40
1000
0000
1000
0000
1000
0100
0001
0010
,  // measure 41
0001
1000
0100
0000
1000
0000
0001
0000
,  // measure 42
0100
0001
1000
0100
,  // measure 43
0010
0100
1000
0001
,  // measure 44
0100
0000
0010
1000
0010
0001
0010
1000
,  // measure 45
0010
0000
0010
1000
0100
0000
0011
0000
,  // measure 46
0001
1000
0010
1000
0100
0000
1100
0000
,  // measure 47
1000
0100
0001
0100
1000
0000
1000
0010
,  // measure 48
0001
0010
1000
0000
1100
0000
0101
0000
,  // measure 49
0110
0000
0000
0000
1000
0000
0000
0000
0000
0000
0001
0000
0000
0000
0000
1000
,  // measure 50
0001
0000
0100
0000
0010
0000
1000
0001
,  // measure 51
0100
0010
0100
0001
0100
0010
1000
0010
,  // measure 52
0100
0001
0010
0000
0010
0000
0001
0000
,  // measure 53
0001
0000
1100
0000
0011
0000
0001
0100
,  // measure 54
0010
0000
1000
0001
0100
0010
1000
0000
,  // measure 55
1000
0001
0100
1000
1000
0100
0001
0001
,  // measure 56
0010
1000
1000
0010
0001
0000
1001
0000
,  // measure 57
0110
0000
0000
0000
1000
0000
0000
0000
0000
0000
0001
0000
0000
0000
0000
0001
,  // measure 58
0010
0100
1000
0000
,  // measure 59
1000
1000
0001
0001
0010
0010
0001
1000
,  // measure 60
0100
0010
0000
0002
,  // measure 61
1003
0000
1000
0010
0100
0000
0010
0100
,  // measure 62
0001
0000
0001
0010
0001
1000
0100
0010
,  // measure 63
0001
0000
1000
0010
0100
0001
0100
0010
,  // measure 64
1000
0100
0100
1000
0010
0100
0001
0000
,  // measure 65
1100
0000
0001
0100
0010
0000
0010
1000
,  // measure 66
0100
0000
0100
0010
0001
0100
0001
0000
,  // measure 67
0001
0100
1000
0100
0010
1000
0100
0010
,  // measure 68
0100
1000
0010
0100
0001
0010
0002
0000
,  // measure 69
1003
0000
0000
0010
0000
0000
1000
0000
0100
0000
0000
0010
0000
0000
0001
0000
,  // measure 70
0010
0000
0000
1000
0010
0000
0100
0000
0000
0001
0100
0000
0010
0000
1000
0000
,  // measure 71
0010
0000
0000
0100
0000
0000
0001
0000
1000
0000
0000
0100
0000
0000
1000
0000
,  // measure 72
0001
0000
0000
0001
0010
0000
0100
0000
0000
1000
0100
0000
0010
0000
0001
0000
,  // measure 73
0100
0000
0000
0100
0000
0000
0001
0000
0010
0000
0000
0010
0000
0000
0010
0000
,  // measure 74
0001
0000
0000
1000
0000
0000
0010
0000
0000
1000
0001
0000
0100
0000
0010
0000
,  // measure 75
0100
0000
0000
0001
0000
0000
1000
0000
0100
0000
0000
1000
0000
0000
0001
0000
,  // measure 76
0100
0000
0000
0010
1000
0000
0100
0000
0000
0000
0000
1000
0100
0000
0010
0000
,  // measure 77
0001
0000
0001
0000
0100
0000
0100
0010
,  // measure 78
1000
0000
1000
0001
0010
0001
0100
0000
,  // measure 79
0100
0000
0001
0000
0001
0000
0001
1000
,  // measure 80
0010
0000
0100
0001
0100
1000
0100
0000
,  // measure 81
0001
0000
0010
0000
0010
0000
0010
0100
,  // measure 82
1000
0000
1000
0100
0001
0100
0010
0000
,  // measure 83
0001
0000
1000
0010
0100
0001
0010
0001
,  // measure 84
2000
0000
0000
0000
,  // measure 85
0020
0000
0000
0000
,  // measure 86
3030
0000
0000
0000
;
