#TITLE:Speed Japan;
#SUBTITLE:;
#ARTIST:Wildside;
#TITLETRANSLIT:;
#SUBTITLETRANSLIT:;
#ARTISTTRANSLIT:;
#CREDIT:;
#BANNER:Speed Japan-bn.png;
#BACKGROUND:Speed Japan-bg.png;
#LYRICSPATH:;
#CDTITLE:!Dan23!.png;
#MUSIC:Speed Japan.mp3;
#OFFSET:-0.080;
#SAMPLESTART:52.543;
#SAMPLELENGTH:11.880;
#SELECTABLE:YES;
#BPMS:0.000=169.000;
#STOPS:;
#BGCHANGES:;
// cache tags:
#FIRSTBEAT:0.000;
#LASTBEAT:271.500;
#SONGFILENAME:Songs/Keyboard Collaboration II/Dan23 - Speed Japan/Speed Japan.sm;
#HASMUSIC:1;
#HASBANNER:1;
#MUSICLENGTH:97.914;
// end cache tags

//---------------dance-single - ----------------
#NOTES:
     dance-single:
     :
     Hard:
     11:
     1.000,1.000,1.000,0.133,1.000,822.000,149.000,13.000,0.000,0.000:  // measure 1
1001
0000
0100
0010
1000
0000
0001
0100
0001
1000
0010
0100
0001
0000
1100
0000
,  // measure 2
1000
0001
0100
0010
0100
0000
0001
0010
0100
1000
0001
0100
1001
0000
1100
0000
,  // measure 3
0001
0100
0010
1000
0001
0000
1000
0100
0010
0001
0100
0010
1000
0000
0101
0000
,  // measure 4
1001
0100
0010
1000
0001
0000
1000
0010
0100
0001
1000
0100
0010
0000
0010
0100
,  // measure 5
1001
0000
0001
1000
0101
0000
0001
0010
0100
1000
0001
1000
0101
0000
1000
0010
,  // measure 6
0100
0001
1000
0100
1001
0000
0100
0010
1000
0001
0010
0100
1100
0000
0001
0100
,  // measure 7
0001
1000
0100
1000
0101
0000
1000
0010
0100
0001
1000
0001
0110
0000
1001
0000
,  // measure 8
0110
0001
0100
0010
1000
0100
1000
0001
0010
0100
1000
0001
0220
0000
0000
0330
,  // measure 9
1001
0001
1100
0100
0101
0010
1001
1001
,  // measure 10
1100
0010
0000
0010
0100
0000
0100
0001
0000
0001
0100
0010
1000
0100
0010
0001
,  // measure 11
1100
1100
0101
0101
1001
0010
0110
0110
,  // measure 12
1001
0100
0000
0100
0010
0000
0010
1000
0000
1000
0100
0010
0001
0100
0010
1000
,  // measure 13
0101
0001
1100
0100
1001
0010
1010
1010
,  // measure 14
0011
0100
0000
0100
0001
0000
0001
1000
0000
1000
0100
0010
0001
0100
0010
0100
,  // measure 15
1001
1001
0110
0110
1001
0001
1100
0101
,  // measure 16
0002
0203
0302
0023
0230
2300
3020
0230
0302
0003
1001
0000
1001
0000
0001
0000
,  // measure 17
1000
0010
0100
0001
0010
0100
1000
0001
0100
0001
1000
0100
1000
0010
0100
0001
,  // measure 18
1000
0100
1000
0100
0010
0001
0010
0001
0100
0010
0100
0010
1000
0001
1000
0001
,  // measure 19
0010
0100
1000
0010
0100
0001
0100
0010
1000
0100
1000
0001
0010
0100
1000
0100
,  // measure 20
0010
0001
0010
0001
0100
0010
0100
0010
1000
0001
1000
0001
1000
0100
1000
0100
,  // measure 21
0010
0001
0100
0010
0100
0001
1000
0100
0010
0001
0100
0010
1000
0100
0010
0001
,  // measure 22
1000
0010
1000
0010
0100
0001
0100
0001
1000
0100
1000
0100
0010
0001
0010
0001
,  // measure 23
1000
0010
0100
0001
0010
0100
1000
0100
0010
0001
1000
0010
0101
0000
1100
0000
,  // measure 24
0001
0100
0001
0100
0010
1000
0010
1000
0001
0010
0100
1000
0001
0010
0100
1000
,  // measure 25
0202
0000
0000
0000
0303
1001
1100
0101
,  // measure 26
1000
0000
0011
0000
1010
0000
1001
0000
0100
0000
0010
0100
0001
0000
1100
0000
,  // measure 27
1001
0000
0110
0000
0101
0000
1001
0000
0110
0000
0100
0010
1000
0000
0001
0000
,  // measure 28
1001
0001
1100
1000
0101
1000
1001
1001
,  // measure 29
0110
0100
1100
0001
0101
1001
0110
1001
,  // measure 30
1000
0000
0110
0000
0011
0000
0101
0000
0001
0000
1000
0010
0100
0000
0001
0000
,  // measure 31
1001
0000
1100
0000
0101
0000
0110
0000
0010
0000
0100
0001
1000
0000
0001
0000
,  // measure 32
1001
0000
0001
0100
0010
1000
0001
0100
1001
0000
0100
0010
1000
0100
0010
0001
,  // measure 33
1100
0000
0010
0100
0001
0000
0001
0100
0010
0000
0010
0100
0001
1000
0100
0010
,  // measure 34
1001
0100
1100
0001
0101
0010
1001
1100
,  // measure 35
0001
0100
1001
0010
1100
0001
0100
0010
,  // measure 36
1100
0000
0010
0100
0001
0010
0100
1000
0101
0000
1000
0010
0100
0001
0100
0010
,  // measure 37
1000
0100
1000
0100
0010
0001
0010
0001
1000
0010
1000
0010
0100
0001
0100
0001
,  // measure 38
1001
0001
1001
0010
1100
0001
1010
0101
,  // measure 39
0010
1001
0100
1001
0010
1001
0010
1100
,  // measure 40
0001
0000
1100
0000
0101
0000
1000
0001
1000
0000
0100
0000
1010
0000
0011
0000
,  // measure 41
0010
1100
0001
0101
1000
1001
0010
1100
,  // measure 42
0001
0101
1001
0110
1010
0001
0101
1001
,  // measure 43
0010
0000
0001
0100
0001
0000
1000
0100
1000
0000
0001
0000
0100
0000
1001
0000
,  // measure 44
0110
0000
0010
0100
0001
0010
0100
1000
0101
0000
1000
0100
0010
0001
0100
0010
,  // measure 45
1000
0100
1000
0100
0010
0001
0010
0001
1000
0010
1000
0010
0100
0001
0100
0001
,  // measure 46
1001
0000
0100
0010
1000
0000
0001
0000
1001
0000
1000
0000
0101
0000
1001
0000
,  // measure 47
0100
0000
0001
0100
0001
0000
1000
0010
0100
0000
0001
0010
0100
0000
1100
0000
,  // measure 48
0010
0000
0101
0000
1100
0000
0010
0100
0001
0000
1000
0000
1100
0000
0101
0000
,  // measure 49
0010
0000
1000
0100
0010
0000
0001
0100
0001
0000
1000
0010
0100
0000
1001
0000
,  // measure 50
0010
1100
0110
0011
1001
0100
1100
0101
,  // measure 51
1000
0000
0010
0100
0001
0000
0001
0010
0100
0000
1000
0000
0001
0000
1001
0000
,  // measure 52
0110
0000
0001
0100
0010
1000
0100
0010
1001
0000
0100
0010
1000
0001
0100
0010
,  // measure 53
1000
0001
1000
0001
0100
0010
0100
0010
1000
0100
1000
0100
0010
0001
0010
0001
,  // measure 54
1000
0010
0100
0001
0010
0100
1000
0100
0010
0001
0100
0010
0100
0001
0010
0100
,  // measure 55
1000
0001
1000
0001
0100
0010
0100
0010
1000
0100
1000
0100
0010
0001
0010
0001
,  // measure 56
1000
0010
0100
0001
0010
0100
1000
0010
0100
0001
1000
0100
0010
0001
0100
0010
,  // measure 57
1000
0100
1000
0100
0010
0001
0010
0001
0100
0010
0100
0010
1000
0001
1000
0001
,  // measure 58
0100
0010
1000
0001
0010
0100
1000
0100
0010
0001
0100
0001
1000
0100
1000
0001
,  // measure 59
0100
0010
0100
0010
1000
0100
1000
0100
0010
0001
0010
0001
1000
0001
1000
0001
,  // measure 60
1000
0010
1000
0100
1000
0001
0100
0010
0100
0001
0010
0001
0100
0010
1000
0001
,  // measure 61
0100
0010
0100
0010
1000
0010
1000
0010
0100
0001
0100
0001
1000
0100
1000
0100
,  // measure 62
0011
0100
1100
0001
1001
0100
1100
0011
,  // measure 63
1000
0000
0100
0010
0001
0000
0001
0100
0010
0000
0010
1000
0100
0000
0010
0000
,  // measure 64
0001
0100
0010
0100
0001
0010
0100
1000
0001
0100
0010
1000
0101
0000
1001
0000
,  // measure 65
0001
0100
0001
0100
0010
1000
0010
1000
0001
0010
0001
0010
0100
1000
0100
1000
,  // measure 66
0101
1000
1001
0100
1100
0010
1001
1100
,  // measure 67
0001
0000
0100
0010
1000
0000
1000
0100
0010
0000
0001
0100
0010
0000
1000
0000
,  // measure 68
1000
0100
0010
0001
0100
0010
1000
0100
0010
0001
0010
0100
1001
0000
1001
0000
;
