#TITLE:Por Alante y Por Detras II;
#SUBTITLE:;
#ARTIST:El Nene Del Mixeo;
#TITLETRANSLIT:;
#SUBTITLETRANSLIT:;
#ARTISTTRANSLIT:;
#CREDIT:;
#BANNER:banner.JPG;
#BACKGROUND:vertexbeta-bg.png;
#LYRICSPATH:;
#CDTITLE:!HSTTitle.png;
#MUSIC:Pam Pam Por Delante Y Por Detras.ogg;
#OFFSET:0.000;
#SAMPLESTART:79.296;
#SAMPLELENGTH:12.000;
#SELECTABLE:YES;
#BPMS:0.000=96.000,16.000=195.000,48.000=194.000,188.000=193.000,216.000=194.000;
#STOPS:15.500=7.500
,483.500=3.700
;
#BGCHANGES:;
// cache tags:
#FIRSTBEAT:8.000;
#LASTBEAT:646.000;
#SONGFILENAME:Songs/Reggaeton and more/Por Alante y Por Detras II/vertexbeta.sm;
#HASMUSIC:1;
#HASBANNER:1;
#MUSICLENGTH:220.454;
// end cache tags

//---------------dance-single - ----------------
#NOTES:
     dance-single:
     :
     Challenge:
     12:
     0.815,0.989,0.898,0.064,0.329,1045.000,198.000,14.000,0.000,2.000:

0000
0000
0000
0000
,
0000
0000
0000
0000
,
1001
0000
1000
0100
0011
0000
1001
0000
,
0101
0000
0000
0000
0000
0000
0000
0000
0000
0000
0000
0000
0000
0000
0000
0000
0010
0000
0000
0000
0000
0000
0000
0000
1000
0000
0000
0000
0000
0000
0000
0000
1010
0000
0000
0000
0000
0000
0000
0000
1000
0000
0000
0000
0000
0000
0000
0000
0001
0000
0000
0000
0000
0000
0000
0000
2002
3003
0000
0000
0000
0000
0000
0000
,
1100
0000
0110
0000
0011
0000
1000
0100
,
0010
0000
0001
0000
0010
0000
0100
0000
1000
0100
0010
0100
1000
0100
0010
0001
,
1000
0010
0100
0000
1001
0000
1000
0100
,
0010
0000
0100
0000
1000
0000
0100
1000
0100
0000
1000
0100
0010
0000
0001
0000
,
1001
1000
1100
0000
1001
0000
1000
0010
,
0100
0000
0010
0000
1000
0000
0100
0000
1000
0100
0010
0001
1000
0010
0100
0001
,
1000
0100
1010
0000
1001
0000
1000
0100
,
0010
0001
0010
0100
1010
0000
1000
0100
,
1000
0000
0100
0010
0100
0000
0010
0001
,
0010
0000
0001
0100
0001
0000
0100
0010
,
0100
0000
0010
1000
0010
0000
1000
0001
,
1000
0000
1100
0000
0110
0000
0011
0001
,
1001
0000
1000
0010
1010
0000
1000
0001
,
1001
0000
0001
0100
0101
0000
1000
0010
,
1010
0000
1000
0010
0101
0000
0001
0100
,
1010
1000
0100
0010
0001
0010
1100
1001
,
0101
0000
0000
1001
0000
0000
1100
0000
,
1001
1000
0100
0010
0001
0100
0101
0000
,
1100
0010
0001
0100
0010
1000
1100
0000
,
1001
1000
0001
1000
0010
0100
0101
0000
,
1100
0100
0010
0001
0010
0100
0110
0000
,
1100
0100
0010
0010
0001
0001
1001
0000
,
1100
0100
0010
0100
1000
0001
1001
0000
,
1100
0100
0110
0010
0011
1001
1100
0000
,
1001
0000
0000
0000
0000
0000
0000
0000
0000
0000
0000
1000
0000
0000
0000
0000
0000
0010
0000
0000
0000
0000
0000
0100
0000
0000
0000
0000
0000
0001
0000
0000
,
0000
0000
0000
1000
0000
0000
0000
0000
0000
0100
0000
0000
0000
0010
0000
0000
0000
0001
0000
0000
0000
0000
0000
1000
0000
0000
0000
0000
0000
0000
0000
0000
,
0000
0001
0000
0000
0000
0000
0000
0000
0000
0000
0000
0000
0000
0000
0000
0110
0000
0000
0000
0000
0000
0000
0000
0000
1000
0000
0000
0000
0100
0000
0000
0000
,
0010
0001
0010
0100
1000
1001
0000
0000
,
1100
0100
0000
0010
0011
0000
1001
1000
,
0100
0010
0001
0010
0100
1000
0000
0000
,
1000
0100
0000
0100
0010
0000
1001
1000
,
0001
1000
1000
0001
0001
1001
0000
0000
,
1100
0010
0000
0101
1000
0000
1001
1000
,
1100
0100
0010
0001
0101
0001
1001
0000
,
1000
0000
0000
0000
0100
0000
0000
0000
0010
0000
0000
0000
0000
0001
0000
0000
0000
0000
0000
1000
0000
0000
0000
0000
0000
1001
0000
0000
0000
0000
0000
0000
,
1001
1000
0100
0010
0100
1000
0001
0010
,
0100
0010
0001
0100
1000
0001
0010
1000
,
0100
0010
0001
0100
1000
0001
0010
1000
,
0100
0010
0100
1000
0010
0100
0110
0000
,
1000
0100
0010
0001
1000
0010
0100
0001
,
1000
0000
0100
0000
0010
0000
0001
0000
0010
0100
1000
0000
1001
0000
0000
0000
,
0001
0000
0100
0000
0010
0000
1000
0000
0100
0010
0001
0000
0001
0010
0100
0000
,
0100
1000
0001
0000
1000
0001
0100
0000
0010
1000
0100
0010
0001
1000
0010
0100
,
0001
0000
0100
0001
1001
0000
0110
0000
,
1000
0000
0100
0000
0010
0000
0001
0000
0010
0100
0010
0100
0010
0100
0010
0100
,
1000
0000
1000
0100
0010
0000
1100
0000
,
1000
0000
0100
0000
1000
0000
0001
0100
0001
0000
0100
0010
0100
0000
0110
0000
,
1001
1000
0100
0010
1001
0000
0000
0000
,
1100
0000
0000
0000
0011
0000
0000
0000
1000
0001
1000
0001
1000
0001
1000
0001
,
1000
0100
0010
0001
0000
0000
0000
0000
,
1100
0100
0110
0010
0011
0001
1001
1000
,
1001
0001
0100
0010
1000
0000
1100
0001
,
0101
0001
0010
0100
1100
1100
0110
0110
,
1100
1000
0100
0010
0001
0000
0001
0010
,
0011
0001
0100
0010
1000
0100
0010
0001
,
1001
0100
0010
0100
1000
0010
0100
0010
,
1000
0001
0010
0100
0010
0001
0100
0010
,
0100
0000
0001
0100
0001
0000
0010
0000
0100
0000
1000
0000
0100
0000
0010
0000
,
0001
0100
0010
0000
0100
0000
0001
0000
1000
0000
0100
0000
0010
0100
1000
0000
,
1001
1000
1100
0001
,
0101
0000
1000
0100
0010
0001
0010
0100
,
1100
0001
0011
0010
,
1010
1001
0000
0101
0000
1010
0000
0101
,
1001
1000
0100
1000
1100
0000
0100
0010
,
0100
1000
0010
0100
0001
0000
0001
0100
,
0010
1000
0100
0001
0100
0000
1000
0010
,
0001
0010
1000
0100
1100
1100
0110
0011
,
1001
0000
1000
0100
1100
0000
0100
0010
,
0110
0000
0010
0001
0011
0000
0001
1000
,
1001
0000
1000
0010
0101
0000
0100
0001
,
1010
0000
1000
0100
0011
0000
0001
0010
,
1100
0000
1000
0001
0110
0000
0100
0010
,
1001
0000
1000
1000
0110
0000
0001
0001
,
1010
0000
0100
0100
0011
0000
0010
0010
,
1100
1010
0011
0101
,
1001
0000
1000
0000
0010
0000
0100
0000
0001
0010
0001
0000
0100
0000
0010
0000
,
1000
0100
1000
0000
0001
0010
0001
0000
1000
0000
0100
0000
0010
0001
0010
0000
,
0100
0000
1000
0000
0100
0000
1000
0000
0010
0100
0001
0000
0010
0100
1000
0000
,
0100
1000
0001
0000
0100
0001
1000
0000
0100
0000
0010
0000
0001
0010
0100
0000
,
1000
0100
1000
0100
1000
0000
0001
0100
0001
0100
0001
0100
0001
0100
0010
1000
,
0010
1000
0010
1000
0010
0000
1000
0000
0100
0000
0010
0000
1001
0000
0000
0000
,
1000
0100
1000
0001
0001
0100
0100
0010
,
1000
0100
1000
0100
0010
0001
0010
0001
1000
0010
1000
0010
0100
0001
0100
0001
,
0101
0000
0000
0000
,
0000
0000
0000
0000
0000
0000
0000
0000
0000
1100
0000
0010
,
0001
0000
0001
0100
0000
0000
1010
0000
0000
1001
0000
0000
,
0101
0000
0000
0110
0000
0000
1010
0000
0000
1001
0000
1000
,
0010
0000
0010
1000
0000
0000
1100
0000
0000
1010
0000
0000
,
0101
0000
0000
0011
0000
0000
1001
0000
0000
1000
0000
0100
,
0010
0000
0001
0100
0000
0000
1010
0000
0000
1010
0000
0000
,
1001
0000
0000
1001
0000
0000
0101
0000
0000
1000
0000
0010
,
0100
0000
0001
1000
0000
0000
1100
0000
0000
0110
0000
0000
,
0011
1001
1010
0000
,
1000
0010
0001
0010
1000
0100
0010
0100
,
1000
0100
0001
0100
1000
0001
0100
0001
,
1000
0001
0010
0100
0010
0001
0100
1000
,
0100
0001
0010
1000
0001
0100
1000
0100
,
0010
0001
0100
0010
0100
0001
0010
1000
,
0001
0100
1000
0100
0001
1000
0010
0001
,
0010
0100
1000
0100
0010
1000
0010
0001
,
0100
0010
1000
0100
0010
0100
1000
0100
,
1100
0100
1000
0000
1000
0100
0010
0001
,
0010
0010
0010
0000
0100
0100
0100
0000
,
1000
0010
0100
0001
1000
0100
0010
0001
,
1000
1000
1000
0000
0001
0001
0001
0000
,
1001
0000
1000
0100
0000
0100
0010
0000
0010
0001
0000
0001
,
0100
0100
0100
0000
0010
0010
0010
0000
,
1000
0000
0010
0010
0000
0100
0100
0000
0001
0001
0000
1000
,
0100
0010
0001
0000
0001
0100
0010
0000
,
1001
1000
0001
0000
1001
0000
0001
0100
,
0020
0000
0000
2000
0000
0000
0000
3030
,
1000
0100
0001
0000
1000
0000
0010
0001
,
2000
0000
0000
0002
0000
0000
0000
3003
,
1001
1000
1100
0000
0101
0000
1000
0100
,
0020
0000
0000
0200
0000
0000
0000
0330
,
1001
1100
0101
0000
1001
0000
1100
0110
,
2200
0000
0000
0000
0000
0000
0000
0000
0000
0010
0000
0000
0000
0000
0000
0000
0000
0000
0000
0000
0000
0000
3300
0000
,
1001
1000
0000
0100
0010
0000
1001
0000
,
0001
0100
0000
0010
1000
0000
1001
0000
,
1000
1000
0000
0100
0100
0000
0011
0000
,
0000
0000
0000
0000
,
1000
1000
0000
0010
0010
0000
0101
0000
,
0001
0001
0000
0100
0100
0000
1010
0000
,
1000
0010
0000
0001
0010
0000
1001
0000
,
0000
0000
0000
0000
,
1000
0100
0010
0100
1000
0100
0010
0100
,
1000
0010
0100
0010
1000
0010
0100
0010
,
1000
1000
0000
0001
0001
0000
0110
0000
,
0000
0000
0000
0000
,
1100
1100
0000
0110
0110
0000
1001
0000
,
0000
0000
0000
0000
,
1000
2000
0000
0100
0200
0000
0001
3300
,
0000
0000
0000
0000
,
1000
0100
0000
0010
0001
0000
1001
0000
,
0001
0100
0000
0010
1000
0000
1001
0000
,
1001
0100
0000
0010
1001
0000
1100
0000
,
0011
1100
0000
1010
0101
0000
1001
0000
,
1100
0010
0000
0101
1000
0000
1001
0000
,
1000
0100
0000
0100
1000
0000
0011
0000
,
1001
1001
0000
1001
0110
0000
0110
0000
,
0000
0000
0000
0000
,
1000
0100
0010
1001
0000
0000
0000
1000
,
0100
0000
0010
0001
0100
1000
0000
1000
,
0100
0000
0001
0010
0100
1000
0000
1100
,
0100
0000
1000
0010
0010
1000
0000
0000
,
1001
1000
1001
0001
0000
0000
0000
0000
,
0010
1000
0100
0010
0001
0100
0000
0000
,
1000
0010
0001
1000
0100
0001
0000
0000
,
0001
0100
1000
0001
0010
1000
0000
0000
,
1000
0100
0010
0100
1000
0001
0010
0100
0010
0001
0100
0010
,
1000
0100
0010
0001
0010
0100
1000
0001
0010
0100
1000
0100
,
0010
0001
0100
0010
1000
0010
0100
0001
1000
0010
0100
0001
,
0100
0010
1000
0100
0010
0100
1000
0010
0100
0010
1000
0001
,
0100
0010
0100
0001
0010
0100
0010
0001
1000
0010
0100
0001
,
0100
0010
1000
0001
0100
0010
1000
0010
0100
0001
0100
0010
,
1000
0100
0010
0001
1000
0010
0100
0001
1000
0100
0010
0100
,
1000
0000
0100
0000
0010
0000
0001
0100
1000
0000
0001
0000
0010
0000
1000
0000
,
2002
0000
3003
0000
;
