#TITLE:July;
#SUBTITLE:;
#ARTIST:Smiley;
#TITLETRANSLIT:;
#SUBTITLETRANSLIT:;
#ARTISTTRANSLIT:;
#CREDIT:;
#BANNER:july.png;
#BACKGROUND:july.bg.JPG;
#LYRICSPATH:;
#CDTITLE:;
#MUSIC:July.mp3;
#OFFSET:-0.088;
#SAMPLESTART:35.291;
#SAMPLELENGTH:11.980;
#SELECTABLE:YES;
#BPMS:0.000=170.000;
#STOPS:;
#BGCHANGES:;
// cache tags:
#FIRSTBEAT:0.000;
#LASTBEAT:356.000;
#SONGFILENAME:Songs/IzzySM Keyboard Mega Pack/July/July.sm;
#HASMUSIC:1;
#HASBANNER:1;
#MUSICLENGTH:126.492;
// end cache tags

//---------------dance-single - ----------------
#NOTES:
     dance-single:
     :
     Challenge:
     11:
     1.000,1.000,1.000,0.016,1.000,760.000,178.000,2.000,0.000,0.000:  // measure 1
1000
0000
0100
0000
0100
0010
0000
0100
0001
0000
0100
0001
0000
0100
1000
0000
,  // measure 2
0100
0000
0010
0000
0100
0010
0000
0100
0010
0000
0100
0010
0000
0100
0010
0000
,  // measure 3
1000
0000
0100
0000
0010
1000
0000
0010
0001
0000
0010
0001
0000
0010
0100
0000
,  // measure 4
1000
0000
0010
0000
0010
0001
0000
0010
0001
0000
0010
0001
0000
0010
0001
0000
,  // measure 5
0100
0000
0010
0000
0100
0001
0000
0100
0010
0000
0100
0010
0000
0100
0010
0000
,  // measure 6
1000
0000
0100
0000
0100
0001
0000
0100
0001
0000
0100
0001
0000
0100
0001
0000
,  // measure 7
0010
0000
1000
0000
0100
0010
0000
0100
0010
0000
0100
0000
0001
0010
0000
0001
,  // measure 8
1001
0010
1001
0100
1001
0000
1001
0000
,  // measure 9
1001
1000
0010
0100
0010
1000
0100
0010
0001
0000
0001
0010
0010
0010
0100
0100
,  // measure 10
0100
0000
1000
0000
0100
0010
0000
0010
0001
0001
0001
0000
0010
0010
0010
0000
,  // measure 11
1100
0000
0100
0010
0100
1000
0010
0100
0010
0000
0010
0001
0000
0001
0010
0000
,  // measure 12
0001
0000
0010
0000
0100
0000
1000
0000
0100
0000
0000
0000
0001
0001
0001
0001
,  // measure 13
0101
0000
0001
0000
0001
0010
0100
0010
0001
0000
1000
0100
0010
0100
1000
0000
,  // measure 14
0100
0000
0010
0000
0100
0010
1000
0010
0100
0000
0010
0100
0001
0100
0010
0000
,  // measure 15
1000
0000
0001
0000
0100
0001
0010
0100
1000
0000
0100
0001
1000
0100
0001
0000
,  // measure 16
1000
0100
1000
0100
0011
0100
1010
0100
,  // measure 17
0011
0000
0010
0000
0100
1000
0100
0010
0001
0000
0100
0010
1000
0100
0010
0000
,  // measure 18
0001
0010
0100
1000
0100
0000
0000
0000
0001
0001
0001
0000
0010
0010
0010
0000
,  // measure 19
1100
0000
0010
0100
0010
0001
1000
0100
0010
0000
0100
0000
0010
0000
0100
0000
,  // measure 20
0001
0000
0010
0000
0100
0000
1000
0000
0001
0000
0000
0000
0010
0010
0010
0010
,  // measure 21
0011
0000
0100
0000
0010
0001
0100
0000
0010
0100
1000
0100
0010
0100
1000
0100
,  // measure 22
0010
0000
0100
0000
0001
0010
0000
0010
0001
0000
0001
0010
0000
0010
0001
0000
,  // measure 23
0101
0010
0010
0010
0010
0010
0010
0010
1100
0001
0001
0001
0001
0001
0001
0001
,  // measure 24
0110
1000
0110
0001
0110
0000
0110
0000
,  // measure 25
0110
0000
0000
0110
0000
0000
0011
0000
0000
0110
0000
0000
0110
0000
1100
0000
,  // measure 26
1010
0000
0000
1010
0000
0000
1010
0000
0101
0000
0000
0101
0000
0000
0101
0000
,  // measure 27
0110
0000
0000
0110
0000
0000
0110
0000
0011
0000
0000
0101
0000
0000
1010
0000
,  // measure 28
0000
0000
0101
0000
0000
0101
0000
0000
0001
0010
0001
0010
0101
0000
0110
0000
,  // measure 29
0000
0000
0110
0000
0000
0110
0000
0000
0011
0000
0000
0110
0000
0000
1100
0000
,  // measure 30
0000
0000
0110
0000
0000
0110
0000
0000
0011
0000
0000
0110
0000
0000
1010
0000
,  // measure 31
0000
0000
0101
0000
0000
0101
0000
0000
0101
0000
0000
0011
0000
0000
0101
0000
,  // measure 32
0000
0000
0000
0000
1010
0000
0000
0000
0000
0000
1010
0000
0000
0000
0000
0000
1001
0000
0000
0000
0000
0000
1010
0000
0000
0000
0000
1000
0100
0000
0010
0000
,  // measure 33
0101
0000
0000
0110
0000
0000
1100
0000
0000
1010
0000
0000
0101
0000
0110
0000
,  // measure 34
1100
0000
0000
1010
0000
0000
0101
0000
0011
0000
0110
0000
1100
0000
0110
0000
,  // measure 35
1001
0000
0000
0110
0000
0000
0011
0000
0000
0101
0000
0000
1010
0000
0101
0000
,  // measure 36
0011
0000
0101
0000
1001
0000
0000
0000
0011
0000
0101
0000
1001
0010
1001
0000
,  // measure 37
1100
0000
0000
0110
0000
0000
0011
0000
0000
0110
0000
0000
0101
0000
0110
0000
,  // measure 38
1010
0110
0101
0011
1001
1010
0110
1001
,  // measure 39
0001
0010
0100
1000
0010
0100
0001
1000
0001
0010
0100
1000
0001
0010
1000
0000
,  // measure 40
0010
0001
0000
0001
0010
0100
0001
0000
0110
0000
1001
0000
1001
0000
1001
0000
,  // measure 41
1001
1000
0100
0100
0100
0000
0000
0000
,  // measure 42
0100
0000
0100
0000
0000
0000
0010
0010
1000
0000
0100
0000
0010
0000
0001
0000
,  // measure 43
0010
0100
0001
0010
0001
0010
0001
0010
,  // measure 44
0100
0000
0000
0100
,  // measure 45
0010
0010
0100
0100
1000
0000
0000
0100
,  // measure 46
0010
0000
0010
0000
0000
0000
0001
0001
0010
0000
0100
0000
1000
0000
0100
0000
,  // measure 47
0010
1000
0001
0010
0100
1000
0100
1000
,  // measure 48
0101
0000
0001
0001
0101
0000
0001
0001
0101
0000
0000
0000
0000
0000
0000
0000
,  // measure 49
1001
0000
0100
0001
0010
0100
1000
0000
0100
0001
0000
0001
,  // measure 50
0100
0000
1000
0010
0000
0010
1000
0000
0100
0010
0000
0010
,  // measure 51
0100
0000
1000
0001
0100
0010
1000
0000
0100
0001
0000
0001
,  // measure 52
0100
0000
0100
0010
0000
0010
1100
0000
0000
0011
0000
0000
,  // measure 53
1100
0000
0001
0100
0010
1000
0010
0000
0010
0100
0000
0100
,  // measure 54
0010
0000
0000
1000
0000
0010
0100
0000
0001
0100
0000
0000
,  // measure 55
1000
0000
0100
0010
1000
0010
0100
0000
0100
0001
0000
0001
,  // measure 56
0010
0010
0010
0100
0100
0100
0010
0010
0010
0100
0100
0100
,  // measure 57
0001
0010
1000
0010
0100
0001
0100
0000
0100
0010
0000
0000
,  // measure 58
1000
0000
0001
0100
0010
1000
0100
0010
0001
1000
0000
0010
,  // measure 59
0100
0001
0100
0010
0000
0100
0010
0000
0001
0010
0100
1000
,  // measure 60
0010
0000
0010
0010
0000
0010
1000
0000
0000
0000
0000
0000
,  // measure 61
1000
0100
0010
0001
0000
0001
0010
0000
0100
0010
0000
0000
,  // measure 62
1000
0100
0010
0100
1000
0100
0010
0100
1000
0100
0000
0000
,  // measure 63
0001
0001
0001
0010
0000
1000
0010
0000
0100
0001
0000
0000
,  // measure 64
0100
0100
0100
0100
0100
0100
0100
0000
0000
0000
0000
0000
,  // measure 65
1001
0000
0001
0000
0100
0010
0000
0100
0001
0000
0100
0001
0000
0100
0001
0000
,  // measure 66
1000
0000
0001
0000
0100
0010
0000
0100
1000
0000
0100
1000
0000
0100
1000
0000
,  // measure 67
0101
0000
0010
0000
1000
0010
0000
0100
0001
0000
0100
0001
0000
0100
0001
0000
,  // measure 68
1100
0000
0001
0000
0100
0010
0000
0100
0010
0000
0100
0010
0000
0100
0010
0000
,  // measure 69
1001
0000
0001
0000
1000
0100
0000
0010
0001
0000
0010
0001
0000
0010
0001
0000
,  // measure 70
1100
0000
0010
0000
0100
0001
0000
0100
0010
0000
0100
0010
0000
0100
0010
0000
,  // measure 71
1100
0000
0010
0000
0100
0010
0000
0100
0010
0000
0001
0000
0010
0001
0000
0010
,  // measure 72
1001
0000
0100
0000
1001
0000
0010
0000
1001
0000
0000
0000
1001
0010
0010
0010
,  // measure 73
1001
0000
0000
1001
0000
0000
0011
0000
0000
1001
0000
0000
1010
0000
1100
0000
,  // measure 74
1010
0000
0000
1010
0000
0000
1010
0000
0101
0000
0000
0101
0000
0000
0101
0000
,  // measure 75
1001
0000
0000
0110
0000
0000
1100
0000
0110
0000
0000
0101
0000
0000
0011
0000
,  // measure 76
0000
0000
1100
0000
0000
1010
0000
0000
0101
0000
0000
0011
0000
0000
1100
0000
,  // measure 77
0000
0000
1001
0000
0000
0110
0000
0000
0101
0000
0000
0011
0000
0000
0101
0000
,  // measure 78
0000
0000
1100
0000
0000
1010
0000
0000
0110
0000
0000
1001
0000
0000
0011
0000
,  // measure 79
0000
0000
1001
0000
0000
0011
0000
0000
0101
0000
0000
0110
0000
0000
1001
0000
,  // measure 80
0000
0000
1001
0000
0000
1001
0000
0000
1001
0000
0000
0000
0000
0000
0000
0000
,  // measure 81
0110
0000
0001
0000
0100
0010
0000
0100
0001
0000
0100
0001
0000
0100
0001
0000
,  // measure 82
1000
0000
0110
0000
0001
0100
0000
0001
0100
0000
0001
0100
0000
0001
0100
0000
,  // measure 83
1000
0000
0011
0000
0100
0010
0000
1000
0001
0000
1000
0001
0000
1000
0001
0000
,  // measure 84
1000
0000
0001
0000
0010
0000
0100
0000
1000
0000
0000
0000
0010
0010
0010
0010
,  // measure 85
1100
0000
0010
0000
0001
0100
0000
0001
0010
0000
0001
0010
0000
0001
0010
0000
,  // measure 86
1100
0000
0010
0000
0010
0100
0000
0010
0100
0000
0010
0100
0000
0010
0100
0000
,  // measure 87
1001
0001
0001
0001
0001
0001
0001
0001
1100
0010
0010
0010
0010
0010
0010
0010
,  // measure 88
1001
0110
1001
0110
1001
0110
1001
0110
,  // measure 89
2002
0000
0000
0000
,  // measure 90
3003
0000
0000
0000
;
