#TITLE:GENOM SCREAMS;
#SUBTITLE:Aznator edit;
#ARTIST:L.E.D. LIGHT;
#TITLETRANSLIT:;
#SUBTITLETRANSLIT:;
#ARTISTTRANSLIT:;
#CREDIT:;
#BANNER:GENOM SCREAMS.png;
#BACKGROUND:GENOM SCREAMS-bg.png;
#LYRICSPATH:;
#CDTITLE:./CDTITLES/TECHNO LABEL.PNG;
#MUSIC:GENOM SCREAMS.mp3;
#OFFSET:-0.033;
#SAMPLESTART:51.230;
#SAMPLELENGTH:11.980;
#SELECTABLE:YES;
#DISPLAYBPM:150.000;
#BPMS:0.000=150.000;
#STOPS:;
#BGCHANGES:;
// cache tags:
#FIRSTBEAT:8.000;
#LASTBEAT:192.000;
#SONGFILENAME:Songs/juju step2/GENOM SCREAMS/GENOM SCREAMS.sm;
#HASMUSIC:1;
#HASBANNER:1;
#MUSICLENGTH:78.176;
// end cache tags

//---------------dance-single - Blank----------------
#NOTES:
     dance-single:
     Blank:
     Challenge:
     11:
     0.937,1.000,0.793,0.269,1.000,424.000,62.000,21.000,60.000,5.000:

0000
0000
0000
0000
,
0000
0000
0000
0000
,
1010
M0M0
0101
0M0M
1100
MM00
0011
00MM
,
1001
0000
M00M
0000
1001
0000
0000
0100
0110
0000
0010
0000
1000
0000
0001
0000
,
1000
0010
1000
0100
0010
0100
0010
0001
0100
0010
1000
0100
0010
0100
1000
0001
,
0010
0000
0000
0100
0000
0000
0010
0000
0000
0001
0000
0000
1000
0000
0000
0010
0000
0000
0100
0000
0000
0001
0000
0000
1000
0000
0010
0000
1000
0000
0100
0000
1000
0000
0001
0000
0100
0000
0010
0000
0100
0000
0010
0000
1000
0000
0001
0000
,
1000
0000
0002
1000
0000
0013
0100
0000
0100
0000
0020
0100
0000
0031
1000
0000
,
0100
0000
2000
0001
0000
3100
0010
0000
0001
0000
0200
0010
0000
0310
1000
0000
,
1000
0000
0002
0100
0000
0013
1000
0000
1000
0000
0020
0001
0000
1030
0001
0000
,
0001
0000
2000
0001
0000
3100
1000
0000
0100
0000
0200
0001
0000
0310
1000
0000
,
0001
0010
0100
1000
0100
0010
0001
0000
0001
0000
0100
0000
1010
0000
0000
0000
,
1000
0001
0010
0001
1000
0010
0001
0000
0010
0000
1000
0000
1001
0000
0000
0000
,
0100
0010
0001
1000
0001
0100
1000
0000
0100
0000
0001
0000
0011
0000
0000
0000
,
0001
0100
0001
1000
0010
0100
0001
0010
0100
0010
0100
1000
0001
1000
0001
1000
,
0001
0000
1001
0000
0000
1000
0000
0110
0000
0001
0000
1000
0100
0010
0000
0001
,
1001
0000
1100
0000
0000
1010
0000
0100
0000
0011
0000
1000
0001
1000
0000
0001
,
0011
0000
1100
0000
0000
0101
0000
1100
0000
0110
0000
0010
0100
0001
0000
0010
,
1010
0000
0011
0000
0000
1001
0000
0011
0000
0101
0000
0001
1000
0010
0000
0010
,
0200
000M
0000
00M0
0002
M000
0000
00M0
,
0010
0000
M000
0000
1000
0000
0000
0000
0010
0000
00M0
1000
0303
0000
0001
0000
,
1MM1
0000
1000
0100
0000
0001
0100
0000
M11M
0000
1000
0100
0000
0001
0100
0000
,
1MM1
0000
0010
0001
0000
0010
1000
0000
M11M
0000
0010
0001
0000
0010
1000
0000
,
1MM1
0000
0010
0100
0000
0010
0001
0000
M11M
0000
0100
1000
0000
0100
0001
0000
,
1MM1
0000
0001
1000
0000
0001
1000
0000
0010
0001
1000
0001
0010
0100
0010
0001
,
0020
0000
1000
0000
0001
0230
0010
0000
,
0020
0000
0000
0000
0300
0000
0000
0000
1000
0000
0000
0000
0000
0000
0000
0000
0001
0000
0000
0000
0200
0000
0000
0000
0030
0000
0002
0000
00M0
0000
0000
0300
,
2000
0000
0000
0000
0000
0000
0003
0000
0010
0000
0000
0000
0000
0000
0000
3000
0002
0000
0000
0000
0000
0000
0000
0000
0200
0000
0000
0000
0003
0000
0000
0000
,
0020
0000
0300
0002
0M00
0030
2000
0000
0000
0000
0000
0000
0000
0000
0000
0000
,
3113
0000
1001
0000
0001
0100
1001
0000
,
0101
0000
0000
0000
1010
0000
0000
0000
0000
0000
0110
0000
0000
1001
0000
0000
,
M000
0000
M000
0000
M000
0000
M000
0000
MMM0
0000
0000
0000
0MMM
0000
0M00
0000
0MMM
0000
0M00
0000
0MMM
0000
0000
0000
M000
0M00
M000
00M0
M000
00M0
M000
00M0
,
MM01
0000
0000
0010
0000
0000
0100
0000
0000
0010
0000
0000
0001
0000
0000
0100
0000
0000
0010
0000
0000
1000
0000
0000
0100
0000
0010
0000
0001
0000
1000
0000
0100
0000
0010
0000
0001
0000
0100
0000
0010
0000
1000
0000
0001
0000
1000
0000
,
0010
0000
1000
0010
0000
0100
0101
0000
0001
0000
1000
0001
0000
0100
1100
0000
,
1000
0000
0010
0100
0000
0001
0011
0000
0001
0000
0100
1000
0000
0001
0101
0000
,
0010
0000
0100
0010
0000
0001
1001
0000
0100
0000
0001
0100
0000
1000
1010
0000
,
0100
0000
0010
0100
0000
0010
0110
0000
1000
0000
1000
0100
0000
0001
0101
0000
,
1000
0100
1000
0010
0000
0100
0001
0100
0010
1000
0001
0100
0010
0100
0001
0010
,
0100
0000
0010
0100
0000
0001
0100
0010
0100
0001
0010
0001
0100
0010
0100
0010
,
1001
0000
0100
0010
0000
0010
0100
0010
1000
0001
0010
0100
0010
0001
1000
0100
,
1001
0000
0000
0000
0110
0000
0000
0000
0011
0000
0000
1100
0000
0000
0101
0000
,
0011
0000
0010
0100
0000
0010
0100
0000
0040
0100
0000
0001
0000
0100
0030
0000
,
1000
0000
0100
1000
0000
0001
0100
0000
0400
0001
0000
0010
0000
0001
0300
0000
,
1000
0000
0001
0100
0000
0001
0100
0000
0004
1000
0000
0100
0000
1000
0003
0000
,
0100
0000
0000
0000
0000
0000
0010
0000
0000
0001
0000
0000
0000
0000
0000
1000
0000
0000
0100
0000
0000
0000
0000
0000
0010
0000
0000
0000
0000
0000
0001
0000
0000
0000
0000
0000
1000
0000
0100
0000
0010
0000
0001
0000
0000
0000
0000
0000
,
1001
0000
0010
0100
0000
0001
0100
0000
0040
0001
0000
0100
0000
0001
0030
0000
,
0110
0000
0100
0010
0000
0010
0001
0000
0400
0001
0000
0010
0000
0001
0300
0000
,
1100
0000
0001
0100
0000
0001
0010
0000
0040
0100
0000
1000
0000
0001
0030
0000
,
1001
0000
0000
0000
0000
0000
0010
0000
0000
0010
0000
0000
0000
0000
0000
0100
0000
0000
0100
0000
0000
0000
0000
0000
1001
0000
0000
0000
0000
0000
0101
0000
0000
0000
0000
0000
0001
0000
0100
0000
0010
0000
1000
0000
0000
0000
0000
0000
,
1001
0000
0000
0000
;
