#TITLE:I'M IN THE MOOD FOR DANCING;
#SUBTITLE:;
#ARTIST:SHARON;
#TITLETRANSLIT:;
#SUBTITLETRANSLIT:;
#ARTISTTRANSLIT:;
#CREDIT:;
#BANNER:I'M IN THE MOOD FOR DANCING.png;
#BACKGROUND:I'M IN THE MOOD FOR DANCING-bg.png;
#LYRICSPATH:;
#CDTITLE:I'M IN THE MOOD FOR DANCING-cdtitle.png;
#MUSIC:I'M IN THE MOOD FOR DANCING.mp3;
#OFFSET:-0.032;
#SAMPLESTART:62.390;
#SAMPLELENGTH:12.000;
#SELECTABLE:YES;
#DISPLAYBPM:150.000;
#BPMS:0.000=149.990;
#STOPS:;
#BGCHANGES:;
// cache tags:
#FIRSTBEAT:4.000;
#LASTBEAT:222.000;
#SONGFILENAME:Songs/toune/I'M IN THE MOOD FOR DANCING/I'M IN THE MOOD FOR DANCING.sm;
#HASMUSIC:1;
#HASBANNER:1;
#MUSICLENGTH:89.730;
// end cache tags

//---------------dance-double - ----------------
#NOTES:
     dance-double:
     :
     Easy:
     3:
     0.223,0.276,0.134,0.045,0.000,124.000,12.000,4.000,0.000,0.000:
00000000
00000000
00000000
00000000
,
00000000
00000000
00000000
00000000
,
00000000
00000000
00000000
00000000
,
00000000
00000000
00000000
00000000
,
10010000
00000000
00000000
00000000
,
01000000
00000000
00000000
00000000
,
00001000
00000000
00000000
00000000
,
00010000
00000000
00000000
00011000
,
00010000
00000000
00000010
00000000
,
00001000
00000000
00001001
00000000
,
00000010
00000010
00001000
00000000
,
00000100
00000100
00010000
00000000
,
00001000
00000000
01000000
00000000
,
00010000
00000000
10010000
00000000
,
00001000
00001000
00010000
00000000
,
00000010
00000000
00001000
00000000
,
00000100
00000000
00010000
00000000
,
00002000
00000000
00000000
00003000
,
00010000
00000000
00010000
00000000
,
00001000
00010000
00001000
00010000
,
00001000
00000000
00100000
00000000
,
00020000
00000000
00000000
00030000
,
10000000
00000000
10000000
00000000
,
00010000
01000000
00100000
01000000
,
00020000
00000000
00000000
00030000
,
00100000
00010000
10000000
00010000
,
01000000
00100000
01000000
00010000
,
00100000
00000000
00000000
00000000
,
00002000
00000000
00000000
00003000
,
00010000
00000010
00001000
00000100
,
00001000
00000001
00001000
00000100
,
00010000
00010000
00010000
00000000
,
00011000
00000000
01000000
00000000
,
00100000
00000000
10000000
00000000
,
00010000
00000000
00100000
00000000
,
00001000
00010000
00001000
00010000
,
00000010
00000000
00000010
00000010
,
00001000
00000000
00001000
00001000
,
00000001
00000000
00000001
00000001
,
00001001
00000000
00000000
00000000
,
00011000
00000000
00000000
00000000
,
10010000
00000000
00000000
00000000
,
00100000
01000000
00100000
01000000
,
10010000
00000000
00000000
00000000
,
00011000
00000000
00000000
00000000
,
00001001
00000000
00000000
00000000
,
00001000
00000100
00001000
00000100
,
00000010
00000010
00000010
00000000
,
00000001
00000001
00000001
00000000
,
00001000
00001000
00001000
00000000
,
00000010
00001000
00000001
00000100
,
00000010
00000010
00000010
00000000
,
00010000
00010000
00010000
00000000
,
00001000
00001000
00001000
00000000
,
00010000
00001000
00010000
00001000
,
00011000
00000000
00000000
00000000
;

//---------------dance-double - ----------------
#NOTES:
     dance-double:
     :
     Medium:
     4:
     0.451,0.495,0.646,0.078,0.000,218.000,58.000,7.000,0.000,0.000:
00000000
00000000
00000000
00000000
,
00000000
00000000
00000000
00000000
,
00000000
00000000
00000000
00000000
,
00000000
00000000
00000000
00000000
,
00011000
00011000
00000100
00010000
,
00011000
00011000
01000000
00001000
,
00100000
00001000
00010000
00001000
,
00000100
00001000
00010000
00001000
,
00100000
00010000
00100000
00000000
01000000
00000000
10000000
00000000
,
11000000
11000000
10010000
00000000
,
00001000
00010000
00001000
00000000
00000100
00001000
00000100
00000000
,
00000001
00000100
00000001
00000000
00000010
00000001
00000010
00000000
,
00000100
00001000
00000100
00000000
00100000
00000000
00010000
00000000
,
00110000
00110000
10010000
00000000
,
00100000
10000000
00100000
00000000
01000000
00010000
01000000
00000000
,
00001000
00010000
00001000
00000000
00000100
00001000
00000100
00000000
,
00000010
00000010
00000010
00000010
,
00010000
00010000
00010000
00010000
,
00001000
00001000
00001000
00001000
,
00100000
00010000
01000000
00100000
00000000
10000000
01000000
00000000
,
00100000
00100000
00100000
00100000
,
00001000
00001000
00001000
00001000
,
00010000
00010000
00010000
00010000
,
00000010
00001000
00000001
00000100
00000000
00000010
00001000
00000000
,
00000010
00011000
01000000
01010000
,
00200000
00000000
00300000
00000000
00001000
00010000
00001000
00000000
,
00000200
00000000
00000300
00000000
00000001
00001000
00000001
00000000
,
00000020
00000000
00000030
00000000
00000100
00010000
00000100
00000000
,
00010000
00011000
10000000
10010000
,
00200000
00000000
00300000
00000000
01000000
10000000
01000000
00000000
,
00002000
00000000
00003000
00000000
00010000
00001000
00010000
00000000
,
00001010
00001001
00001010
00000000
,
00000100
00000100
00000100
00000100
,
00000010
00010000
00001000
00000000
00100000
01000000
10000000
00000000
,
00100000
01000000
10000000
00000000
01000000
00001000
00010000
00000000
,
00011000
00011000
00001010
00000101
,
00000010
00000010
00000010
00000010
,
00010000
00010000
00010000
00010000
,
01000000
01000000
01000000
01000000
,
01100000
01100000
10010000
01000000
,
00011000
00011000
00001010
00000100
,
00001001
00001001
00001100
00010000
,
00001000
00000000
01000000
00000000
,
01010000
01010000
01000000
00001000
,
00011000
00011000
00000100
00001000
,
00001001
00001001
00000100
00000010
,
00010000
00010000
00001000
01000000
,
01010000
01100000
11000000
01000000
,
01100000
01010000
01001000
00010000
,
00001010
00001001
00001100
00000010
,
00000110
00001100
00010100
00001000
,
00110000
10010000
00110000
01000000
,
11000000
10010000
11000000
00100000
,
00011000
00101000
00011000
00000100
,
00001000
00000010
00010000
00001000
,
00022000
00000000
00033000
00000000
;

//---------------dance-double - ----------------
#NOTES:
     dance-double:
     :
     Hard:
     7:
     0.537,0.557,0.145,0.167,0.195,309.000,13.000,15.000,0.000,0.000:
00000000
00000000
00000000
00000000
,
00000000
00000000
00000000
00000000
,
00000000
00000000
00000000
00000000
,
00000000
00000000
00000000
00000000
,
20020000
00000000
30030000
00000000
00100000
00001000
00010000
00000000
,
00022000
00000000
00033000
00000000
00000100
00001000
00000001
00000000
,
00002002
00000000
00003003
00000000
00000010
00010000
00001000
00000000
,
00022000
00033000
00011000
00011000
,
00200000
00000000
00010000
01300000
,
10000000
00100000
01000000
00000000
00010000
00000000
00010000
00000000
,
00100000
00000000
00001000
00000000
00010000
00000010
00000000
00000100
00001000
00000000
00000100
00000000
00000000
00000000
00000000
00000000
,
00000010
00001000
00000100
00000000
00000010
00000001
00001000
00000000
,
00000020
00000000
00001000
00000130
,
00000010
00010000
00001000
00000000
01000000
00000000
01000000
00000000
,
00100000
00000000
10000000
00000000
00010000
00100000
00000000
01000000
10000000
00000000
01000000
00000000
00000000
00000000
00000000
00000000
,
00100000
00010000
01000000
00000000
00100000
10000000
00010000
00000000
,
00100000
00001000
00100000
00010000
00100000
00001000
00100000
00010000
,
01000000
00000000
00000000
00000000
00001000
00000000
00000000
00000000
00010000
00001000
00000000
00010000
00000100
00000000
00000000
00000000
,
00000010
00000000
00000000
00000000
00000001
00000000
00000000
00000000
00001000
00000010
00000000
00010000
00001000
00000000
00000000
00000000
,
01000000
00100000
10000000
01000000
00000000
00100000
00010000
00000000
,
01000000
00001000
01000000
00010000
01000000
00001000
01000000
00010000
,
00100000
00000000
00000000
00000000
00001000
00000000
00000000
00000000
00010000
00001000
00000000
00010000
00000010
00000000
00000000
00000000
,
00000100
00000000
00000000
00000000
00000001
00000000
00000000
00000000
00001000
00000100
00000000
00010000
00001000
00000000
00000000
00000000
,
00100000
01000000
10000000
00100000
00000000
01000000
00010000
00000000
,
10000000
00100000
10000000
00010000
10000000
00100000
10000000
00010000
,
01000000
01000000
00001000
00010000
00001000
00000100
00000001
00000010
,
00000100
00010000
00001000
00100000
01000000
10000000
00100000
01000000
,
00001000
00001000
00010000
00000000
00000000
00000000
00000010
00000010
,
00001000
00000100
00001000
00000001
00001000
00000100
00001000
00000001
,
00000100
00000100
00000010
00010000
00001000
01000000
00100000
10000000
,
01000000
00100000
00001000
00010000
00000010
00001000
00000100
00010000
,
00001000
00001000
01000000
00000000
00010000
00000000
00000000
00000000
,
10010000
00000000
10100000
00000000
01000000
00001000
00010000
00000000
,
00011000
00000000
00000000
00000000
00001010
00000000
00000010
00001000
00000001
00000000
00000001
00000000
00000001
00000000
00001000
00000000
,
00000010
00000000
00011000
00000000
01000000
00000000
01000000
00100000
,
10000000
01000000
00100000
00010000
00000000
10000000
10000000
00000000
,
00020000
00000000
00000000
00000000
01000000
01000000
01030000
00000000
,
00000020
00000000
00000000
00000000
00001000
00001000
00001030
00000000
,
00000002
00000000
00000000
00000000
00000010
00000010
00000013
00000000
,
00001001
00000000
00000000
00000000
,
00000010
00000000
00001000
00000000
00000100
00010000
00000000
00001000
01000000
00000000
00100000
00000000
00000000
00000000
10000000
00000000
,
00100000
00000000
01000000
00000000
00010000
01000000
00000000
00100000
10000000
00000000
00000000
00000000
00000000
00000000
00000000
00000000
,
01000000
00100000
00010000
00000000
10000000
00100000
01000000
00000000
,
00100000
00000000
10000000
00000000
00010000
01000000
00000000
00001000
00010000
00000000
00000010
00000000
00000000
00000000
00001000
00000000
,
00000100
00000000
00000010
00000000
00000100
00001000
00000000
00000001
00000100
00000000
00000010
00000000
00000000
00000000
00010000
00000000
,
00001000
00000000
00010000
00000000
00001000
01000000
00000000
00010000
01000000
00000000
00000000
00000000
00000000
00000000
00000000
00000000
,
00100000
10000000
01000000
00000000
00100000
00010000
01000000
00000000
,
00001000
00000000
00010000
00000000
00000010
00001000
00000000
00000001
00001000
00000000
00000100
00000000
00000000
00000000
00000010
00000000
,
00000100
00000000
00001000
00000000
00000010
00010000
00000000
00001000
00100000
00000000
01000000
00000000
00000000
00000000
10000000
00000000
,
01000000
00000000
00100000
00000000
00010000
00100000
00000000
01000000
10000000
00000000
00000000
00000000
00000000
00000000
00000000
00000000
,
00100000
01000000
00010000
00000000
10000000
01000000
00100000
00000000
,
01000000
00000000
10000000
00000000
00010000
00100000
00000000
00001000
00010000
00000000
00000100
00000000
00000000
00000000
00001000
00000000
,
00000010
00000000
00000100
00000000
00000010
00001000
00000000
00000001
00000010
00000000
00000100
00000000
00000000
00000000
00010000
00000000
,
00001000
00000000
00010000
00000000
00001000
00100000
00000000
00010000
00100000
00000000
00000000
00000000
00000000
00000000
00000000
00000000
,
01000000
10000000
00100000
00000000
01000000
00010000
10000000
10000000
,
20020000
00000000
30030000
00000000
;

//---------------dance-single - _NOiREDiT_----------------
#NOTES:
     dance-single:
     _NOiREDiT_:
     Challenge:
     11:
     0.952,1.000,1.000,0.256,0.892,480.000,95.000,23.000,77.000,0.000:
0000
0000
0000
0000
,
1000
0001
1000
0100
0010
1000
0001
0100
0010
1000
0001
0010
0100
1000
0100
0010
,
1000
0001
0100
1000
0001
1000
0100
0010
1000
0001
0100
0010
1000
0010
0001
1000
,
0100
1000
0010
0100
1000
0001
0010
0100
1000
0100
0010
1000
0001
0100
0010
1000
,
1100
0100
1100
0100
0011
0010
0011
0010
,
0110
0100
0110
0100
0011
0101
1001
1001
,
1000
0001
1000
0001
1000
0001
1000
0001
1000
0001
1000
0001
1000
0001
1000
0001
,
1000
0000
0000
0000
0001
0000
0000
0000
0001
0000
1000
0000
0000
0000
0000
1000
0001
1000
0000
0000
0000
0000
0000
0000
1000
0001
1000
0001
1000
0000
0000
0000
,
1000
0000
0100
0000
0100
0000
0001
1000
0000
0000
0100
0000
0010
0000
0001
0000
,
1000
0000
0100
0000
0010
0001
0000
0000
1001
0000
0000
0000
0000
0000
0000
0000
,
0000
0000
0110
0000
0000
0011
0000
0000
0110
0000
0011
0000
0000
0000
0000
0000
,
1000
0100
1000
0100
1000
0000
0000
0000
0001
0010
0001
0010
0001
0000
0000
0000
,
1000
0000
1000
0000
0010
0000
1000
0001
0000
0000
0001
0000
0010
0000
1000
0000
,
0001
0000
1000
0000
0010
0100
0000
0000
1100
0000
0000
0000
0000
0000
0000
0000
,
0000
0000
0110
0000
0000
1100
0000
0000
0110
0000
1100
0000
0000
0000
0000
0000
,
1000
0100
0010
0001
0010
0100
1000
0100
1000
0100
0010
0001
0010
0100
1000
0100
,
0000
0101
1001
0101
0210
0300
0000
0001
,
0110
0000
0000
0000
1100
0000
0M00
M00M
00M0
0M00
000M
M000
0000
0000
0011
0000
,
2002
0000
0000
3003
0202
0000
0000
0000
0303
0000
2002
0000
0000
0000
0000
3003
,
10M0
0000
M010
0000
1000
00M0
0002
0M00
0003
00M0
1000
0M00
0010
0000
0000
0000
,
0000
1010
1001
1010
0120
0030
0000
1000
,
0220
0000
0000
0330
0022
0000
0000
0033
0000
0000
1100
0000
0100
0000
1100
0000
,
0022
0000
0000
0033
2200
0000
0000
3300
0000
0000
M020
0000
0000
0000
0001
0030
,
1000
0M00
0010
000M
1M00
0000
M001
0000
0000
0000
0101
0000
1001
0000
0000
0000
,
1000
0100
1000
0100
1000
0000
0000
0000
0001
0010
0001
0010
0001
0000
0000
0000
,
0000
0000
0001
0000
0001
0100
0000
0000
0002
0000
0000
0000
0000
0003
0000
0000
,
1000
0100
1000
0000
0100
0001
0100
0000
0010
0100
0001
0000
1000
0100
0001
0000
,
1000
0010
1000
0000
0010
0100
0001
0000
1000
0100
0010
0001
0010
0100
1000
0100
,
1010
0M00
0101
000M
0110
00M0
1001
000M
,
M0M0
1000
0M0M
0001
0MM0
0010
M00M
0001
,
1010
0100
0101
0001
0110
0100
1001
0001
,
1000
0100
1000
0100
0010
0001
0010
0100
1000
0001
0010
0001
0010
0001
0010
0001
,
1000
0011
0011
1100
0022
0000
0033
11MM
,
1100
0000
0000
0000
11MM
0000
0000
0000
1000
0000
0MM1
0000
1000
0001
1000
0000
,
1MM0
0000
0001
0000
1000
0100
0001
0000
0001
0000
1000
0000
0001
0010
M100
0000
,
1000
0000
1000
0000
010M
0000
0100
0000
0010
0000
0010
0000
0001
0010
1M00
0000
,
1000
0100
0001
0000
M010
0100
1000
0000
0001
0100
0M01
0000
0010
1000
0010
0000
,
1100
0100
M011
0100
1100
01M0
0011
0100
,
1000
0100
0010
0000
1000
0100
0010
0000
100M
0100
001M
1000
010M
0010
100M
0100
,
0010
1000
0000
0000
0100
0010
0000
0000
0001
0100
0000
0000
0010
0100
0000
0000
,
1100
1100
1001
MMMM
0011
0011
1001
0000
,
1000
0100
0001
0000
1000
0001
0100
0000
0010
0001
1000
0000
0100
1000
0001
0000
,
1000
0000
0001
0000
1000
0000
0001
0100
0000
0100
0010
0000
0001
0000
0100
0000
,
1001
1001
1100
0000
1001
1001
0011
0000
,
1000
0100
0001
0010
100M
00M0
0M00
M000
1000
0100
0010
1000
M001
0M00
00M0
000M
,
1000
0100
1000
0000
0010
0001
0010
0000
0010
0100
1000
0001
0100
0010
1000
0010
,
1100
0000
1100
0000
1100
0000
0010
0100
0000
0100
0001
0000
0010
0000
0010
0000
,
1001
1001
0110
0000
1100
1001
0110
0000
,
0001
0010
0100
0001
M010
00M0
0M00
M000
1000
0001
1000
0010
1M00
M000
000M
M000
,
0010
0100
1000
0000
1000
0010
0001
0000
1000
0100
0001
1000
0010
0100
0001
0100
,
0011
0000
0110
0000
0011
0000
0001
0100
0000
0010
0001
0000
0010
0000
0010
0000
,
1001
1001
0011
0000
1001
1001
1100
0000
,
0001
0010
1000
0100
M001
0M00
00M0
000M
0001
0010
0100
0001
100M
00M0
0M00
M000
,
0001
0010
0001
0000
0100
1000
0100
0000
0100
0010
0001
1000
0010
0100
0001
0100
,
0011
0000
0011
0000
0011
0000
0100
0010
0000
0010
1000
0000
0100
0000
0100
0000
,
2002
0000
3003
0000
;
