#TITLE:Nimbasa CORE;
#SUBTITLE:The boss song of avexian;
#ARTIST:pLasterbrain;
#TITLETRANSLIT:;
#SUBTITLETRANSLIT:;
#ARTISTTRANSLIT:;
#CREDIT:Avexian;
#BANNER:../Banner.png;
#BACKGROUND:../BG.png;
#LYRICSPATH:;
#CDTITLE:../CDTitle_Avexian.png;
#MUSIC:Nimbasa CORE.ogg;
#OFFSET:-0.714;
#SAMPLESTART:40.170;
#SAMPLELENGTH:29.595;
#SELECTABLE:YES;
#BPMS:0.000=194.659,1.000=194.630,8.000=194.659,9.000=194.630,17.000=194.659,18.000=194.630,26.000=194.659,27.000=194.630,35.000=194.659,36.000=194.630,44.000=194.645,45.000=194.630,53.000=194.645,54.000=194.630,62.000=194.645,63.000=194.630,71.000=194.645,72.000=194.630,80.000=194.645,81.000=194.630,89.000=194.645,90.000=194.630,98.000=194.645,99.000=194.630,107.000=194.645,108.000=194.630,115.000=194.645,116.000=194.630,124.000=194.645,125.000=194.630,133.000=194.645,134.000=194.630,142.000=194.645,143.000=194.630,152.000=194.645,153.000=194.630,160.000=194.645,161.000=194.630,169.000=194.645,170.000=194.630,178.000=194.645,179.000=194.630,187.000=194.645,188.000=194.630,196.000=194.645,197.000=194.630,205.000=194.645,206.000=194.630,214.000=194.645,215.000=194.630,223.000=194.645,224.000=194.630,231.000=194.645,232.000=194.630,240.000=194.645,241.000=194.630,249.000=194.645,250.000=194.630,258.000=194.645,259.000=194.630,267.000=194.645,268.000=194.630;
#STOPS:;
#BGCHANGES:;
// cache tags:
#FIRSTBEAT:0.000;
#LASTBEAT:271.000;
#SONGFILENAME:Songs/Index Tesseract/Nimbasa CORE - [Avexian]/Nimbasa CORE.sm;
#HASMUSIC:1;
#HASBANNER:1;
#MUSICLENGTH:84.543;
// end cache tags

//---------------dance-single - ----------------
#NOTES:
     dance-single:
     :
     Challenge:
     27:
     1.000,1.000,0.059,0.343,1.000,933.000,5.000,29.000,0.000,0.000:
1000
0100
0000
0000
0001
0010
0000
0000
1000
0100
0000
0000
0001
0010
0000
0000
,
0000
0000
0000
0000
,
1000
0100
0000
0000
0001
0010
0000
0000
1000
0100
0000
0000
0001
0010
0000
0000
,
0000
0000
0000
0000
,
1000
0100
0000
0000
0001
0010
0000
0000
1000
0100
0000
0000
0001
0010
0000
0000
,
0110
0000
0110
0000
,
1000
0100
0000
0000
0001
0010
0000
0000
1000
0100
0000
0000
0001
0010
0000
0000
,
1100
0000
0000
0000
0110
0000
0000
0000
1000
0001
1000
0001
1000
0001
1000
0001
,
0000
0000
0000
0000
2000
0000
0000
3000
0020
0000
0000
0000
0030
0000
2000
0000
,
0000
0000
0000
3000
0000
0000
0002
0000
0000
0000
0000
0000
0000
0000
0000
0003
0000
0000
0200
0000
0000
0000
0300
0000
0002
0000
0000
0000
0000
0003
0000
0000
0000
0000
2000
0000
0000
0000
3000
0000
0002
0000
0000
0000
0000
0000
0003
0000
,
0000
0000
0200
0000
0302
0000
0003
0200
,
0000
0000
0000
0000
0300
0000
0002
0000
0003
0000
0000
0000
0000
0000
0000
0000
2000
0000
0000
0000
3000
0000
0002
0000
0000
0000
0000
0000
0000
0000
0000
0000
0003
0000
2000
0000
0000
0000
3000
0002
0000
0000
0000
0000
0000
0003
0000
0000
,
1000
0100
0010
0100
1000
0001
0010
0001
1000
0100
0010
0001
1000
0010
0100
0001
,
1000
0100
0010
0100
1000
0001
0010
0100
1000
0001
0010
0001
1000
0010
0100
0001
,
0010
0100
0010
0001
1000
0100
0010
0001
1000
0100
0010
0100
1000
0001
0100
0010
,
1000
0001
1000
0100
0010
0001
1000
0010
0100
0001
1000
0100
1000
0000
0001
1000
,
0100
0010
0100
1000
0001
0010
0100
1000
0001
0010
0001
1000
0010
0100
0001
1000
,
0100
1000
0001
0010
0100
0010
0001
1000
0100
0010
0001
1000
0010
0100
0001
1000
,
0100
1000
0001
0010
0100
0010
0001
1000
0100
1000
0001
0100
0010
1000
0100
0010
,
0100
1000
0001
0010
0100
1000
0001
0100
0010
1000
0001
0010
0100
0010
0001
1000
,
0100
1000
0001
0010
0100
1000
0001
0010
0001
1000
0010
0100
0001
1000
0100
0010
,
0100
1000
0010
0100
0010
1000
0100
0010
0001
1000
0010
0100
0001
1000
0100
0010
,
0100
1000
0010
0100
0010
1000
0100
1000
0001
0010
0100
1000
0001
0010
0100
0010
,
0001
1000
0010
0100
0001
0010
0100
0010
1000
0100
0010
0001
1000
0010
0100
0001
,
1000
0100
1000
0001
0010
0100
0010
0001
1000
0001
0010
0100
1000
0001
0010
0100
,
0010
0001
1000
0100
1000
0100
0010
0001
1000
0010
0100
0001
1000
0100
1000
0001
,
0010
0100
0010
0001
1000
0001
0010
0100
1000
0001
0010
0100
0010
0001
1000
0001
,
0010
0100
1000
0001
0010
0001
1000
0100
0010
0100
1000
0001
0100
0010
1000
0001
,
0010
0001
1000
0100
0010
0001
1000
0010
0100
0001
1000
0100
0010
0100
1000
0001
,
0010
0100
1000
0001
0010
0001
1000
0010
0100
0001
0010
0100
0010
0001
1000
0100
,
0010
0001
1000
0100
1000
0001
0100
0010
1000
0100
0010
0100
1000
0001
0010
0100
,
1000
0001
0010
0001
1000
0010
0100
0001
1000
0100
1000
0001
0010
0100
0010
0001
,
1000
0100
0010
0001
1000
0100
1000
0001
0100
0010
1000
0001
0010
0100
0010
0001
1000
0100
0010
0001
1000
0010
0100
0001
,
1000
0100
1000
0001
0010
0100
0010
0001
1000
0010
0100
0001
0100
0010
0100
0001
0010
0001
1000
0100
0010
0100
1000
0001
,
0010
0100
1000
0001
0010
0100
0010
0001
0100
0010
0100
0001
0100
0010
1000
0100
0010
0001
0100
0010
0100
0001
0010
0001
,
1000
0100
0010
0100
1000
0001
0010
0100
1000
0001
0100
0010
1000
0001
0010
0100
0010
0001
1000
0100
1000
0001
0010
0100
,
1000
0001
0100
0010
1000
0001
0010
0001
1000
0100
0010
0100
1000
0010
0100
0010
1000
0100
0010
0001
1000
0100
1000
0001
,
0010
0100
0010
0001
1000
0010
0100
0001
0100
0010
0100
0001
0010
0001
1000
0100
0010
0100
1000
0001
0010
0100
0010
0001
,
1000
0100
0010
0001
1000
0010
0100
0001
1000
0100
1000
0001
0010
0100
0010
0001
1000
0100
1000
0001
0010
0100
1000
0001
,
0100
0010
1000
0001
0010
0100
0010
0001
1000
0001
0010
0100
0010
0001
0100
0010
0100
0001
1000
0100
0010
0100
1000
0001
,
0010
0100
0010
0001
1000
0100
0010
0001
1000
0010
0100
0001
1000
0100
1000
0001
0010
0100
0010
0001
0100
0010
0100
0001
,
0010
0100
1000
0001
0100
0010
1000
0001
0010
0001
1000
0100
0010
0100
1000
0001
0010
0100
0010
0001
1000
0100
1000
0001
,
0010
0100
1000
0001
0100
0010
1000
0001
0010
0001
1000
0100
0010
0100
1000
0010
0100
0010
1000
0100
0010
0001
1000
0100
,
1000
0001
0010
0100
0010
0001
1000
0010
0100
0001
0100
0010
0100
0001
0010
0001
1000
0100
0010
0100
1000
0001
0010
0100
,
0010
0001
1000
0100
0010
0001
1000
0010
0100
0001
1000
0100
1000
0001
0010
0001
1000
0001
0100
0010
0100
1000
0001
0010
,
0100
0010
0001
1000
0100
0010
0001
1000
0010
0100
0001
1000
0100
1000
0001
0010
0100
0010
0001
0100
0010
0100
0001
0010
,
0100
1000
0001
0100
0010
1000
0001
0010
0001
1000
0100
0010
0100
1000
0001
0010
0001
1000
0100
0010
0100
1000
0010
0100
,
0010
1000
0100
0010
0001
1000
0100
1000
0001
0010
0100
0010
0001
1000
0010
0100
0001
0100
0010
0100
0001
0010
0001
1000
,
0100
0010
0100
1000
0001
0010
0100
0010
0001
1000
0100
0010
0001
1000
0010
0100
0001
1000
0100
1000
0001
0010
0100
0010
,
0001
1000
0100
1000
0001
0010
0100
1000
0001
0100
0010
1000
0001
0010
0100
0010
0001
1000
0001
0010
0100
0010
0001
0100
,
0010
0100
0001
1000
0100
0010
0100
1000
0001
0010
0100
0010
0001
1000
0100
0010
0001
1000
0010
0100
0001
1000
0100
1000
,
0001
0010
0100
0010
0001
0100
0010
0100
0001
0010
0100
1000
0001
0100
0010
1000
0001
0010
0001
1000
0100
0010
0100
1000
,
0100
0010
0100
0001
0010
0001
1000
0100
0010
0100
1000
0001
0010
0100
1000
0001
0100
0010
1000
0001
0010
0100
0010
0001
,
1000
0100
1000
0001
0010
0100
1000
0001
0100
0010
1000
0001
0010
0001
1000
0100
0010
0100
1000
0010
0100
0010
1000
0100
,
0010
0000
0000
0000
0000
0000
0000
0000
0000
0000
0000
0000
0000
0000
0000
0000
0000
0000
0000
0000
0000
0000
0000
0000
0000
0000
0000
0000
0000
0000
0000
0000
0000
0000
0000
0000
0000
0000
0000
0000
0000
0000
0000
0000
0000
0000
0000
0010
0000
0000
0000
0000
0000
0000
0000
0000
0000
0000
0000
0000
0000
0000
0000
0000
,
1100
0000
0000
0000
0000
0000
0001
0000
0000
0000
0000
0000
0000
0000
1000
0000
0000
0000
0000
0000
0000
0000
0000
0000
1000
0000
0000
0001
0000
0000
1000
0000
0000
0001
0000
0000
1000
0000
0000
0001
0000
0000
1000
0000
0000
0001
0000
0000
,
0200
0000
0000
0000
,
0000
0000
0000
0300
0000
0000
2000
0000
0000
0000
0000
0000
0000
0000
0000
0000
0000
0000
0000
0000
0000
3000
0002
0000
0000
0000
0000
0000
0000
0000
0000
0000
0000
0000
0003
0000
0200
0000
0000
0000
0000
0000
0000
0000
0000
0000
0000
0000
,
0300
0020
0000
0000
0000
0000
0000
0000
0000
0000
0000
0000
0000
0000
0000
0000
0000
0000
0000
0000
0000
0000
0030
2000
,
0000
0000
0000
0000
0000
0000
0000
0000
0000
0000
0000
0000
0000
0000
0000
0000
0000
0000
0000
0000
0000
0000
0000
0000
0000
0000
0000
0000
0000
0000
0000
0000
0000
0000
0000
0000
0000
0000
0000
0000
0000
0000
0000
0000
0000
0000
3000
0020
,
0000
0000
0000
0000
,
0000
0000
0000
0000
0000
0000
0030
2000
0000
0000
0000
0000
0000
0000
0000
0000
0000
0000
0000
0000
3000
0002
0000
0000
0000
0000
0000
0000
0000
0000
0000
0000
0000
0000
0000
0003
2000
0000
0000
0000
0000
0000
0000
0000
0000
0000
0000
3000
,
0020
0000
0000
0000
,
0030
0000
0000
0000
0000
0000
0000
0000
0200
0000
0000
0000
0000
0000
0000
0000
0000
0000
0000
0000
0000
0000
0000
0000
0000
0000
0000
0000
0000
0000
0000
0000
0000
0000
0000
0000
0000
0000
0000
0000
0000
0000
0000
0000
0000
0000
0000
0000
0000
0000
0000
0000
0000
0000
0000
0000
0000
0000
0000
0000
0000
0000
0000
0000
0000
0000
0000
0000
0000
0000
0000
0000
0000
0000
0000
0000
0000
0000
0000
0000
0000
0000
0000
0000
0000
0000
0000
0000
0000
0000
0000
0000
0000
0000
0000
0000
0000
0000
0000
0000
0000
0000
0000
0000
0000
0000
0000
0000
0000
0000
0000
0000
0000
0000
0000
0000
0000
0000
0000
0000
0000
0000
0000
0000
0000
0000
0000
0000
0000
0000
0000
0000
0000
0000
0000
0000
0000
0000
0000
0000
0000
0000
0000
0000
0000
0000
0000
0000
0000
0000
0000
0000
0000
0000
0000
0000
0000
0000
0000
0000
0000
0000
0000
0000
0000
0000
0000
0000
0000
0000
0000
0000
0000
0000
0000
0000
0000
0000
0000
0000
0000
0000
0000
0000
0300
0000
0000
0000
0000
2000
0000
0000
,
0000
0000
0000
0000
,
0000
0000
0000
0000
,
0000
0000
0000
0000
,
0000
0000
0000
3000
;
