#TITLE:Skylit Paradise;
#SUBTITLE:;
#ARTIST:SKILLZmakeKILLZ;
#TITLETRANSLIT:;
#SUBTITLETRANSLIT:;
#ARTISTTRANSLIT:;
#CREDIT:owenviau1;
#BANNER:../BN.PNG;
#BACKGROUND:;
#LYRICSPATH:;
#CDTITLE:../CDTitleOV1.PNG;
#MUSIC:SKILLZmakeKILLZ - Skylit Paradise.ogg;
#OFFSET:-0.104;
#SAMPLESTART:59.293;
#SAMPLELENGTH:29.999;
#SELECTABLE:YES;
#BPMS:0.000=109.000,56.000=110.000,60.000=111.000,64.000=112.000,80.000=114.000,83.000=115.000,87.000=118.000,92.000=122.000,96.000=123.750,111.000=135.000,304.000=134.000,305.000=133.000,306.000=132.000,307.000=131.000,308.000=130.000,309.000=129.000,311.000=128.000,312.000=127.000,313.000=126.000,314.000=125.000,315.000=124.000,316.000=123.000,319.000=122.000,320.000=121.000,321.000=120.000,323.000=119.000,324.000=118.000,325.000=117.000,326.000=116.000,327.000=115.000,328.000=114.000,329.000=113.000,330.000=112.000,331.000=111.000,332.000=110.000,335.000=109.001;
#STOPS:;
#BGCHANGES:;
// cache tags:
#FIRSTBEAT:0.000;
#LASTBEAT:367.000;
#SONGFILENAME:Songs/owenviau1 Simfiles 07_final/Skylit Paradise - [owenviau1] v1.0.3/Skylit Paradise.sm;
#HASMUSIC:1;
#HASBANNER:1;
#MUSICLENGTH:186.435;
// end cache tags

//---------------dance-single - 1.35 (1+) (owenviau1----------------
#NOTES:
     dance-single:
     1.35 (1+) (owenviau1:
     Beginner:
     1:
     0.163,0.197,0.070,0.134,0.000,175.000,13.000,25.000,0.000,0.000:
1000
0000
0000
0000
,
0010
0000
0000
0000
,
0100
0000
0000
0000
,
0001
0000
0000
0000
,
1000
0000
0000
0000
,
0100
0000
0000
0000
,
0010
0000
0000
0000
,
0001
0000
0000
0000
,
1001
0000
0000
0000
,
0000
0000
0000
0000
,
2000
0000
0000
0000
,
3020
0000
0000
0000
,
0230
0000
0000
0000
0000
0001
0000
0000
,
0302
0000
0000
0000
0000
1000
0000
0000
,
2003
0000
0100
0000
0000
0100
0000
0000
,
3200
0000
0000
0000
0000
0010
0000
0000
,
0320
0000
0001
0000
0000
0001
0000
0000
,
0032
0000
0000
0000
0000
1000
0000
0000
,
2003
0000
0010
0000
0000
0010
0000
0000
,
3020
0000
0000
0000
0000
0100
0000
0000
,
0230
0000
0001
0000
0000
0001
0000
0000
,
0302
0000
0000
0000
0000
1000
0000
0000
,
2003
0000
0100
0000
0000
0100
0000
0000
,
3200
0000
0000
0000
0000
0010
0000
0000
,
0320
0000
0000
0000
0000
0001
0000
0000
,
0032
0000
0000
1003
,
0000
0000
0000
0000
,
0020
0000
0000
1030
,
0000
0100
0000
0010
,
0000
0001
0000
0001
,
0000
1000
0000
0010
,
0000
0100
0000
0110
,
0000
1000
0000
0100
,
0000
1000
0000
0010
,
0000
0100
0000
0001
,
0000
1000
0000
1001
,
0000
1000
0000
0010
,
0000
0100
0000
0001
,
0000
1000
0000
0100
,
0000
1000
0000
1001
,
0000
0100
0000
0010
,
0000
0001
0000
0001
,
0000
1000
0000
0010
,
0000
0100
0000
0110
,
0000
1000
0000
0100
,
0000
1000
0000
0010
,
0000
0100
0000
0001
,
0000
1000
0000
1001
,
0000
1000
0000
0010
,
0000
0100
0000
0001
,
0000
1000
0000
0100
,
0000
1000
0000
0110
,
0000
0100
0000
0010
,
0000
0001
0000
0001
,
0000
1000
0000
0010
,
0000
0100
0000
0110
,
0000
1000
0000
0100
,
0000
1000
0000
0010
,
0000
0100
0000
0001
,
0000
1000
0000
1001
,
0000
1000
0000
0010
,
0000
0100
0000
0001
,
0000
1000
0000
0100
,
0000
1000
0000
1000
,
0000
0100
0000
0010
,
0000
0001
0000
0001
,
0000
1000
0000
0010
,
0000
0100
0000
0110
,
0000
1000
0000
0100
,
0000
1000
0000
0010
,
0000
0100
0000
0001
,
0000
1000
0000
1001
,
0000
1000
0000
0010
,
0000
0100
0000
0001
,
0000
1000
0000
0100
,
0000
1000
0000
1001
,
0000
0100
0000
0010
,
0000
0001
0000
0001
,
0000
1000
0000
0010
,
0000
0100
0000
0110
,
0000
1000
0000
0100
,
0000
1000
0000
0010
,
0000
0100
0000
0001
,
0000
1000
0000
2000
,
0000
0000
0000
0001
0000
0000
3002
0000
,
0000
0000
0000
1000
0000
0000
2003
0000
,
0100
0000
0000
0100
0000
0000
3200
0000
,
0000
0000
0000
0010
0000
0000
0320
0000
,
0001
0000
0000
0001
0000
0000
0032
0000
,
0000
0000
0000
1000
0000
0000
2003
0000
,
0010
0000
0000
0010
0000
0000
3020
0000
,
0000
0000
0000
0030
,
0000
0000
0000
0000
,
0000
0000
0000
0000
,
0000
0000
0000
0000
,
0000
0000
0000
0000
;

//---------------dance-single - 4.63 (4+) (owenviau1----------------
#NOTES:
     dance-single:
     4.63 (4+) (owenviau1:
     Easy:
     4:
     0.299,0.270,0.005,0.091,0.172,372.000,1.000,17.000,0.000,0.000:
1000
0100
0010
0000
,
0001
0100
0010
0000
,
0100
0100
0001
0000
,
1000
0100
1000
0000
,
0001
0100
0010
0000
,
0100
0001
1000
0000
,
1000
0100
0010
0000
,
0001
0100
0010
0000
,
1001
0000
0000
0000
,
0000
0000
0000
0000
,
2000
0000
0000
0000
,
3020
0000
0000
0000
,
0230
0000
0000
0000
0000
0001
0000
0000
,
0302
0000
0000
0000
0000
1000
0000
0000
,
2003
0000
0100
0000
0000
0100
0000
0000
,
3200
0000
0000
0000
0000
0010
0000
0000
,
0320
0000
0001
0000
0000
0001
0000
0000
,
0032
0000
0000
0000
0000
1000
0000
0000
,
2003
0000
0010
0000
0000
0010
0000
0000
,
3020
0000
0000
0000
0000
0100
0000
0000
,
0230
0000
0001
0000
0000
0001
0000
0000
,
0302
0000
0000
0000
0000
1000
0000
0000
,
2003
0000
0100
0000
0000
0100
0000
0000
,
3200
0000
0000
0000
0000
0010
0000
0000
,
0320
0000
0000
0000
0000
0001
0000
0000
,
0032
0000
0000
1003
,
0000
0000
0000
0000
,
0020
0000
0000
1030
,
0100
0000
0000
0000
0000
0000
0010
0000
0000
0010
0000
0000
0010
0000
0000
0000
,
0001
0000
0000
0000
1000
0000
0100
0000
0000
0100
0000
0000
0100
0000
0000
0000
,
0010
0000
0000
0000
0001
0000
1000
0000
0000
1000
0000
0000
1000
0000
0000
0000
,
0010
0000
0000
0000
0100
0000
0001
0000
0000
0001
0000
0000
0001
0000
0000
0000
,
1000
0000
0000
0000
0100
0000
1000
0000
0000
1000
0000
0000
1000
0000
0000
0000
,
0001
0000
0000
0000
0010
0000
0100
0000
0000
0100
0000
0000
0100
0000
0000
0000
,
1000
0000
0000
0000
0100
0000
0010
0000
0000
0010
0000
0000
0010
0000
0000
0000
,
0001
0000
0000
0000
1000
0000
0001
0000
0000
0001
0000
0000
0001
0000
0000
0000
,
1000
0000
0000
0000
0100
0000
1000
0000
0000
1000
0000
0000
1000
0000
0000
0000
,
0010
0000
0000
0000
0100
0000
0001
0000
0000
0001
0000
0000
0001
0000
0000
0000
,
1000
0000
0000
0000
0100
0000
0010
0000
0000
0010
0000
0000
0010
0000
0000
0000
,
0001
0000
0000
0000
1000
0000
0100
0000
0000
0100
0000
0000
0100
0000
0000
0000
,
0010
0000
0000
0000
0001
0000
1000
0000
0000
1000
0000
0000
1000
0000
0000
0000
,
0010
0000
0000
0000
0100
0000
0010
0000
0000
0010
0000
0000
0010
0000
0000
0000
,
1000
0000
0000
0000
0001
0000
0010
0000
0000
0010
0000
0000
0010
0000
0000
0000
,
0100
0000
0000
0000
1000
0000
1000
0000
0000
1000
0000
0000
1000
0000
0000
0000
,
0100
0000
0000
0000
0010
0000
0010
0000
0000
0010
0000
0000
0010
0000
0000
0000
,
0001
0000
0000
0000
1000
0000
0100
0000
0000
0100
0000
0000
0100
0000
0000
0000
,
0010
0000
0000
0000
0001
0000
1000
0000
0000
1000
0000
0000
1000
0000
0000
0000
,
0010
0000
0000
0000
0100
0000
0001
0000
0000
0001
0000
0000
0001
0000
0000
0000
,
1000
0000
0000
0000
0100
0000
1000
0000
0000
1000
0000
0000
1000
0000
0000
0000
,
0001
0000
0000
0000
0010
0000
0100
0000
0000
0100
0000
0000
0100
0000
0000
0000
,
1000
0000
0000
0000
0100
0000
0010
0000
0000
0010
0000
0000
0010
0000
0000
0000
,
0001
0000
0000
0000
1000
0000
0001
0000
0000
0001
0000
0000
0001
0000
0000
0000
,
1000
0000
0000
0000
0100
0000
1000
0000
0000
1000
0000
0000
1000
0000
0000
0000
,
0010
0000
0000
0000
0100
0000
0001
0000
0000
0001
0000
0000
0001
0000
0000
0000
,
1000
0000
0000
0000
0100
0000
0010
0000
0000
0010
0000
0000
0010
0000
0000
0000
,
0001
0000
0000
0000
1000
0000
0100
0000
0000
0100
0000
0000
0100
0000
0000
0000
,
0010
0000
0000
0000
0001
0000
1000
0000
0000
1000
0000
0000
1000
0000
0000
0000
,
0010
0000
0000
0000
0100
0000
0010
0000
0000
0010
0000
0000
0010
0000
0000
0000
,
1000
0000
0000
0000
0001
0000
0010
0000
0000
0010
0000
0000
0010
0000
0000
0000
,
0100
0000
0000
0000
0010
0000
0001
0000
0000
0001
0000
0000
0001
0000
0000
0000
,
0001
0000
0000
0000
1000
0000
0010
0000
0000
0010
0000
0000
0010
0000
0000
0000
,
0001
0000
0000
0000
1000
0000
0100
0000
0000
0100
0000
0000
0100
0000
0000
0000
,
0010
0000
0000
0000
0001
0000
1000
0000
0000
1000
0000
0000
1000
0000
0000
0000
,
0010
0000
0000
0000
0100
0000
0001
0000
0000
0001
0000
0000
0001
0000
0000
0000
,
1000
0000
0000
0000
0100
0000
1000
0000
0000
1000
0000
0000
1000
0000
0000
0000
,
0001
0000
0000
0000
0010
0000
0100
0000
0000
0100
0000
0000
0100
0000
0000
0000
,
1000
0000
0000
0000
0100
0000
0010
0000
0000
0010
0000
0000
0010
0000
0000
0000
,
0001
0000
0000
0000
1000
0000
0001
0000
0000
0001
0000
0000
0001
0000
0000
0000
,
1000
0000
0000
0000
0100
0000
1000
0000
0000
1000
0000
0000
1000
0000
0000
0000
,
0010
0000
0000
0000
0100
0000
0001
0000
0000
0001
0000
0000
0001
0000
0000
0000
,
1000
0000
0000
0000
0100
0000
0010
0000
0000
0010
0000
0000
0010
0000
0000
0000
,
0001
0000
0000
0000
1000
0000
0100
0000
0000
0100
0000
0000
0100
0000
0000
0000
,
0010
0000
0000
0000
0001
0000
1000
0000
0000
1000
0000
0000
1000
0000
0000
0000
,
0010
0000
0000
0000
0100
0000
0010
0000
0000
0010
0000
0000
0010
0000
0000
0000
,
1000
0000
0000
0000
0001
0000
0010
0000
0000
0010
0000
0000
0010
0000
0000
0000
,
0100
0000
0000
0000
1000
0000
1000
0000
0000
1000
0000
0000
1000
0000
0000
0000
,
0100
0000
0000
0000
0010
0000
0001
0000
0000
0001
0000
0000
0001
0000
0000
0000
,
0001
0000
0000
0000
1000
0000
0100
0000
0000
0100
0000
0000
0100
0000
0000
0000
,
0010
0000
0000
0000
0001
0000
1000
0000
0000
1000
0000
0000
1000
0000
0000
0000
,
0010
0000
0000
0000
0100
0000
0001
0000
0000
0001
0000
0000
0001
0000
0000
0000
,
1000
0000
0000
0000
0100
0000
1000
0000
0000
1000
0000
0000
1000
0000
0000
0000
,
0001
0000
0000
0000
0010
0000
0100
0000
0000
0100
0000
0000
0100
0000
0000
0000
,
1000
0000
0000
0000
0100
0000
0010
0000
0000
0010
0000
0000
0010
0000
0000
0000
,
0001
0000
0000
0000
1000
0000
0001
0000
0000
0001
0000
0000
0001
0000
0000
0000
,
1000
0000
0000
0000
0000
0000
1000
0000
0000
1000
0000
0000
1000
0000
0000
0000
,
0010
0000
0000
0000
0000
0000
0001
0000
0000
0001
0000
0000
0001
0000
0000
0000
,
1000
0000
0000
0000
0000
0000
0010
0000
0000
0010
0000
0000
0010
0000
0000
0000
,
0001
0000
0000
0000
0000
0000
0100
0000
0000
0100
0000
0000
0100
0000
0000
0000
,
0010
0000
0000
0000
0000
0000
1000
0000
0000
1000
0000
0000
1000
0000
0000
0000
,
0010
0000
0000
0000
0000
0000
0010
0000
0000
0010
0000
0000
0010
0000
0000
0000
,
1000
0000
0000
0000
0000
0000
0010
0000
0000
0010
0000
0000
0010
0000
0000
0000
,
0000
0000
0100
0000
0000
0000
1000
0000
0000
1000
0000
0000
0000
0000
0000
0000
,
0000
0000
0000
0000
,
0000
0000
0000
0000
,
0000
0000
0000
0000
,
0000
0000
0000
0000
;

//---------------dance-single - 9.00 (9) (owenviau1)----------------
#NOTES:
     dance-single:
     9.00 (9) (owenviau1):
     Medium:
     9:
     0.547,0.541,0.177,0.177,0.177,648.000,33.000,33.000,32.000,0.000:
1000
0100
0010
0001
0100
0010
1000
0010
,
0101
0001
1000
0100
1000
0010
0100
0001
,
1100
1000
0010
0100
0001
1000
0100
0010
,
1001
1000
0010
0100
0010
1000
0001
0100
,
1010
1000
0001
0010
0001
0100
0010
1000
,
0101
0001
0010
0100
1000
0010
0100
0001
,
1100
1000
0010
0100
0010
1000
0001
0010
,
1100
1000
0010
0100
0001
1000
0100
1000
,
0011
00MM
00MM
00MM
00MM
00MM
00MM
00MM
,
00MM
00MM
00MM
00MM
00MM
00MM
00MM
00MM
,
20MM
0000
0000
0000
,
3020
0000
0000
0000
,
0230
0000
0000
0000
0000
0000
0000
0000
0000
0000
0001
0000
0000
0001
0000
0000
,
0302
0000
0000
0000
0000
0000
0000
0000
0000
0000
1000
0000
0000
1000
0000
0000
,
2003
0000
0000
0000
0100
0000
0100
0000
0000
0000
0100
0000
0000
0100
0000
0000
,
3200
0000
0000
0000
0000
0000
0000
0000
0000
0000
0010
0000
0000
0010
0000
0000
,
0320
0000
0000
0000
0001
0000
0001
0000
0000
0000
0001
0000
0000
0001
0000
0000
,
0032
0000
0000
0000
0000
0000
0000
0000
0000
0000
1000
0000
0000
1000
0000
0000
,
2003
0000
0000
0000
0010
0000
0000
0000
0000
0000
0010
0000
0000
0010
0000
0000
,
3020
0000
0000
0000
0000
0000
0000
0000
0000
0000
0100
0000
0000
0100
0000
0000
,
0230
0000
0000
0000
0001
0000
0000
0000
0000
0000
0001
0000
0000
0001
0000
0000
,
0302
0000
0000
0000
0000
0000
0000
0000
0000
0000
1000
0000
0000
1000
0000
0000
,
2003
0000
0000
0000
0100
0000
0000
0000
0000
0000
0100
0000
0000
0100
0000
0000
,
3200
0000
0000
0000
0000
0000
0000
0000
0000
0000
0010
0000
0000
0010
0000
0000
,
0320
0000
0000
0000
0000
0000
0000
0000
0000
0000
0001
0000
0000
0001
0000
0000
,
0032
0000
0000
0000
0000
0000
0000
0000
0000
1000
0000
0000
1003
0000
0000
0000
,
0000
0000
0000
0000
,
0020
0000
0000
0000
0000
0000
1030
0100
,
0010
0000
0001
0000
1000
0000
0010
0000
0100
0001
0100
0000
0010
0000
1000
0000
,
0100
0000
1000
0000
0001
0000
0010
0000
0100
1000
0001
0000
0100
0000
0010
0000
,
0100
0000
0001
0000
1000
0000
0100
0000
0010
0001
0010
0000
0100
0000
1000
0000
,
0010
0000
0100
0000
0001
0000
1000
0000
0010
0100
0010
0000
1000
0000
0001
0000
,
0010
0000
0100
0000
1000
0000
0010
0000
0100
0001
1000
0000
0100
0000
0010
0000
,
0001
0000
1000
0000
0010
0000
1000
0000
0001
0010
0100
0000
1000
0000
0010
0000
,
0100
0000
0001
0000
0100
0000
0010
0000
1000
0100
1000
0000
0001
0000
0010
0000
,
0100
0000
1000
0000
0001
0000
0100
0000
0001
1000
0010
0000
1000
0000
0100
0000
,
0010
0000
0001
0000
1000
0000
0010
0000
0100
0001
0100
0000
0010
0000
1000
0000
,
0100
0000
1000
0000
0001
0000
0010
0000
0100
1000
0001
0000
0100
0000
0010
0000
,
0100
0000
0001
0000
1000
0000
0100
0000
0010
0001
0010
0000
0100
0000
1000
0000
,
0010
0000
0100
0000
0001
0000
1000
0000
0010
0100
0010
0000
1000
0000
0001
0000
,
0010
0000
0100
0000
1000
0000
0010
0000
0100
0001
1000
0000
0100
0000
0010
0000
,
0001
0000
1000
0000
0010
0000
1000
0000
0001
0010
0100
0000
1000
0000
0010
0000
,
0100
0000
0001
0000
0100
0000
0010
0000
1000
0100
1000
0000
0001
0000
0010
0000
,
0100
0000
1000
0000
0001
0000
0100
0000
0001
1000
0010
0000
1000
0000
0100
0000
,
0010
0000
0001
0000
1000
0000
0010
0000
0100
0001
0100
0000
0010
0000
1000
0000
,
0100
0000
1000
0000
0001
0000
0010
0000
0100
1000
0001
0000
0100
0000
0010
0000
,
0100
0000
0001
0000
1000
0000
0100
0000
0010
0001
0010
0000
0100
0000
1000
0000
,
0010
0000
0100
0000
0001
0000
1000
0000
0010
0100
0010
0000
1000
0000
0001
0000
,
0010
0000
0100
0000
1000
0000
0010
0000
0100
0001
1000
0000
0100
0000
0010
0000
,
0001
0000
1000
0000
0010
0000
1000
0000
0001
0010
0100
0000
1000
0000
0010
0000
,
0100
0000
0001
0000
0100
0000
0010
0000
1000
0100
1000
0000
0001
0000
0010
0000
,
0100
0000
1000
0000
0001
0000
0100
0000
0001
1000
0010
0000
1000
0000
0100
0000
,
0010
0000
0001
0000
1000
0000
0010
0000
0100
0001
0100
0000
0010
0000
1000
0000
,
0100
0000
1000
0000
0001
0000
0010
0000
0100
1000
0001
0000
0100
0000
0010
0000
,
0100
0000
0001
0000
1000
0000
0100
0000
0010
0001
0010
0000
0100
0000
1000
0000
,
0010
0000
0100
0000
0001
0000
1000
0000
0010
0100
0010
0000
1000
0000
0001
0000
,
0010
0000
0100
0000
1000
0000
0010
0000
0100
0001
1000
0000
0100
0000
0010
0000
,
0001
0000
1000
0000
0010
0000
1000
0000
0001
0010
0100
0000
1000
0000
0010
0000
,
0100
0000
0001
0000
0100
0000
0010
0000
1000
0100
1000
0000
0001
0000
0010
0000
,
0100
0000
1000
0000
0001
0000
0100
0000
0001
1000
0001
0000
0010
0000
0100
0000
,
1000
0000
0010
0000
1000
0000
0001
0000
0010
0000
0100
1000
0010
0000
0100
0000
,
0001
1000
0100
1000
0001
0100
0001
0010
,
0100
0000
1000
0000
0001
0000
0010
0000
0001
0000
1000
0010
0100
0000
0001
0000
,
1000
0010
1000
0001
0100
0010
0100
0001
,
1000
0000
0100
0000
0010
0000
0001
0000
1000
0000
0010
0100
0010
0000
1000
0000
,
0001
0100
0001
1000
0100
1000
0010
0100
,
0010
0000
1000
0000
0001
0000
0010
0000
0100
0000
1000
0010
0100
0000
0001
0000
,
1000
0100
1000
0001
0010
0100
1000
0001
,
0100
0000
0010
0000
1000
0000
0001
0000
0010
0000
0100
1000
0010
0000
0100
0000
,
0001
1000
0100
1000
0001
0100
0001
0010
,
0100
0000
1000
0000
0001
0000
0010
0000
0001
0000
1000
0010
0100
0000
0001
0000
,
1000
0010
1000
0001
0100
0010
0100
0001
,
1000
0000
0100
0000
0010
0000
0001
0000
1000
0000
0010
0100
0010
0000
1000
0000
,
0001
0100
0001
1000
0100
1000
0010
0100
,
0010
0000
1000
0000
0001
0000
0010
0000
0100
0000
1000
0010
0100
0000
0001
0000
,
1000
0100
1000
0001
0100
0010
0100
0001
,
1000
0000
0010
0000
1000
0000
0001
0000
0010
0000
0100
1000
0010
0000
0100
0000
,
0001
1000
0100
1000
0001
0100
0001
0010
,
0100
0000
1000
0000
0001
0000
0010
0000
0001
0000
1000
0010
0100
0000
0001
0000
,
1000
0010
1000
0001
0100
0010
0100
0001
,
1000
0000
0100
0000
0010
0000
0001
0000
1000
0000
0010
0100
0010
0000
1000
0000
,
0001
0100
0001
1000
0100
1000
0010
0100
,
0010
0000
1000
0000
0001
0000
0010
0000
0100
0000
1000
0010
0100
0000
0001
0000
,
1000
0100
1000
0001
0010
0100
1000
0000
,
0010
0000
0110
0000
0000
0000
0101
0000
0000
1001
0000
0000
2200
0000
3300
0000
,
1000
0000
0010
0000
0000
0000
0110
0000
0000
1010
0000
0000
0202
0000
0303
0000
,
1000
0000
0100
0000
0000
0000
0110
0000
0000
0011
0000
0000
2002
0000
3003
0000
,
1000
0000
0010
0000
0000
0000
0110
0000
0000
0101
0000
0000
2002
0000
3003
0000
,
1000
0000
0100
0000
0000
0000
0110
0000
0000
0011
0000
0000
2020
0000
3030
0000
,
1000
0000
0001
0000
0000
0000
0101
0000
0000
0110
0000
0000
2020
0000
3030
0000
,
0001
0000
0010
0000
0000
0000
0110
0000
0000
1100
0000
0000
2002
0000
3003
0000
,
0000
0000
1100
0000
0000
0000
0110
0000
0000
0022
0000
0033
0000
0000
0000
0000
,
0000
0000
0000
0000
,
0000
0000
0000
0000
,
0000
0000
0000
0000
,
0000
0000
0000
0000
;

//---------------dance-single - 11.13 (11) (owenviau----------------
#NOTES:
     dance-single:
     11.13 (11) (owenviau:
     Hard:
     11:
     0.857,0.811,0.177,0.177,1.000,1052.000,33.000,33.000,32.000,0.000:
1000
0100
0010
0001
0100
0010
1000
0010
,
0101
0001
1000
0100
1000
0010
0100
0001
,
1100
1000
0010
0100
0001
1000
0100
0010
,
1001
1000
0010
0100
0010
1000
0001
0100
,
1010
1000
0001
0010
0001
0100
0010
1000
,
0101
0001
0010
0100
1000
0010
0100
0001
,
1100
1000
0010
0100
0010
1000
0001
0010
,
1100
1000
0010
0100
0001
1000
0100
1000
,
0011
00MM
00MM
00MM
00MM
00MM
00MM
00MM
,
00MM
00MM
00MM
00MM
00MM
00MM
00MM
00MM
,
20MM
0000
0000
0000
,
3020
0000
0000
0000
,
0230
0000
0000
0000
0000
0000
0000
0000
0000
0000
0001
0000
0000
0001
0000
0000
,
0302
0000
0000
0000
0000
0000
0000
0000
0000
0000
1000
0000
0000
1000
0000
0000
,
2003
0000
0000
0000
0100
0000
0100
0000
0000
0000
0100
0000
0000
0100
0000
0000
,
3200
0000
0000
0000
0000
0000
0000
0000
0000
0000
0010
0000
0000
0010
0000
0000
,
0320
0000
0000
0000
0001
0000
0001
0000
0000
0000
0001
0000
0000
0001
0000
0000
,
0032
0000
0000
0000
0000
0000
0000
0000
0000
0000
1000
0000
0000
1000
0000
0000
,
2003
0000
0000
0000
0010
0000
0000
0000
0000
0000
0010
0000
0000
0010
0000
0000
,
3020
0000
0000
0000
0000
0000
0000
0000
0000
0000
0100
0000
0000
0100
0000
0000
,
0230
0000
0000
0000
0001
0000
0000
0000
0000
0000
0001
0000
0000
0001
0000
0000
,
0302
0000
0000
0000
0000
0000
0000
0000
0000
0000
1000
0000
0000
1000
0000
0000
,
2003
0000
0000
0000
0100
0000
0000
0000
0000
0000
0100
0000
0000
0100
0000
0000
,
3200
0000
0000
0000
0000
0000
0000
0000
0000
0000
0010
0000
0000
0010
0000
0000
,
0320
0000
0000
0000
0000
0000
0000
0000
0000
0000
0001
0000
0000
0001
0000
0000
,
0032
0000
0000
0000
0000
0000
0000
0000
0000
1000
0000
0000
1003
0000
0000
0000
,
0000
0000
0000
0000
,
0020
0000
0000
0000
0000
0000
0000
0000
0000
0000
0000
0000
1030
0100
1000
0001
,
0010
0100
1000
0010
0100
0001
0100
0010
1000
0001
0010
0001
0100
0010
1000
0001
,
0010
0100
1000
0010
0100
0010
1000
0001
0100
0001
0010
0100
1000
0001
0100
0010
,
0100
0001
1000
0100
1000
0001
0010
0100
1000
0010
0100
0010
1000
0001
0100
0010
,
0100
0001
1000
0010
0100
0010
1000
0001
1000
0010
0100
0001
0100
0010
1000
0010
,
0100
0001
1000
0100
0010
0001
1000
0100
1000
0010
0100
0001
1000
0100
1000
0001
,
0010
0001
0100
0010
1000
0001
0010
0001
1000
0100
0010
0001
0100
0010
0100
0001
,
1000
0010
1000
0001
0100
0010
0100
0001
1000
0010
1000
0100
0010
0001
0100
0001
,
1000
0100
1000
0001
0010
0001
0100
0010
1000
0001
0010
0100
1000
0100
1000
0001
,
0010
0100
1000
0010
0100
0001
0100
0010
1000
0001
0010
0001
0100
0010
1000
0001
,
0010
0100
1000
0010
0100
0010
1000
0001
0100
0001
0010
0100
1000
0001
0100
0010
,
0100
0001
1000
0100
1000
0001
0010
0100
1000
0010
0100
0010
1000
0001
0100
0010
,
0100
0001
1000
0010
0100
0010
1000
0001
1000
0010
0100
0001
0100
0010
1000
0010
,
0100
0001
1000
0100
0010
0001
1000
0100
1000
0010
0100
0001
1000
0100
1000
0001
,
0010
0001
0100
0010
1000
0001
0010
0001
1000
0100
0010
0001
0100
0010
0100
0001
,
1000
0010
1000
0001
0100
0010
0100
0001
1000
0010
1000
0100
0010
0001
0100
0001
,
1000
0100
1000
0001
0010
0001
0100
0010
1000
0100
1000
0001
0010
0100
1000
0010
,
0100
0001
0100
0010
1000
0001
0010
0001
0100
0010
1000
0001
0010
0100
1000
0010
,
0100
0010
1000
0001
0100
0001
0010
0100
1000
0001
0100
0010
0100
0001
1000
0100
,
1000
0001
0010
0100
1000
0010
0100
0010
1000
0001
0100
0010
0100
0001
1000
0010
,
0100
0010
1000
0001
1000
0010
0100
0001
0100
0010
1000
0010
0100
0001
1000
0100
,
0010
0001
1000
0100
1000
0010
0100
0001
1000
0100
1000
0001
0010
0001
0100
0010
,
1000
0001
0010
0001
1000
0100
0010
0001
0100
0010
0100
0001
1000
0010
1000
0001
,
0100
0010
0100
0001
1000
0010
1000
0100
0010
0001
0100
0001
1000
0100
1000
0001
,
0010
0100
1000
0010
0100
0001
0100
0010
1000
0001
0010
0001
0100
0010
1000
0001
,
0010
0100
1000
0010
0100
0010
1000
0001
0100
0001
0010
0100
1000
0001
0100
0010
,
0100
0001
1000
0100
1000
0001
0010
0100
1000
0010
0100
0010
1000
0001
0100
0010
,
0100
0001
1000
0010
0100
0010
1000
0001
1000
0010
0100
0001
0100
0010
1000
0010
,
0100
0001
1000
0100
0010
0001
1000
0100
1000
0010
0100
0001
1000
0100
1000
0001
,
0010
0001
0100
0010
1000
0001
0010
0001
1000
0100
0010
0001
0100
0010
0100
0001
,
1000
0010
1000
0001
0100
0010
0100
0001
1000
0010
1000
0100
0010
0001
0100
0001
,
1000
0100
1000
0001
0010
0001
0100
0010
1000
0001
0010
0100
1000
0001
0010
0100
,
1000
0010
0100
0001
0010
0001
0100
0010
1000
0001
0010
0100
1000
0010
0100
0001
,
1000
0100
1000
0010
0100
0010
1000
0001
0100
0001
0010
0100
1000
0010
0100
0001
,
1000
0100
0010
0001
0100
0010
0100
0001
1000
0010
1000
0100
0010
0001
1000
0010
,
0100
0010
1000
0001
0100
0001
1000
0010
0100
0010
1000
0001
0010
0100
1000
0010
,
0100
0001
0100
0010
1000
0100
1000
0001
0010
0100
1000
0010
0100
0001
0010
0001
,
0100
0010
1000
0001
0100
0001
1000
0010
0100
0010
1000
0001
0010
0001
0100
0010
,
1000
0100
0010
0001
1000
0100
1000
0010
0100
0010
1000
0001
0100
0001
0010
0100
,
1000
0010
0100
0001
1000
0100
1000
0010
0100
0001
1000
0100
0010
0001
0100
0010
,
0100
0001
1000
0010
1000
0100
0010
0001
0100
0010
1000
0001
0010
0100
1000
0010
,
0100
0001
1000
0001
0100
0010
0100
0001
1000
0100
1000
0010
0100
0001
1000
0100
,
1000
0010
0100
0001
1000
0100
1000
0010
0100
0010
1000
0001
0100
0001
0010
0100
,
1000
0010
0100
0001
1000
0100
0010
0001
0100
0010
0100
0001
1000
0010
1000
0100
,
0010
0001
1000
0010
0100
0010
1000
0001
0100
0001
1000
0010
0100
0010
1000
0001
,
0010
0100
1000
0010
0100
0001
0100
0010
1000
0100
1000
0001
0010
0100
1000
0010
,
0100
0001
0010
0001
0100
0010
1000
0001
0100
0001
1000
0010
0100
0010
1000
0001
,
0010
0001
0100
0010
1000
0100
0010
0001
1000
0100
1000
0010
0100
0010
1000
0001
,
0100
0001
0010
0100
1000
0010
0100
0001
1000
0100
1000
0010
0100
0001
1000
0100
,
0010
0001
0100
0010
0100
0001
1000
0010
1000
0100
0010
0001
0100
0010
1000
0001
,
0010
0100
1000
0010
0100
0001
1000
0001
0100
0010
0100
0001
1000
0100
1000
0010
,
0100
0001
1000
0100
1000
0010
0100
0001
1000
0100
1000
0010
0100
0010
1000
0001
,
0100
0001
0010
0100
1000
0010
0100
0001
1000
0100
0010
0001
0100
0010
0100
0001
,
1000
0010
1000
0100
0010
0001
1000
0010
0100
0010
1000
0001
0100
0001
1000
0010
,
0100
0010
1000
0001
0010
0100
1000
0010
0100
0001
0100
0010
1000
0100
1000
0001
,
0010
0100
1000
0010
0100
0001
0010
0001
0100
0010
1000
0001
0100
0001
1000
0010
,
0100
0010
1000
0001
0010
0001
0100
0010
1000
0100
0010
0001
1000
0000
0000
0000
,
0010
0000
0110
0000
0000
0000
0101
0000
0000
1001
0000
0000
2200
0000
3300
0000
,
1000
0000
0010
0000
0000
0000
0110
0000
0000
1010
0000
0000
0202
0000
0303
0000
,
1000
0000
0100
0000
0000
0000
0110
0000
0000
0011
0000
0000
2002
0000
3003
0000
,
1000
0000
0010
0000
0000
0000
0110
0000
0000
0101
0000
0000
2002
0000
3003
0000
,
1000
0000
0100
0000
0000
0000
0110
0000
0000
0011
0000
0000
2020
0000
3030
0000
,
1000
0000
0001
0000
0000
0000
0101
0000
0000
0110
0000
0000
2020
0000
3030
0000
,
0001
0000
0010
0000
0000
0000
0110
0000
0000
1100
0000
0000
2002
0000
3003
0000
,
0000
0000
1100
0000
0000
0000
0110
0000
0000
0022
0000
0033
0000
0000
0000
0000
,
0000
0000
0000
0000
,
0000
0000
0000
0000
,
0000
0000
0000
0000
,
0000
0000
0000
0000
;

//---------------dance-single - 15.47 (15+) (owenvia----------------
#NOTES:
     dance-single:
     15.47 (15+) (owenvia:
     Challenge:
     15:
     1.000,1.000,0.177,0.177,1.000,1308.000,33.000,33.000,32.000,0.000:
1000
0100
0010
0001
0100
0010
1000
0010
,
0101
0001
1000
0100
1000
0010
0100
0001
,
1100
1000
0010
0100
0001
1000
0100
0010
,
1001
1000
0010
0100
0010
1000
0001
0100
,
1010
1000
0001
0010
0001
0100
0010
1000
,
0101
0001
0010
0100
1000
0010
0100
0001
,
1100
1000
0010
0100
0010
1000
0001
0010
,
1100
1000
0010
0100
0001
1000
0100
1000
,
0011
00MM
00MM
00MM
00MM
00MM
00MM
00MM
,
00MM
00MM
00MM
00MM
00MM
00MM
00MM
00MM
,
20MM
0000
0000
0000
,
3020
0000
0000
0000
,
0230
0000
0000
0000
0000
0000
0000
0000
0000
0000
0001
0000
0000
0001
0000
0000
,
0302
0000
0000
0000
0000
0000
0000
0000
0000
0000
1000
0000
0000
1000
0000
0000
,
2003
0000
0000
0000
0100
0000
0100
0000
0000
0000
0100
0000
0000
0100
0000
0000
,
3200
0000
0000
0000
0000
0000
0000
0000
0000
0000
0010
0000
0000
0010
0000
0000
,
0320
0000
0000
0000
0001
0000
0001
0000
0000
0000
0001
0000
0000
0001
0000
0000
,
0032
0000
0000
0000
0000
0000
0000
0000
0000
0000
1000
0000
0000
1000
0000
0000
,
2003
0000
0000
0000
0010
0000
0000
0000
0000
0000
0010
0000
0000
0010
0000
0000
,
3020
0000
0000
0000
0000
0000
0000
0000
0000
0000
0100
0000
0000
0100
0000
0000
,
0230
0000
0000
0000
0001
0000
0000
0000
0000
0000
0001
0000
0000
0001
0000
0000
,
0302
0000
0000
0000
0000
0000
0000
0000
0000
0000
1000
0000
0000
1000
0000
0000
,
2003
0000
0000
0000
0100
0000
0000
0000
0000
0000
0100
0000
0000
0100
0000
0000
,
3200
0000
0000
0000
0000
0000
0000
0000
0000
0000
0010
0000
0000
0010
0000
0000
,
0320
0000
0000
0000
0000
0000
0000
0000
0000
0000
0001
0000
0000
0001
0000
0000
,
0032
0000
0000
0000
0000
0000
0000
0000
0000
1000
0000
0000
1003
0000
0000
0000
,
0000
0000
0000
0000
,
0020
0000
0000
0000
0000
0000
0000
0000
0000
0000
0000
0000
0000
0000
0000
0000
0000
0000
1030
0001
0100
0010
0100
0001
,
1000
0100
0010
0001
0100
0010
1000
0001
0010
0001
0100
0010
0100
0001
1000
0010
1000
0100
0010
0001
0100
0010
1000
0001
,
0010
0100
1000
0010
0100
0001
1000
0100
1000
0010
0100
0001
1000
0100
0010
0001
0100
0010
0100
0001
1000
0010
0100
0010
,
1000
0001
0010
0001
0100
0010
1000
0001
0010
0100
1000
0010
0100
0001
1000
0100
1000
0010
0100
0001
1000
0100
1000
0010
,
0100
0010
1000
0001
0100
0001
0010
0100
1000
0010
0100
0001
1000
0100
1000
0010
0100
0010
1000
0001
0100
0001
0010
0100
,
1000
0010
0100
0001
0100
0010
1000
0001
0010
0100
1000
0010
0100
0001
1000
0100
0010
0001
0100
0010
0100
0001
1000
0100
,
1000
0010
0100
0010
1000
0001
0100
0001
0010
0100
1000
0010
0100
0010
1000
0001
0010
0100
1000
0001
0100
0010
0100
0001
,
1000
0100
0010
0001
0100
0010
1000
0001
0010
0001
0100
0010
0100
0001
1000
0010
1000
0100
0010
0001
0100
0010
1000
0001
,
0010
0100
1000
0010
0100
0001
1000
0100
1000
0010
0100
0001
1000
0100
0010
0001
0100
0010
0100
0001
1000
0010
0100
0010
,
1000
0001
0010
0001
0100
0010
1000
0001
0010
0100
1000
0010
0100
0001
1000
0100
1000
0010
0100
0001
1000
0100
1000
0010
,
0100
0010
1000
0001
0100
0001
0010
0100
1000
0010
0100
0001
1000
0100
1000
0010
0100
0010
1000
0001
0100
0001
0010
0100
,
1000
0010
0100
0001
0100
0010
1000
0001
0010
0100
1000
0010
0100
0001
1000
0100
0010
0001
0100
0010
0100
0001
1000
0100
,
1000
0010
0100
0010
1000
0001
0100
0001
0010
0100
1000
0010
0100
0010
1000
0001
0010
0100
1000
0001
0100
0010
0100
0001
,
1000
0100
0010
0001
0100
0010
1000
0001
0010
0001
0100
0010
0100
0001
1000
0010
1000
0100
0010
0001
0100
0010
1000
0001
,
0010
0100
1000
0010
0100
0001
1000
0100
1000
0010
0100
0001
1000
0100
0010
0001
0100
0010
0100
0001
1000
0010
0100
0010
,
1000
0001
0010
0001
0100
0010
1000
0001
0010
0100
1000
0010
0100
0001
1000
0100
1000
0010
0100
0001
1000
0100
1000
0010
,
0100
0010
1000
0001
0100
0001
0010
0100
1000
0010
0100
0001
1000
0100
1000
0010
0100
0010
1000
0001
0100
0001
0010
0100
,
1000
0010
0100
0001
0100
0010
1000
0001
0010
0100
1000
0010
0100
0001
1000
0100
0010
0001
0100
0010
0100
0001
1000
0100
,
1000
0010
0100
0010
1000
0001
0100
0001
0010
0100
1000
0010
0100
0010
1000
0001
0010
0100
1000
0001
0100
0010
0100
0001
,
1000
0100
0010
0001
0100
0010
1000
0001
0010
0001
0100
0010
0100
0001
1000
0010
1000
0100
0010
0001
0100
0010
1000
0001
,
0010
0100
1000
0010
0100
0001
1000
0100
1000
0010
0100
0001
1000
0100
0010
0001
0100
0010
0100
0001
1000
0010
0100
0010
,
1000
0001
0010
0001
0100
0010
1000
0001
0010
0100
1000
0010
0100
0001
1000
0100
1000
0010
0100
0001
1000
0100
1000
0010
,
0100
0010
1000
0001
0100
0001
0010
0100
1000
0010
0100
0001
1000
0100
1000
0010
0100
0010
1000
0001
0100
0001
0010
0100
,
1000
0010
0100
0001
0100
0010
1000
0001
0010
0100
1000
0010
0100
0001
1000
0100
0010
0001
0100
0010
0100
0001
1000
0100
,
1000
0010
0100
0010
1000
0001
0100
0001
0010
0100
1000
0010
0100
0010
1000
0001
0010
0100
1000
0001
0100
0010
0100
0001
,
1000
0100
0010
0001
0100
0010
1000
0001
0010
0001
0100
0010
0100
0001
1000
0010
1000
0100
0010
0001
0100
0010
1000
0001
,
0010
0100
1000
0010
0100
0001
1000
0001
0100
0010
0100
0001
1000
0100
0010
0001
0100
0010
1000
0001
0010
0001
0100
0010
,
0100
0001
1000
0010
1000
0100
0010
0001
0100
0010
1000
0001
0010
0100
1000
0010
0100
0001
1000
0100
1000
0010
0100
0001
,
1000
0100
0010
0001
0100
0010
0100
0001
1000
0010
0100
0010
1000
0001
0010
0001
0100
0010
1000
0001
0010
0100
1000
0010
,
0100
0001
1000
0100
1000
0010
0100
0001
1000
0100
1000
0010
0100
0010
1000
0001
0100
0001
0010
0100
1000
0010
0100
0001
,
1000
0100
1000
0010
0100
0010
1000
0001
0100
0001
0010
0100
1000
0010
0100
0001
0100
0010
1000
0001
0010
0100
1000
0010
,
0100
0001
1000
0100
0010
0001
0100
0010
0100
0001
1000
0100
1000
0010
0100
0010
1000
0001
0100
0001
0010
0100
1000
0010
,
0100
0000
0010
0000
1000
0000
0001
0000
0010
0000
0100
0000
1000
0000
0010
0000
0100
0000
0001
0000
1000
0000
0100
0000
1000
0000
0010
0000
0100
0000
0001
0000
0010
0000
0100
0000
1000
0000
0000
0010
0000
0000
0100
0000
0000
0001
0000
0000
,
1000
0100
1000
0010
0100
0010
1000
0001
0100
0001
0010
0100
1000
0010
0100
0001
,
1000
0100
0010
0001
0100
0010
0100
0001
1000
0010
1000
0100
0010
0001
1000
0010
,
0100
0010
1000
0001
0100
0001
1000
0010
0100
0010
1000
0001
0010
0100
1000
0010
,
0100
0001
0100
0010
1000
0100
1000
0001
0010
0100
1000
0010
0100
0001
0010
0001
,
0100
0010
1000
0001
0100
0001
1000
0010
0100
0010
1000
0001
0010
0001
0100
0010
,
1000
0100
0010
0001
1000
0100
1000
0010
0100
0010
1000
0001
0100
0001
0010
0100
,
1000
0010
0100
0001
1000
0100
1000
0010
0100
0001
1000
0100
0010
0001
0100
0010
,
0100
0001
1000
0010
1000
0100
0010
0001
0100
0010
1000
0001
0010
0100
1000
0010
,
0100
0001
1000
0001
0100
0010
0100
0001
1000
0100
1000
0010
0100
0001
1000
0100
,
1000
0010
0100
0001
1000
0100
1000
0010
0100
0010
1000
0001
0100
0001
0010
0100
,
1000
0010
0100
0001
1000
0100
0010
0001
0100
0010
0100
0001
1000
0010
1000
0100
,
0010
0001
1000
0010
0100
0010
1000
0001
0100
0001
1000
0010
0100
0010
1000
0001
,
0010
0100
1000
0010
0100
0001
0100
0010
1000
0100
1000
0001
0010
0100
1000
0010
,
0100
0001
0010
0001
0100
0010
1000
0001
0100
0001
1000
0010
0100
0010
1000
0001
,
0010
0001
0100
0010
1000
0100
0010
0001
1000
0100
1000
0010
0100
0010
1000
0001
,
0100
0001
0010
0100
1000
0010
0100
0001
1000
0100
1000
0010
0100
0001
1000
0100
,
0010
0001
0100
0010
0100
0001
1000
0010
1000
0100
0010
0001
0100
0010
1000
0001
,
0010
0100
1000
0010
0100
0001
1000
0001
0100
0010
0100
0001
1000
0100
1000
0010
,
0100
0001
1000
0100
1000
0010
0100
0001
1000
0100
1000
0010
0100
0010
1000
0001
,
0100
0001
0010
0100
1000
0010
0100
0001
1000
0100
0010
0001
0100
0010
0100
0001
,
1000
0010
1000
0100
0010
0001
1000
0010
0100
0010
1000
0001
0100
0001
1000
0010
,
0100
0010
1000
0001
0010
0100
1000
0010
0100
0001
0100
0010
1000
0100
1000
0001
,
0010
0100
1000
0010
0100
0001
0010
0001
0100
0010
1000
0001
0100
0001
1000
0010
,
0100
0010
1000
0001
0010
0001
0100
0010
1000
0100
0010
0001
1000
0000
0000
0000
,
0010
0000
0110
0000
0000
0000
0101
0000
0000
1001
0000
0000
2200
0000
3300
0000
,
1000
0000
0010
0000
0000
0000
0110
0000
0000
1010
0000
0000
0202
0000
0303
0000
,
1000
0000
0100
0000
0000
0000
0110
0000
0000
0011
0000
0000
2002
0000
3003
0000
,
1000
0000
0010
0000
0000
0000
0110
0000
0000
0101
0000
0000
2002
0000
3003
0000
,
1000
0000
0100
0000
0000
0000
0110
0000
0000
0011
0000
0000
2020
0000
3030
0000
,
1000
0000
0001
0000
0000
0000
0101
0000
0000
0110
0000
0000
2020
0000
3030
0000
,
0001
0000
0010
0000
0000
0000
0110
0000
0000
1100
0000
0000
2002
0000
3003
0000
,
0000
0000
1100
0000
0000
0000
0110
0000
0000
0022
0000
0033
0000
0000
0000
0000
,
0000
0000
0000
0000
,
0000
0000
0000
0000
,
0000
0000
0000
0000
,
0000
0000
0000
0000
;
