#TITLE:鳥の歌;
#SUBTITLE:(The Speedfreak's Noise Rave Mix);
#ARTIST:DJ Sharpnel;
#TITLETRANSLIT:Torinouta;
#SUBTITLETRANSLIT:;
#ARTISTTRANSLIT:;
#CREDIT:;
#BANNER:Torinouta - banner.jpg;
#BACKGROUND:Torinouta - bg.jpg;
#LYRICSPATH:;
#CDTITLE:pfx - icon.png;
#MUSIC:DJ Sharpnel - Torinouta (The Speedfreak's Noise Rave Mix).mp3;
#OFFSET:-16.011;
#SAMPLESTART:133.144;
#SAMPLELENGTH:12.000;
#SELECTABLE:YES;
#BPMS:0.000=180.000,56.000=45.000,58.000=90.000,74.000=180.000,98.000=90.000,102.000=180.000,230.000=90.000,278.000=45.000,279.000=90.000,281.000=180.000,469.000=90.000,471.000=180.000,499.000=90.000,501.000=180.000,629.000=90.000,677.000=45.000,678.000=90.000,680.000=180.000,872.000=90.000,903.000=180.000;
#STOPS:;
#BGCHANGES:;
// cache tags:
#FIRSTBEAT:0.000;
#LASTBEAT:903.000;
#SONGFILENAME:Songs/Community Keyboard Megapack - Volume 1/(pfx13AE) Torinouta/Torinouta.sm;
#HASMUSIC:1;
#HASBANNER:1;
#MUSICLENGTH:374.754;
// end cache tags

//---------------dance-single - ----------------
#NOTES:
     dance-single:
     :
     Hard:
     11:
     1.000,1.000,1.000,0.691,0.494,1772.000,833.000,259.000,0.000,2.000:
1000
0000
0000
0000
0000
0000
0100
0010
0001
0000
0000
0000
0001
0000
0000
0000
0100
0000
0000
0000
0010
0000
1000
0000
0100
0000
0000
0000
0010
0000
0000
0000
,
0001
0000
0000
0000
0000
0000
0010
0100
1000
0000
0000
0000
0001
0000
0000
0000
0100
0000
0000
0000
0010
0000
1000
0000
0001
0000
0000
0000
1000
0000
0000
0000
,
0010
0000
0000
0000
0000
0000
0100
0010
1000
0000
0000
0000
0100
0000
0000
0000
0010
0000
0000
0000
0001
0000
0010
0000
0100
0000
0000
0000
1000
0000
0000
0000
,
0100
0000
0000
0000
0000
0000
0010
0001
0100
0000
0000
0000
0010
0000
0000
0000
1000
0000
0000
0000
0100
0000
0010
0000
0001
0000
0000
0000
0100
0000
0000
0000
,
0010
0000
0000
0000
0000
0000
1000
0010
0100
0000
0000
0000
0001
0000
0000
0000
1000
0000
0000
0000
0100
0000
0010
0000
0001
0000
0000
0000
0100
0000
0000
0000
,
0010
0000
0000
0000
0000
0000
1000
0010
0100
0000
0000
0000
0001
0000
0000
0000
1000
0000
0000
0000
0001
0000
0010
0000
0001
0000
0000
0000
0010
0000
0000
0000
,
0100
0000
0000
0000
0000
0000
1000
0100
0010
0000
0000
0000
0001
0000
0000
0000
1000
0000
0000
0000
0010
0000
0100
0000
0010
0000
0000
0000
1000
0000
0000
0000
,
0100
0000
0000
0000
0000
0000
0010
0001
1000
0000
0000
0000
0010
0000
0000
0000
0100
0000
0000
0000
0001
0000
1000
0000
0001
0000
0000
0000
0100
0000
0000
0000
,
0022
0000
0033
0000
2020
0000
3030
0000
0012
0003
2010
3000
0202
0000
0303
0000
,
2100
3000
0120
0030
0102
0003
0220
0000
0330
0000
2100
3000
1200
0300
2100
3000
,
0000
0000
0012
0003
0021
0030
0012
0003
0120
0030
0210
0300
0120
0030
0210
0300
,
0220
0000
0330
0000
2100
3000
0220
0000
0330
0000
2100
0000
3000
0000
0100
0000
,
2001
0100
0010
0001
0100
0010
0100
0001
,
0010
0100
0010
0001
0010
0001
0100
0010
,
3001
0000
0000
0000
0000
0000
0000
0000
1001
0100
0010
0001
0010
0100
1000
0001
,
0110
1000
0100
0010
0100
1000
0001
0100
1010
0100
0010
0001
0010
0100
1000
0100
,
0012
0000
0000
0000
0000
0000
0000
0000
0023
0000
0000
0000
0000
0000
0030
0000
1001
0000
0000
0000
1000
0100
1000
0000
0001
0010
0001
0000
0100
0001
1000
0100
,
0000
0010
0001
0000
0001
0010
0001
0000
1000
0100
0010
0100
1000
0001
0100
0001
0000
1000
0100
0000
0010
0001
0010
0000
0100
1000
0100
0000
0001
0010
0100
1000
,
0000
0100
0000
0010
0001
0010
0001
0000
0010
0100
1000
0100
0000
0100
0010
0000
0001
0000
0000
0000
0100
0000
0000
0000
0011
0000
0000
0000
0011
0000
0000
0000
,
0001
1000
0110
0110
0001
0010
1100
1100
,
0001
0000
1000
0100
1000
0000
0010
0000
0100
0000
0001
0000
1010
0000
1010
0000
,
0100
0000
0010
0000
1001
0000
1001
0000
0001
0000
0010
0100
0011
0000
0011
0000
,
1010
0101
1010
0101
1000
0100
0011
0011
,
0100
0000
1000
0000
0110
0000
0110
0000
0001
0000
0010
0000
1100
0000
1100
0010
,
0001
0000
0000
0000
1000
0000
0001
0000
0110
0000
0000
0000
0110
0000
0000
0000
1000
0000
0000
0000
0100
0000
0000
0000
0010
0000
0000
0000
0001
0000
0000
0010
,
0100
0000
0000
0000
1000
0000
0010
0001
0100
0000
0010
0000
1000
0000
0100
0000
0011
0000
0000
0000
0110
0000
0000
0000
0001
0000
0000
0000
1000
0000
0000
0000
,
0011
0101
0011
0101
0000
0011
1000
0100
,
1001
1100
1001
1001
0000
1010
0100
0001
,
0110
0101
0110
0101
0000
0011
0100
1000
,
0101
0000
0101
0000
2100
3000
0101
0000
0000
0000
1001
0000
1000
0000
0100
0000
,
0011
0000
1100
0000
0011
1000
0100
0010
0000
0000
0101
0000
0010
0000
1000
0000
,
0110
0000
1100
0000
0110
0001
1000
0000
0000
0000
0011
0000
0010
0100
1000
0000
,
1010
1001
1100
1010
0000
0110
0001
1000
,
0101
0000
0001
0010
0101
0000
0101
0000
0000
0000
1100
0000
0010
0000
0001
0000
,
1010
0110
1010
0110
0000
0011
0100
1000
,
0011
0101
0011
0011
0000
1001
1000
0100
,
0011
1001
0011
1001
0000
0101
0010
1000
,
0110
0000
0011
0000
0210
0300
0011
0000
0000
0000
1100
0000
0001
0000
0010
0000
,
1001
0000
0011
0000
1000
0100
0011
0100
0000
0000
0011
0000
0100
0000
1000
0000
,
0110
0000
0101
0000
1010
0100
0001
0000
2000
0000
0000
0000
3002
0000
0000
0000
,
2003
0000
3002
0000
2003
0010
0100
0010
,
0100
0000
3100
0000
0011
0100
1001
0010
,
1100
0110
0011
0110
1001
0100
0011
1000
,
0110
0011
1001
0110
1001
0010
1100
0010
,
0101
0011
0110
1100
0011
0100
1010
0001
,
1100
0000
0110
0000
2100
3000
0110
0000
0000
0000
0100
0000
0011
0000
0100
0000
,
1010
0000
1100
0000
0101
1000
0001
1000
0100
0000
0010
0000
1100
0000
0010
0000
,
0101
0000
0110
0000
1100
0010
0001
0000
0010
0000
0100
0000
1010
0001
0100
0000
,
1001
0110
0011
1100
0001
0010
1100
0010
,
0101
0000
0011
1000
0011
0000
0110
0000
0000
0000
0011
0000
0110
0000
1100
0000
,
0011
0101
0011
0101
0000
0011
1001
0110
,
1010
0110
1010
1010
0000
0011
0110
0101
,
0011
1001
0011
1001
0000
0110
0011
1010
,
0101
0000
0110
0000
0102
0003
0110
0000
0000
0000
1000
0000
0100
0000
1000
0000
,
0001
0000
0010
0000
0001
1000
0010
0100
0000
0000
0010
0000
0100
0000
0010
0000
,
1000
0000
0000
0000
0001
0000
0000
0000
1000
0100
0010
0001
1000
0000
0000
0000
0011
0000
0000
0000
0000
0000
0000
0000
0110
0000
0000
0000
0000
0000
0000
0000
,
1100
0000
0011
0002
0000
0000
0000
0000
,
0003
0000
0001
0000
0010
0000
0100
0000
2002
0000
3003
0000
0000
1000
0100
0010
,
2002
0000
3003
0000
0000
0001
1000
0010
0202
0000
0303
0000
0000
0000
0000
0100
,
0000
0000
1000
0000
0000
0001
0010
0100
2002
0000
3003
0000
0000
1000
0100
0010
,
2002
0000
3003
0000
0000
1000
0010
0100
0022
0000
0030
0000
0000
0000
0000
0000
,
1003
0000
0000
0000
0000
0000
0000
0000
1000
0100
0000
0100
0000
0100
0000
0100
,
0000
0010
0000
0010
0000
0010
0000
0010
0000
0001
0000
0001
0000
0001
0000
0001
,
0000
0001
0000
0001
0000
0001
0000
0001
0010
0100
0000
0100
0000
0100
0000
0100
,
0000
0010
0000
0010
0000
0010
0000
0010
0000
0001
0000
0001
0000
0001
0000
0001
,
0000
0001
0000
0001
0000
0001
0000
0001
0200
0000
0310
1000
0020
0000
0030
0000
,
0000
0000
1100
0010
0101
1000
0100
0010
1001
0000
1000
0100
0000
0000
0000
0000
,
0000
0000
0000
0000
1010
0100
0010
0001
1100
0000
0011
0100
0011
0000
0000
0000
,
0000
0000
0011
1000
0110
0001
0010
0100
2020
0000
0000
0000
0000
0000
0030
0000
,
0200
0000
0000
0000
3000
0000
0320
0000
0032
0000
0000
0000
1003
0101
1000
0101
,
1000
0101
1001
0000
0011
0000
0011
0000
0000
0000
0110
0000
0011
0000
0011
0000
,
0000
0110
2002
3003
2002
3003
1001
1001
,
0000
0011
1100
1100
0000
0011
1100
1100
,
0000
0011
0220
0330
0220
0330
0110
0110
,
0000
0000
1000
0100
0011
0000
0011
0000
0000
0000
1010
0000
0011
0000
0011
0000
,
0000
1010
0202
0303
0202
0303
0101
0101
,
0000
0000
1000
0010
0101
0000
0101
0000
0000
0000
0011
0000
0101
0000
0101
0000
,
0000
0000
0011
0000
2200
0000
3300
0000
2200
0000
3300
0000
1100
0000
1100
0010
,
0001
0110
1001
1001
0000
0110
1001
1001
,
0000
0110
0022
0033
0022
0033
0011
0011
,
0000
0000
0001
0010
1100
0000
1100
0000
0000
0000
0110
0000
1100
0000
1100
0000
,
0000
1100
0220
0330
0220
0330
0110
0110
,
0000
0000
1000
0001
0110
0000
0110
0000
0000
0000
1100
0000
0110
0000
0110
0000
,
0000
1001
0022
0033
0022
0033
0011
0011
,
0000
0000
1000
0010
0101
0000
0101
0000
0110
0000
1010
0000
0101
0000
0101
0000
,
0000
0000
0000
0000
0101
0000
0000
0000
2100
0000
0000
0000
3100
0000
0010
0001
1000
0000
0000
0000
0100
0000
0000
0000
0010
0000
0000
0000
0001
0000
0010
0100
,
1000
1000
0011
0011
0001
1100
0011
0011
,
1000
0110
2020
3030
2020
3030
1010
1010
,
0001
0110
1001
1001
0010
1100
1001
1001
,
0100
0011
2200
3300
2200
3300
1100
1100
,
0001
0000
1000
0100
0011
0000
0011
0000
0100
0000
1010
0000
0011
0000
0011
0000
,
0100
1010
0202
0303
0202
0303
0101
0101
,
0001
1000
0101
0101
1000
0110
0101
0101
,
0010
0000
1001
0000
0220
0000
0330
0000
0220
0000
0330
0000
0110
0000
0110
0001
,
1000
0110
1001
1001
0010
1100
1001
1001
,
0001
1100
0022
0033
0022
0033
0011
0011
,
0100
1010
1100
1100
0010
1001
1100
1100
,
0001
0110
0202
0303
0202
0303
0101
0101
,
1000
0000
0100
0010
1001
0000
1001
0000
1000
0000
0011
0000
1001
0000
1001
0000
,
0100
0000
0011
0000
2020
0000
3030
0000
2020
0000
3030
0000
1010
0000
1010
0001
,
0100
0110
0011
0011
0000
0110
0101
0101
,
0000
0000
0110
0000
2001
0000
0000
0000
0002
0000
3003
0000
1001
0100
0010
0001
,
1000
0000
0000
0000
1000
0100
0010
0100
1000
0000
0000
0000
0001
0010
0100
0010
,
0001
0000
0000
0000
1000
0010
0100
0010
1000
0000
0000
0000
0001
0100
0010
0100
,
0001
0000
0000
0000
1000
0010
0100
0001
1000
0000
0000
0000
0001
0100
0010
1000
,
0001
0000
0000
0000
1000
0100
0010
0000
0001
0010
0100
0000
1000
0100
0010
0000
,
0001
0010
0100
0000
0001
1000
0010
0100
0001
0000
0000
0000
1000
0001
0100
0010
,
1000
0000
0000
0000
0001
1000
0001
1000
0001
0000
0000
0000
1000
0010
1000
0010
,
1000
0000
0000
0000
0001
1000
0100
0010
0001
0000
0000
0000
1000
0001
0010
0100
,
1000
0000
0000
0000
1000
0010
0100
0000
0001
0100
0010
0000
1000
0010
0100
0000
,
0001
0100
0010
0000
1000
0100
0010
0001
1000
0000
0010
0000
0200
0000
0000
0000
,
0301
0000
0010
0000
0100
1000
0100
0010
0001
0000
1000
0000
0200
0000
0000
0000
,
0310
0000
0001
0000
1000
0010
0100
0001
1000
0000
0001
0000
0200
0000
0000
0000
,
0310
0000
1000
0000
0100
0010
0001
0010
0100
0000
1000
0000
0002
0000
0000
0000
,
1003
0000
0100
0000
0010
0001
0010
0100
1000
0000
0100
0000
0020
0000
0000
0000
,
0031
0000
0010
0000
0100
0010
0100
0001
1000
0000
0001
0000
0200
0000
0000
0000
,
0310
0000
1000
0000
0100
0010
0001
1000
0010
0000
0100
0000
0002
0000
0000
0000
,
0013
0000
0000
0000
0100
0000
0000
0000
2000
0000
0000
0000
0000
0000
0000
0000
0000
0000
0000
0000
0000
0000
0000
0000
3001
0000
0000
0000
0000
0000
0010
0100
,
1000
0000
0000
0000
1000
0000
0000
0000
0010
0000
0000
0000
0100
0000
0001
0000
0010
0000
0000
0000
0100
0000
0000
0000
1000
0000
0000
0000
0000
0000
0100
0010
,
0001
0000
0000
0000
1000
0000
0000
0000
0010
0000
0000
0000
0100
0000
0001
0000
1000
0000
0000
0000
0001
0000
0000
0000
0100
0000
0000
0000
0000
0000
0010
0100
,
0001
0000
0000
0000
0010
0000
0000
0000
0100
0000
0000
0000
1000
0000
0100
0000
0010
0000
0000
0000
0001
0000
0000
0000
0010
0000
0000
0000
0000
0000
0100
1000
,
0010
0000
0000
0000
0100
0000
0000
0000
0001
0000
0000
0000
0010
0000
0100
0000
1000
0000
0000
0000
0010
0000
0000
0000
0100
0000
0000
0000
0000
0000
0001
0100
,
0010
0000
0000
0000
1000
0000
0000
0000
0001
0000
0000
0000
0010
0000
0100
0000
1000
0000
0000
0000
0010
0000
0000
0000
0100
0000
0000
0000
0000
0000
0001
0100
,
0010
0000
0000
0000
1000
0000
0000
0000
0001
0000
0000
0000
1000
0000
0100
0000
1000
0000
0000
0000
0100
0000
0000
0000
0010
0000
0000
0000
0000
0000
0001
0010
,
0100
0000
1000
0000
0001
0000
0100
0010
0100
0000
0001
0000
0020
0000
0000
0000
,
0000
0000
0130
0010
1001
0000
0100
0000
0011
0000
1000
0000
0011
1000
0000
1000
,
0011
0000
0100
0000
1010
0001
0000
0001
1010
0000
0100
0000
0011
0100
1000
0000
,
1000
0000
1000
0000
0110
0000
0001
0000
1100
0000
0010
0000
1001
0100
0000
0100
,
1001
0000
0001
0000
0110
1000
0000
1000
0110
0000
0001
0000
1100
0010
0001
0000
,
0001
0000
0001
0000
0110
0000
1000
0000
0101
0000
0010
0000
1100
0010
0000
0010
,
1100
0000
0001
0000
1010
0100
0000
0100
1010
0000
1000
0000
0110
0001
0010
0000
,
0010
0000
0010
0000
0011
0000
1000
0000
0101
0000
0010
0000
1100
0001
0000
0001
,
1100
0000
0010
0000
0101
1000
0000
1000
0102
0000
0000
0000
0100
0000
0000
0000
,
0100
0000
0000
0000
1103
0000
0110
0000
1100
0000
0110
0000
0011
1000
0000
1000
,
0011
0000
0110
0000
1010
0100
0000
0100
1010
0000
0110
0000
0011
0100
1000
0000
,
1000
0000
1000
0000
0110
0000
0011
0000
0110
0000
0011
0000
1100
0001
0000
0001
,
1100
0000
0110
0000
0011
1000
0000
1000
0011
0000
0110
0000
1001
0100
0010
0000
,
0010
0000
0010
0000
1100
0000
1001
0000
1100
0000
1001
0000
0101
0010
0000
0010
,
0101
0000
0011
0000
0101
1000
0000
1000
0101
0000
0011
0000
0110
0001
1000
0000
,
1000
0000
1000
0000
0011
0000
0101
0000
0011
0000
0101
0000
1100
0010
0000
0010
,
1100
1010
0110
0110
0110
0110
0110
0000
,
0110
0000
1100
0010
0101
0010
0100
1001
,
0100
0011
1001
0100
0011
1000
0100
0011
,
0100
1010
0110
0001
1100
0010
0001
1100
,
0010
0101
0011
1000
0110
0001
0010
1100
,
0010
0011
1100
0010
1001
0010
0100
0011
,
0010
0110
1100
0010
1001
0100
0010
1001
,
0100
0011
1010
0100
0101
1000
0100
0011
,
1000
0110
0011
0100
0210
0000
0010
0000
,
0010
0000
0311
1000
0110
0001
0010
1100
,
0010
0101
0011
0100
1010
0100
0010
0011
,
1000
0110
1001
0100
0011
0100
1000
0101
,
0010
0101
1010
0100
1001
0100
0010
1001
,
0100
0011
1100
0000
0101
0000
0000
1010
,
0000
0011
0110
0000
0110
0000
0000
1100
,
0000
1010
0101
0000
0101
0000
0000
1000
,
0100
0010
0000
1000
0100
0010
0000
1000
,
0100
0000
0010
0000
2002
0000
3003
0000
0000
0001
1000
0100
0022
0000
0033
0000
,
0000
1000
0100
0010
0202
0000
0303
0000
0000
0000
0000
0010
0000
0000
0100
0000
,
0000
1000
0010
0100
0022
0000
0033
0000
0000
0001
0010
0100
2020
0000
3030
0000
,
0000
0001
1000
0010
0202
0000
0300
0000
0000
0000
0000
0000
0013
0000
0000
0002
,
0000
1003
0100
0010
0102
0003
0010
2100
0000
0000
3000
0000
0000
0000
0101
1000
,
0011
0100
1000
0010
0201
0300
0010
2001
0000
0000
3000
0000
0000
0000
0000
2000
,
0000
0000
3100
0000
0010
0000
0001
0000
2100
0000
3000
0000
0010
1000
0102
0000
0000
0000
0000
0000
0003
0000
0000
0000
0000
0000
0000
0000
1100
0000
0010
0000
,
1001
0000
0100
0000
0011
0000
0101
0000
0110
0000
0000
1100
0000
0000
1002
0000
0000
0000
0003
0000
0000
0000
1000
0000
0210
0000
0300
0000
0012
0000
0003
0000
,
1200
0300
2010
3000
0110
0000
0011
1000
0120
0000
0000
0000
0030
0000
1010
0100
,
0011
0100
1000
0010
0201
0300
1001
0201
0000
0000
0300
0000
0000
0000
0000
0002
,
0000
1003
0100
0010
0101
0000
0100
0012
0000
0000
0003
0000
0000
0000
1100
0001
,
0110
1000
0100
0010
0202
0000
0000
0000
0000
0000
0300
0000
0020
0000
0000
0000
,
0003
0000
0230
0000
2300
0000
0000
0000
3001
0110
0001
0110
0001
0110
0011
0000
,
1001
1001
0000
0110
1001
1001
0000
0011
,
2002
3003
2002
3003
1001
1001
0000
1100
,
0011
0011
0000
1100
0011
0011
0000
1100
,
0220
0000
0330
0000
0220
0000
0330
0000
0110
0000
0110
0000
0000
0000
0001
0010
,
1100
1100
0000
0101
1100
1100
0000
0101
,
2020
0000
3030
0000
2020
0000
3030
0000
1010
0000
1010
0000
0000
0000
0001
0100
,
1010
1010
0000
1100
1010
1010
0000
1100
,
0022
0000
0033
0000
0022
0000
0033
0000
0011
0000
0011
0100
1000
0000
0110
0000
,
1001
1001
0000
0110
1001
1001
0000
0110
,
2200
0000
3300
0000
2200
0000
3300
0000
1100
0000
1100
0000
0000
0000
1000
0100
,
0011
0011
0000
0110
0011
0011
0000
0011
,
0220
0000
0330
0000
0220
0000
0330
0000
0110
0000
0110
0000
0000
0000
0001
1000
,
0110
0110
0000
0011
0110
0110
0000
1001
,
2200
0000
3300
0000
2200
0000
3300
0000
1100
0000
1100
0000
0000
0000
0001
0100
,
1010
1010
0110
0101
1010
1010
0000
1010
,
0012
0000
0000
0000
0013
0000
0100
1000
0001
0000
0000
0000
0010
0000
0000
0000
0100
0000
0000
0000
1000
0000
0100
0010
0001
0000
0000
0000
0001
0000
0000
0000
,
1100
1100
1000
0011
1100
1100
0001
0110
,
0202
0303
0202
0303
0101
0101
1000
0110
,
1001
1001
0100
0011
1001
1001
0010
1100
,
0022
0000
0033
0000
0022
0000
0033
0000
0011
0000
0011
0000
1000
0000
0001
0010
,
1100
1100
0010
0101
1100
1100
0010
0101
,
2020
3030
2020
3030
1010
1010
1000
0001
,
1010
1010
0001
0110
1010
1010
0100
1001
,
0220
0000
0330
0000
0220
0000
0330
0000
0110
0000
0110
1000
0001
0000
0110
0000
,
1001
1001
0100
0011
1001
1001
1000
0011
,
2200
3300
2200
3300
1100
1100
0010
0101
,
0011
0011
0100
1001
0011
0011
1000
0110
,
2020
0000
3030
0000
2020
0000
3030
0000
1010
0000
1010
0000
0001
0000
0010
0100
,
1001
1001
0001
1100
1001
1001
0010
1100
,
0202
0000
0303
0000
0202
0000
0303
0000
0101
0000
0101
1000
0010
0000
0110
0000
,
1100
1100
0000
0110
1010
1010
0000
0110
,
1001
0011
2000
3000
,
0011
0011
0000
0110
0011
0011
0000
0110
,
2002
3003
2002
3003
1001
1001
0000
0011
,
1100
1100
0000
0011
1100
1100
0000
0011
,
0220
0000
0330
0000
0220
0000
0330
0000
0110
0000
0110
0000
0000
0000
1000
0100
,
0011
0011
0000
1010
0011
0011
0000
1010
,
0202
0000
0303
0000
0202
0000
0303
0000
0101
0000
0101
0000
0000
0000
1000
0010
,
0101
0101
0000
0011
0101
0101
0000
0011
,
2200
0000
3300
0000
2200
0000
3300
0000
1100
0000
1100
0010
0001
0000
0110
0000
,
1001
1001
0000
0110
1001
1001
0000
0110
,
0022
0000
0033
0000
0022
0000
0033
0000
0011
0000
0011
0000
0000
0000
0001
0010
,
1100
1100
0000
0110
1100
1100
0000
1100
,
0220
0000
0330
0000
0220
0000
0330
0000
0110
0000
0110
0000
0000
0000
1000
0001
,
0110
0110
0000
1100
0110
0110
0000
1001
,
0022
0000
0033
0000
0022
0000
0033
0000
0011
0000
0011
0000
0000
0000
0010
0100
,
1001
1001
0000
0110
1001
1001
0000
0110
,
0110
0000
0011
0000
1000
0100
0010
0001
,
1100
0000
1100
0110
0000
0000
1001
0000
0000
0000
0011
0100
1010
0100
0010
0001
,
1010
0000
0101
0110
0000
0000
1001
0000
0000
0000
0000
2100
0000
3100
0010
0001
,
0110
0000
0000
0000
1100
0000
0101
0010
2001
0000
3000
0000
1001
0000
0000
0000
0000
0000
0000
0000
1010
0000
0100
0000
0011
0000
0100
0000
1001
0000
0011
0000
,
0110
0000
0000
1100
0000
0000
0120
0000
0000
0000
0030
0000
1001
0000
0010
0000
0101
0000
0000
0000
0011
0000
0000
0000
1100
0000
0000
0000
1010
0000
0000
0000
,
0011
0000
1100
0010
1200
0300
1001
0000
0000
0000
1010
0100
0011
1000
0100
0010
,
0101
0000
0011
0110
0000
0000
1001
0000
0000
0000
0000
1100
0000
0001
0110
0001
,
1010
0000
0000
0000
0110
0000
0011
1000
0120
0000
0030
0000
1001
0000
0000
0000
0000
0000
0000
0000
1000
0000
0100
0000
1000
0000
0100
0000
0010
0000
0001
0000
,
0020
0000
0000
0000
0000
0000
0000
0100
0230
0000
0000
0000
0300
0000
0000
0000
;
