#TITLE:Soular Flares (Speedy Mix);
#SUBTITLE:;
#ARTIST:The Ready Set;
#TITLETRANSLIT:;
#SUBTITLETRANSLIT:;
#ARTISTTRANSLIT:;
#CREDIT:;
#BANNER:flares.png;
#BACKGROUND:flaresBG.png;
#LYRICSPATH:;
#CDTITLE:;
#MUSIC:Soular Flares (Speedy Mix).ogg;
#OFFSET:0.060;
#SAMPLESTART:35.090;
#SAMPLELENGTH:15.000;
#SELECTABLE:YES;
#BPMS:0.000=221.480,222.000=221.480;
#STOPS:;
#BGCHANGES:;
// cache tags:
#FIRSTBEAT:33.500;
#LASTBEAT:480.667;
#SONGFILENAME:Songs/Rodd's Revival/Soular Flares (Speed Mix)(Rodd Steps)/Soular Flares (Speedy Mix)(Rodd Steps).sm;
#HASMUSIC:1;
#HASBANNER:1;
#MUSICLENGTH:132.700;
// end cache tags

//---------------dance-single - R. Farias----------------
#NOTES:
     dance-single:
     R. Farias:
     Challenge:
     10:
     0.962,1.000,0.098,1.000,0.618,725.000,13.000,156.000,60.000,0.000:

0000
0000
0000
0000
,
0000
0000
0000
0000
,
0000
0000
0000
0000
,
0000
0000
0000
0000
,
0000
0000
0000
0000
,
0000
0000
0000
0000
,
0000
0000
0000
0000
,
0000
0000
0000
0000
,
0000
0000
0000
0001
0200
0000
0320
0000
,
2030
3200
0320
0230
,
2300
0000
3002
0000
0103
0020
0000
2030
,
0000
0000
0100
0000
3100
0000
0010
0002
,
0000
0203
0000
0320
0000
0230
0000
0302
,
0000
1003
0100
0010
0001
0010
0200
0000
,
2300
0000
0000
0000
0000
0000
0000
0000
0000
0000
3000
0001
0000
0100
0000
0000
,
0020
0000
0030
0001
0000
0100
0000
0000
0020
0000
0000
1030
0000
0100
0000
0000
,
0010
0001
0010
0100
1000
0001
0100
0010
,
2000
0000
3200
0000
0302
0103
0010
0001
,
0000
0200
0000
0000
0300
0010
1000
0100
,
0010
0000
0000
0001
0000
0000
0100
0000
0001
0000
0000
0100
0000
0000
0010
0000
,
0000
1000
0000
0010
0000
0000
0000
0010
0000
1000
0000
0000
0100
0000
0010
0000
,
0100
1000
0001
0100
0020
0000
2030
0000
,
0000
3000
0100
0000
0010
0000
0001
0000
0200
0000
0000
0000
0320
0000
0030
0000
,
1010
1000
0000
1100
0100
0000
0110
0000
,
0011
0001
0100
0010
0100
0001
1000
0100
,
0010
0100
1000
0001
0200
0000
0310
0000
,
0100
0001
1000
0001
1000
0100
0010
0100
,
2000
0000
0000
3002
0000
0000
0203
0000
0320
0000
0000
0000
0230
0000
0000
0000
,
0302
0000
1003
0100
0001
0100
0010
0001
,
0200
0000
0000
0320
0000
0000
2030
0000
3100
0000
0000
0000
0010
0000
0001
0000
,
0010
0000
0100
0000
1000
0000
0001
0000
0100
0000
0010
0000
1000
0000
0100
1000
,
0100
0000
0010
0000
0001
0000
0100
0000
0010
0000
0100
0000
0001
1000
0001
0000
,
2000
3200
0302
0203
,
0320
0032
0203
2300
,
3200
0000
0320
0000
1030
0200
0000
0320
,
0000
0000
0001
0000
0031
0000
0100
0020
,
0000
0230
0000
0302
0000
2003
0000
3200
,
0000
0310
0001
0100
0010
0100
0002
0000
,
2003
0000
0000
0000
0000
0000
0000
3100
,
0010
0000
0001
0010
0001
0000
0100
0000
0010
0000
0100
0000
0010
0000
1000
0000
,
0200
0000
0000
0310
0002
0000
0203
0000
,
0320
0230
0302
2003
,
3200
0000
0320
0000
0031
0200
0000
0320
,
0000
0000
0000
0000
1030
0000
0000
0000
0100
0000
0010
0100
0010
0000
0002
0000
,
0000
0203
0000
2300
0000
3200
0000
0320
,
0000
1030
0100
0010
0001
0010
0200
0000
,
2300
0000
0000
3002
0000
0000
0203
0000
,
0310
0100
0001
1000
0100
0001
0100
0010
,
0002
0000
0103
0010
2000
0000
3100
0010
,
0200
0000
0310
0001
0200
0000
0310
0100
,
0010
1000
0100
0000
0110
0000
0011
0000
,
0100
0000
0010
0000
1000
0000
0100
0000
0010
0000
0001
0000
0010
0000
0100
0000
1000
0000
0002
0000
0000
0003
0000
0000
,
0101
0100
0010
0100
0001
1000
0100
0001
,
0100
0010
0001
0100
1000
0100
0010
1000
,
0100
0010
0100
1000
0001
0100
0010
0100
,
0002
0003
1001
0000
1100
0000
0110
0000
,
0011
0001
0100
0010
0100
0001
1000
0100
,
0001
0100
0010
0001
0200
0000
0320
0000
,
1030
0100
0010
0100
1000
0001
0100
0010
,
2000
0000
0000
0000
3200
0000
0300
0000
0010
0001
0010
0001
0010
0001
0010
0001
,
0010
0001
0100
0010
1000
0100
0010
0100
,
2000
0000
3002
0203
0000
0310
1000
1000
,
0100
0010
0100
1000
0002
0000
0103
0010
,
0100
0001
1000
0100
0020
0000
0032
0003
,
0101
0100
0010
0100
0001
1000
0100
0010
,
0100
0000
1000
0000
0001
0000
0100
0000
0010
0000
0100
0000
0001
0000
1000
0001
,
1000
0001
1000
0000
0100
0000
0010
0001
0100
0000
0010
1000
0100
0000
0010
0100
,
0010
0100
0010
0000
0100
0000
0010
0001
0100
0000
0010
0000
1000
0000
0001
0000
,
0002
0000
0000
0000
0203
0000
0320
0030
,
0200
0302
2003
3200
,
0302
0000
0203
0000
0310
0002
0000
0203
,
0000
0000
0000
0000
0320
0000
0000
0000
1030
0000
0100
1000
0100
0000
0020
0000
,
0000
0032
0000
0203
0000
0320
0000
2030
,
0000
3100
0010
0100
1000
0001
0200
0000
,
0320
0000
0000
2030
0000
0000
3100
0010
,
0001
0010
0100
1000
0001
0100
0010
1000
,
0200
0320
0032
0023
,
0230
2300
3002
0203
,
2300
0000
3200
0000
0310
2000
0000
3200
,
0000
0000
0000
0000
0000
0000
0300
0000
0010
0000
0001
0010
0001
0000
0020
0000
,
0030
0002
0000
2003
0000
3002
0000
0203
,
0000
0310
1000
0010
1000
0100
2000
0000
,
3002
0203
0320
2030
,
3100
0000
0010
0100
0010
0000
0001
0000
0100
0000
0001
0100
0001
0000
0100
0000
,
0010
1000
0100
0010
0001
0010
0100
1000
0001
0100
0010
1000
,
0001
0100
0010
1000
0100
0010
0100
1000
0001
0100
0010
0100
,
0001
1000
0100
0010
0001
1000
0100
0010
0001
0010
0100
1000
,
0001
0010
0100
1000
0001
0100
0010
0100
0001
1000
0100
0010
,
0100
1000
0001
0100
0010
1000
0100
1000
0010
1000
0100
1000
,
0001
1000
0100
1000
0010
0100
0001
0010
0001
1000
0001
0100
,
0001
0010
0001
0100
0010
1000
0100
0010
0100
0010
0001
0010
,
0001
0000
0100
0000
0001
0000
0100
0000
0010
0000
0100
0000
0010
0000
0000
1000
0000
0000
0100
0000
0000
0010
0000
0000
,
0001
0100
0001
0100
0010
0100
0010
1000
0010
1000
0100
1000
,
0100
1000
0001
1000
0001
0100
0010
1000
0001
0100
0010
1000
,
0100
0010
0001
0010
0100
1000
0001
0100
0010
0100
0001
1000
,
0100
0010
0100
1000
0001
0100
0010
0100
0001
1000
0100
1000
,
0010
0100
0001
0010
0001
0100
0010
1000
0100
1000
0001
0100
,
0001
0000
1000
0000
0100
0000
0010
0000
0100
0000
1000
0000
0001
0000
0100
0000
0010
0000
1000
0000
0000
0100
0000
0000
,
0010
0001
0010
0100
1000
0001
0100
0010
,
0100
0000
0010
0000
1000
0000
0001
0000
1000
0100
1000
0100
1000
0100
1000
0100
,
2000
0000
3100
0010
0002
0000
0203
0000
,
0310
2000
0000
3200
0000
0302
0000
0203
,
0000
0320
0000
0032
0203
0000
0000
M000
,
00M0
000M
00M0
M00M
M000
000M
00M0
00M0
,
000M
0300
0010
1000
0200
0000
0320
0000
,
0130
2000
0000
3002
0000
0203
0000
0320
,
0030
0200
0000
0302
2003
0000
0M00
00M0
,
0M00
000M
00M0
0M00
000M
00M0
0M00
0000
,
0200
3000
0000
0310
0001
0010
0100
1000
,
0001
0100
1000
0100
0010
1000
0100
0001
,
0100
0010
0001
1000
0001
0100
0001
0100
,
0010
0100
0010
1000
0010
1000
0100
1000
,
0001
0100
0010
1000
0100
0010
0001
0010
,
0100
1000
0001
1000
0001
0100
0010
1000
,
0100
1000
0001
0100
0001
1000
0100
1000
,
0010
1000
0001
0010
0001
0010
0001
1000
,
2002
0000
0000
0M00
0000
0000
00M0
0000
0000
0000
0000
0000
0000
0000
0M00
0000
0000
0000
0000
0000
0000
0000
0000
0000
0000
0000
0000
00M0
0000
0000
0M00
0000
0000
0000
0000
0000
0000
0000
0000
0000
0000
0000
0MM0
0000
0000
0000
0000
0000
,
0000
0000
0M00
0000
0000
0000
0000
00M0
0M00
0000
00M0
0000
0000
0000
0000
0M00
,
0000
0000
0000
0000
00M0
0000
0000
0000
0000
0M00
0000
00M0
0000
0000
0M00
0000
,
0000
00M0
0M00
0000
00M0
00M0
0M00
00M0
0M00
0M00
00M0
0M00
0MM0
0MM0
0MM0
0MM0
,
3MM3
0000
MMMM
0000
0000
0000
0000
0000
0000
0000
0000
0000
;
