#TITLE:Sacred Land;
#SUBTITLE:Neverworld (2003);
#ARTIST:Power Quest;
#TITLETRANSLIT:;
#SUBTITLETRANSLIT:;
#ARTISTTRANSLIT:;
#CREDIT:;
#BANNER:sacredlandbn.png;
#BACKGROUND:sacredlandbg.png;
#LYRICSPATH:;
#CDTITLE:Joe Dcd title.png;
#MUSIC:Sacred Land.mp3;
#OFFSET:0.060;
#SAMPLESTART:59.300;
#SAMPLELENGTH:12.000;
#SELECTABLE:YES;
#BPMS:0.000=170.060,217.000=85.020,227.000=170.060,726.500=144.000,727.000=77.000,729.500=72.000,730.000=70.000,730.500=51.000;
#STOPS:;
#BGCHANGES:;
// cache tags:
#FIRSTBEAT:1.000;
#LASTBEAT:734.750;
#SONGFILENAME:Songs/Astronomic Metal Collection 2/(Joe D) Sacred Land/Sacred Land.sm;
#HASMUSIC:1;
#HASBANNER:1;
#MUSICLENGTH:269.069;
// end cache tags

//---------------dance-single - ----------------
#NOTES:
     dance-single:
     :
     Hard:
     11:
     1.000,1.000,0.472,1.000,1.000,1807.000,127.000,273.000,0.000,13.000:
0000
0000
2001
0000
0000
3020
0032
0000
,
2003
3200
0312
0000
2003
0000
3020
0000
,
0000
0030
1002
0000
0000
0013
0020
0230
,
2300
3200
0312
0000
0203
0320
1032
0000
,
0000
0003
1200
0000
0000
0302
0023
0000
,
2030
3200
1302
0000
0203
0000
0320
0000
,
0000
0030
1002
0000
0000
0013
0020
0230
,
2300
0000
3200
0000
0321
0000
0000
0000
2030
0000
3200
0000
0310
0000
0000
0001
,
1000
0000
0110
0000
1000
0010
0001
0100
0001
0100
1000
0010
0001
0100
0001
0100
,
1000
0100
0010
0001
1000
0100
0001
0010
0001
0010
1000
0100
0001
0010
0001
0010
,
1000
0001
1000
0010
0001
0100
1000
0010
1000
0010
0001
0100
1000
0010
1000
0010
,
0001
0010
0100
1000
0001
0010
1000
0100
1000
0100
0001
1000
0100
0010
0100
0010
,
0001
1000
0001
0100
1000
0010
0001
0100
0001
0100
1000
0010
0001
0100
0001
0100
,
1000
0100
0010
0001
1000
0100
0001
0010
0001
0010
1000
0100
0001
0010
0001
0010
,
1000
0001
1000
0010
0001
0100
1000
0010
1000
0010
0001
0100
1000
0010
1000
0010
,
0001
0010
0100
1000
0001
0010
1000
0100
1000
0100
0001
1000
0100
0010
0100
0010
,
0001
1000
0010
0100
2002
0000
0000
0000
0000
0000
0000
0000
0000
0000
0000
0000
,
0000
3003
0020
0000
0000
0000
0230
0000
,
0000
0000
0000
0000
1301
0000
0010
0000
0100
1000
0100
0000
0001
0000
0010
0000
,
1000
0001
1000
0000
0011
0000
0100
0000
1000
0010
1000
0000
0001
0000
0010
0000
,
1000
0100
0010
0000
1001
0000
0010
0000
1000
0100
1000
0000
0010
0000
0001
0000
,
0100
0010
0100
0000
0011
0000
1000
0000
0100
0010
0001
0000
1000
0000
0010
0000
,
0100
0001
0100
0000
1010
0000
0001
0000
0100
0010
0100
0000
1000
0000
0010
0000
,
0100
0010
0001
0000
0110
0000
1000
0000
0001
0010
0001
0000
1000
0000
0010
0000
,
1000
0001
0010
0000
1100
0000
0100
0000
0001
0010
0001
0000
1000
0000
0100
0000
,
0010
1000
0010
0000
0101
0000
1000
0000
0010
0100
0010
0000
1001
0000
0000
0001
,
1000
0000
0000
0000
0120
0030
1000
0100
1000
0100
1000
0100
1000
0100
1000
0100
,
1000
0100
1000
0100
0010
0000
0001
0100
0001
0100
0001
0100
0001
0100
0001
0100
,
0001
0100
0001
0100
0010
0000
0001
1000
0001
1000
0001
1000
0001
1000
0001
1000
,
0001
1000
0001
1000
0100
0000
0001
0010
0001
0010
0001
0010
0001
0010
0001
0010
,
0001
0010
0001
0010
1000
0000
0100
0010
0100
0010
0100
0010
0100
0010
0100
0010
,
0100
0010
0100
0010
0001
0000
1000
0010
1000
0010
1000
0010
1000
0010
1000
0010
,
1000
0010
1000
0010
0100
0000
0001
1000
0001
1000
0001
1000
0001
1000
0001
1000
,
0001
1000
0001
1000
0100
0000
0010
0001
0010
0001
0010
0001
0010
0001
0010
0001
,
0010
0001
0010
0001
0100
0000
1000
0100
0010
0001
1000
0001
0010
0000
1000
0100
,
1000
0001
0100
0010
2001
0000
0001
0000
0000
0000
3001
0000
0210
0000
0010
0000
,
0000
0000
0010
0000
1301
0000
1000
0001
1000
0010
0100
0010
0001
0000
1000
0100
,
1000
0100
0010
0001
2100
0000
0100
0000
0000
0000
3100
0000
0012
0000
0010
0000
,
0000
0000
0013
0000
0100
0000
1000
0001
1000
0010
0100
1000
0002
0003
0010
0100
,
1000
0010
1000
0001
0020
0030
1000
0100
1000
0001
1000
0010
0200
0300
0010
0001
,
0010
0100
1000
0001
1000
0000
0001
0010
0001
0010
0001
0010
0001
0000
1000
0100
,
1000
0100
1000
0100
2001
0000
0001
0000
0000
0000
3001
0000
0110
0000
0000
0100
,
1000
0000
0001
0100
1001
0100
0010
0001
1000
0001
1000
0010
1000
0100
0010
0001
,
0100
0001
0010
0100
1010
0001
1000
0001
1000
0100
0010
0100
1000
0001
0100
0001
,
0010
0100
1000
0001
0110
1000
0100
0010
0001
1000
0001
1000
0100
1000
0010
0100
,
0010
0001
1000
0001
2100
0000
0100
0000
0000
0000
0100
0000
0000
0000
0100
0000
,
0000
0000
3100
0000
1001
0010
0100
0010
0001
1000
0001
0100
0010
0100
1000
0100
,
1000
0001
0100
0010
0101
1000
0010
1000
0100
1000
0001
0100
0001
0010
0100
1000
,
0010
1000
0100
1000
0011
1000
0010
0100
0010
0001
0100
0001
0010
0001
0100
0001
,
0010
0100
1000
0001
0210
0000
0010
0000
0000
0000
0310
0000
1001
0000
0000
0010
,
0100
0000
0001
1000
0110
0001
1000
0100
0010
0001
0100
0001
0010
0100
1000
0100
,
0010
0100
0010
0001
1100
0010
1000
0010
0100
0010
0001
1000
0001
1000
0010
0001
,
1000
0100
1000
0001
0110
0001
0100
0001
0010
0100
1000
0100
0010
0001
1000
0001
,
1000
0100
0010
1000
0102
0000
0100
0000
0000
0000
0100
0000
0000
0000
0100
0000
,
0000
0000
0103
0000
2010
0000
0001
0200
0000
0000
0300
3000
0012
0000
0100
2000
,
0003
3000
0200
0000
2302
0000
0000
0000
0000
0000
3003
0000
2200
0000
0000
0000
,
3300
0000
0020
0000
0232
0000
0000
0000
0303
0000
0020
0230
1301
0000
0000
1000
,
0100
0010
1001
0100
1001
0100
0120
0000
,
0000
0000
0000
0000
0000
0000
0000
0030
0020
0000
0000
0000
0000
0000
0000
0000
0000
0000
0000
0000
0000
0000
0000
0000
0230
0000
0000
0000
0000
0000
0000
0000
0300
0000
0000
0000
0000
0000
0000
0000
1000
0000
0000
0000
0000
0000
0000
0000
0020
0000
0000
0000
0000
0000
0000
0000
0000
0000
0000
0000
0000
0000
0000
0000
,
0000
0000
0000
0000
0000
0000
0000
0030
0020
0000
0000
0000
0000
0000
0000
0000
0000
0000
0000
0000
0000
0000
0000
0000
0230
0000
0000
0000
0000
0000
0000
0000
0000
0000
0000
0000
0000
0000
0000
0000
0302
0000
0000
0000
0000
0000
0000
0000
0023
0000
0000
0000
0000
0000
0000
0000
0000
0000
0000
0000
0000
0000
0000
0000
,
0000
0000
0000
0000
0000
0000
0000
0030
0020
0000
0000
0000
0000
0000
0000
0000
0000
0000
0000
0000
0000
0000
0000
0000
2030
0000
0000
0000
0000
0000
0000
0000
0000
0000
0000
0000
0000
0000
0000
0000
3001
0000
0000
0000
0000
0000
0000
0000
0020
0000
0000
0000
0000
0000
0000
0000
0000
0000
0000
0000
0000
0000
0000
0000
,
0031
0000
0020
0000
0000
0000
0000
0000
0000
0000
1030
0100
0001
0010
0100
1000
,
0001
0010
0100
1000
0010
0100
0001
1000
0010
0100
0001
1000
0001
0010
1000
0100
,
0001
0010
1000
0100
0010
0001
0010
0100
1000
0100
0010
0001
1000
1000
0010
0010
,
0001
0001
0100
0100
1000
1000
0010
0010
0100
0100
0001
0001
0020
0000
0000
0000
,
2030
3200
0000
0000
0000
0300
0020
0000
,
0000
0000
0000
0000
0000
0030
0002
0000
,
0000
0000
0003
0020
0000
0000
0230
0000
,
0000
0000
0000
0300
0000
0000
0001
0010
0100
1000
0100
0010
0001
0010
0100
1000
0100
0010
0001
0010
0100
0001
0010
0100
,
1000
0000
0100
0000
0001
0000
1000
0000
0100
0000
0001
0000
0020
0000
0000
0000
0000
0000
0000
0000
0000
0000
0000
0000
0000
0000
0000
0000
0000
0000
2030
0000
0000
0000
0000
0000
3002
0000
0000
0023
0000
0000
0032
0000
0000
0023
0000
0000
,
0032
0023
0130
1000
0200
0000
0000
0000
0000
0000
0301
0010
0002
0000
0000
0000
,
0003
0200
2300
0000
0000
3000
0002
0000
,
0000
0000
0000
0000
0000
0000
0023
0000
0000
0000
0000
0000
0000
0000
0000
0000
0000
0000
0030
0000
0000
1000
0100
0010
,
0100
1000
0001
1000
0010
0100
0010
0001
0010
0100
1000
0001
0010
0100
1000
0001
0010
0100
0020
0000
0000
0000
0000
0000
,
0000
0000
0230
0300
0000
0000
0020
0030
0000
0000
1000
0000
0020
0000
0030
0000
,
0100
0002
0000
0103
0010
1000
0002
0000
,
0000
0000
0023
0030
0000
0000
0200
0300
0000
0000
0001
0000
1000
0000
0000
0000
,
0100
0000
0020
0000
0000
0000
1030
0001
0100
0000
0010
0000
0001
0010
0100
1000
,
0001
0010
0001
0010
0100
1000
0001
0100
0001
0100
1000
0001
1000
0100
0010
0001
,
1000
0010
1000
0010
0100
0001
1000
0100
1000
0100
0010
0001
0010
1000
0100
0001
,
0010
0100
0010
0100
1000
0001
0010
0100
0010
0100
1000
0100
0001
0001
1000
1000
,
0010
0010
0001
0001
0010
0010
1000
1000
0010
0010
0001
0001
1000
0100
0010
0001
,
1000
0100
0010
0001
1000
0100
0010
0001
1000
0100
0010
0001
0020
0000
0000
0000
,
0000
0000
1030
0000
0001
0000
0000
0010
0000
0000
1000
0000
0100
0000
0000
0001
,
0000
0000
0010
0000
1000
0000
0000
0100
0000
0000
0001
0010
0100
0000
0000
1000
,
0000
0000
0010
0000
0100
0000
0000
0001
0000
0000
1000
0000
0020
0000
0000
0000
,
0030
0000
0200
0300
0000
0000
0002
0000
,
0000
0000
0003
0000
0100
0020
0000
0000
0000
0000
0030
0000
1000
0100
1000
0010
,
1000
0100
1000
0010
0001
0100
0001
0010
0001
0100
0001
0010
0100
1000
0100
0001
,
0100
0010
0100
1000
0010
0001
0010
1000
0010
0100
0010
0001
0120
0000
0000
0000
,
0000
0000
0030
1000
0100
0001
0020
0000
,
0000
0000
0000
0031
0100
1000
0002
0000
,
0003
0020
0000
0030
2000
3000
0002
0000
,
0003
0000
0010
0100
2000
0000
0000
0000
3010
0000
0001
0000
0020
0000
0000
0000
,
0000
0000
0000
0000
0030
0000
0000
0200
0000
0300
0000
0010
0002
0000
0000
0000
,
0003
0000
0000
0000
0100
0000
0000
1000
0000
0000
0001
0000
0010
0000
0000
1000
,
0000
0000
0001
0000
0100
0000
0000
1000
0000
0000
0001
0100
0020
0000
0000
0000
,
0000
0000
0000
0000
0200
0000
0000
0000
0000
0000
0330
0000
0010
0100
1000
0100
,
0001
1000
0010
1000
0001
0100
0010
0100
0001
0010
0100
1000
0001
0100
1000
0010
,
0001
0100
1000
0010
0001
0100
0010
0100
0001
0010
0100
1000
0020
0000
0000
0000
,
0000
0000
0000
0130
1000
0100
0010
0000
0000
0001
0000
0000
0010
0000
0000
1000
0000
0000
0200
0000
0000
0000
0000
0000
,
0300
0000
0100
0010
0001
0000
1000
0000
0010
0000
0100
0000
0020
0000
0000
0000
,
0030
0000
1000
0100
0002
0000
0000
0000
0003
0000
0010
0000
0200
0000
0000
0000
,
0300
0000
0001
0000
0020
0000
0000
0000
0000
0000
0000
0000
1130
0000
0000
0110
,
0000
0000
0011
0000
0110
0000
0000
1001
0000
0000
1100
0000
0110
0000
0000
0011
,
0000
0000
0110
0000
1001
0000
0000
0010
0100
0000
1000
0001
0120
0000
0000
0000
,
0000
0000
0000
0032
,
0000
0000
2003
0000
0000
3000
0002
0010
,
0000
0023
0032
0100
2003
3200
0302
0010
,
2003
0010
3020
0100
0000
0130
0002
1000
,
0000
0013
0020
0230
2300
3200
0302
1000
,
0203
0320
0032
1000
0000
1003
0200
0010
,
0000
0302
0023
0100
2030
3200
0302
1000
,
0203
0010
0320
0100
0000
0130
0002
1000
,
0000
0013
0020
0230
2300
3200
0320
0001
,
2030
3200
0320
0001
0000
0001
0032
0100
,
0000
2003
3200
0010
0302
1000
0023
0100
,
0000
0100
0000
0100
0000
0130
0002
0010
,
0000
0203
2300
0001
3020
0100
0230
1000
,
0302
0023
2030
0010
0000
0010
3002
0010
,
0000
2003
3200
0010
0302
1000
0023
0100
,
0000
0032
0203
0010
2300
0001
3020
0001
,
0000
0130
0200
1000
0302
0010
0023
0100
,
0032
0000
0203
0000
2300
0000
0100
0000
0000
0000
3100
0000
0010
0000
1000
0100
,
0010
0001
1000
0001
0010
0000
1000
0100
1000
0001
0100
0010
2001
0000
0001
0000
,
0000
0000
3001
0000
0210
0000
0010
0000
0000
0000
0010
0000
1301
0000
1000
0001
,
1000
0010
0100
0010
0001
0000
1000
0100
1000
0100
0010
0001
2100
0000
0100
0000
,
0000
0000
3100
0000
0012
0000
0010
0000
0000
0000
0013
0000
0100
0000
1000
0001
,
1000
0010
0100
1000
0002
0003
0010
0100
1000
0010
1000
0001
0020
0030
1000
0100
,
1000
0001
1000
0010
0200
0300
0010
0001
0010
0100
1000
0001
1000
0000
0001
0010
,
0001
0010
0001
0010
0001
0000
1000
0100
1000
0100
1000
0100
2001
0000
0001
0000
,
0000
0000
3001
0000
0110
0000
0000
0100
1000
0000
0001
0100
1001
0100
0010
0001
,
1000
0001
1000
0010
1000
0100
0010
0001
0100
0001
0010
0100
1010
0001
1000
0001
,
1000
0100
0010
0100
1000
0001
0100
0001
0010
0100
1000
0001
0110
1000
0100
0010
,
0001
1000
0001
1000
0100
1000
0010
0100
0010
0001
1000
0001
1100
0010
0001
1000
,
0001
0010
0100
1000
0001
1000
0010
0100
0010
0001
0010
0100
1001
0010
0100
0010
,
0001
1000
0001
0100
0010
0100
1000
0100
1000
0001
0100
0010
0101
1000
0010
1000
,
0100
1000
0001
0100
0001
0010
0100
1000
0010
1000
0100
1000
0011
1000
0010
0100
,
0010
0001
0100
0001
0010
0001
0100
0001
0010
0100
1000
0001
0110
1000
0001
1000
,
0100
0010
0001
1000
0010
1000
0100
0010
0001
0100
0001
1000
0110
0001
1000
0100
,
0010
0001
0100
0001
0010
0100
1000
0100
0010
0100
0010
0001
1100
0010
1000
0010
,
0100
0010
0001
1000
0001
1000
0010
0001
1000
0100
1000
0001
0110
0001
0100
0001
,
0010
0100
1000
0100
0010
0001
1000
0001
1000
0100
0010
1000
0101
0010
0100
1000
,
0001
1000
0010
0100
0010
0001
0100
0001
0010
0100
1000
0001
0100
1000
0100
1000
,
0100
0010
0001
0100
0001
0100
0001
0100
0001
0100
0001
0100
0010
0001
0010
0001
,
0010
0100
1000
0001
1000
0001
1000
0001
0100
0010
0100
0010
0101
0000
1000
0000
,
0110
0001
1100
0010
1001
0110
0011
1000
,
0110
1000
0101
0010
1100
0011
1001
0010
,
1100
0011
1010
0100
0011
0100
1010
0100
,
0011
1000
0011
0100
0011
1000
1010
0010
,
0101
0010
1100
0010
0011
1100
1010
0001
,
1100
0001
0110
1000
0011
0110
1100
0001
,
1001
0110
1100
0001
1010
1000
0110
0001
,
0110
0000
1000
0000
0110
0000
1000
0001
1000
0000
0010
0100
1010
0001
1000
0100
,
0010
0001
0100
0001
0010
0100
1000
0100
0010
0100
0010
0001
1100
0010
1000
0010
,
0100
0010
0001
1000
0001
1000
0010
0001
1000
0100
1000
0001
0110
0001
0100
0001
,
0010
0100
1000
0100
0010
0001
1000
0001
1000
0100
0010
1000
0012
0000
0010
0000
,
0000
0000
0010
0000
0000
0000
0010
0000
0000
0000
0013
0000
0100
1000
0100
1000
,
0100
0010
0001
0100
0001
0100
0001
0100
0001
0100
0001
0100
0010
0001
0010
0001
,
0010
0100
1000
0001
1000
0001
1000
0001
0100
0010
0100
0010
1000
0100
0010
0001
,
0100
0010
0100
0010
1000
0001
1000
0100
0010
0001
0010
0001
1000
0100
0001
0010
,
1000
0100
1000
0100
0001
0010
0100
0010
1000
0001
1000
0001
1000
0100
0010
0001
,
0100
0010
0100
0010
1000
0001
1000
0100
0010
0001
0010
0001
1000
0100
0001
0010
,
1000
0100
1000
0100
0001
0010
0100
0010
1000
0001
1000
0001
0210
0000
0000
0000
,
0010
0000
0000
0000
0000
0000
0000
0000
0010
0000
2300
0000
3110
0000
0000
0001
,
0010
0000
1000
0100
1000
0000
0000
0010
0001
0000
0100
0010
1002
0000
0010
0000
,
0000
0023
0032
0100
2003
3200
0302
0010
,
2003
0010
3020
0100
0000
0130
0002
1000
,
0000
0013
0020
0230
2300
3200
0302
1000
,
0203
0320
0032
1000
0000
1003
0200
0010
,
0000
0302
0023
0100
2030
3200
0302
1000
,
0203
0010
0320
0100
0000
0130
0002
1000
,
0000
0013
0020
0230
2300
3200
0320
0001
,
2030
3200
0320
0001
0000
0001
0032
0100
,
0000
2003
3200
0010
0302
1000
0023
0100
,
0000
0100
0000
0100
0000
0130
0002
0010
,
0000
0203
2300
0001
3020
0100
0230
1000
,
0302
0023
2030
0010
0000
0010
3002
0010
,
0000
2003
3200
0010
0302
1000
0023
0100
,
0000
0032
0203
0010
2300
0001
3020
0001
,
0000
0130
0200
1000
0302
0010
0023
0100
,
0032
0203
2300
0100
0000
3100
0220
0000
,
0330
0000
0001
0001
0020
0000
0030
2000
0000
3000
0020
0030
2002
0000
0000
0000
,
0000
0000
0000
0000
0000
0000
0000
0000
0000
0000
0000
3003
0000
0000
0000
0000
;
