#TITLE:Oh Delia;
#SUBTITLE:;
#ARTIST:Beek;
#TITLETRANSLIT:;
#SUBTITLETRANSLIT:;
#ARTISTTRANSLIT:;
#CREDIT:Arvin;
#BANNER:../Tachyon Delta-bn.png;
#BACKGROUND:../Tachyon Delta-bg.png;
#LYRICSPATH:;
#CDTITLE:;
#MUSIC:delia.ogg;
#OFFSET:0.005;
#SAMPLESTART:26.103;
#SAMPLELENGTH:12.000;
#SELECTABLE:YES;
#BPMS:0.000=230.180;
#STOPS:;
#BGCHANGES:;
// cache tags:
#FIRSTBEAT:16.000;
#LASTBEAT:387.000;
#SONGFILENAME:Songs/Tachyon Delta/Oh Delia - [Arvin]/delia.sm;
#HASMUSIC:1;
#HASBANNER:1;
#MUSICLENGTH:104.211;
// end cache tags

//---------------dance-single - Arvin----------------
#NOTES:
     dance-single:
     Arvin:
     Challenge:
     16:
     1.000,1.000,0.067,1.000,1.000,712.000,7.000,105.000,12.000,0.000:

0000
0000
0000
0000
,
0000
0000
0000
0000
,
0000
0000
0000
0000
,
0000
0000
0000
0000
,
1001
0000
1010
0000
,
0101
0000
1100
0000
,
0011
0000
1001
0000
,
1100
0000
1000
0100
1000
0100
0010
0000
,
0002
0023
0230
2300
,
0000
0000
0000
0000
0000
0000
3001
0100
,
0020
0000
0000
0000
0000
0000
0000
0000
2030
0000
0000
0000
0000
0000
0000
0000
3002
0000
0000
0000
0000
0000
0000
1003
0002
0000
0000
0000
0000
0000
0000
0000
,
0000
0023
0230
2300
,
3002
0203
0320
2030
,
0000
0000
0000
3002
0000
0000
0023
0000
,
0230
0000
0000
0000
,
0300
0100
0100
0100
,
2000
3200
0320
0032
,
0000
0000
0000
0000
0000
0000
1003
0010
,
0200
0000
0000
0000
0000
0000
0000
0000
0302
0000
0000
0000
0000
0000
0000
0000
2003
0000
0000
0000
3000
0000
0000
0001
2000
0000
0000
0000
0000
0000
0000
0000
,
0000
3200
0320
0032
,
2003
3020
0230
0302
,
0000
0000
2003
3000
0001
0010
0100
2000
,
0000
0000
0000
0000
,
0000
0000
0000
0000
3000
0001
0001
0001
,
1000
0100
0010
0001
1000
0001
1000
0100
0010
0001
1000
0010
0100
0001
0100
0001
,
1000
0010
0100
0001
0100
0010
1000
0001
1000
0001
0010
0100
1000
0001
1000
0001
,
0010
0100
1000
0100
0010
0001
1000
0001
1000
0010
0100
0001
0100
0001
1000
0010
,
1000
0001
0010
0100
1000
0001
1000
0001
0100
0010
1000
0010
0100
0001
0100
0001
,
1000
0010
0100
0001
1000
0001
1000
0010
0100
0001
1000
0001
1000
0100
0010
0001
,
0100
0010
1000
0001
1000
0001
0100
0010
1000
0001
1000
0001
0010
0100
1000
0001
,
1000
0010
0100
0001
1000
0001
1000
0010
0100
0001
1000
0001
1000
0100
0010
0001
,
1000
0001
0010
0100
1000
0001
1000
0010
0100
0001
0100
0010
1000
0010
1000
0001
,
1000
0100
0010
0001
1000
0001
1000
0100
0010
0001
1000
0010
0100
0001
0100
0001
,
1000
0010
0100
0001
0100
0010
1000
0001
1000
0001
0010
0100
1000
0001
1000
0001
,
0010
0100
1000
0100
0010
0001
1000
0001
1000
0010
0100
0001
0100
0001
1000
0010
,
1000
0001
0010
0100
1000
0001
1000
0001
0100
0010
1000
0010
0100
0001
0100
0001
,
1000
0010
0100
0001
1000
0001
1000
0010
0100
0001
1000
0001
1000
0100
0010
0001
,
0100
0010
1000
0001
1000
0001
0100
0010
1000
0001
1000
0001
0010
0100
1000
0001
,
1000
0010
0100
0001
1000
0001
1000
0010
0100
0001
1000
0001
1000
0100
0010
0001
,
1000
0001
0010
0100
1000
0001
1000
0010
0100
0001
0100
0010
1000
0010
1000
0001
,
2000
3200
0320
0032
,
0000
0000
0000
0000
0000
0000
1003
0010
,
0200
0000
0000
0000
0000
0000
0000
0000
0302
0000
0000
0000
0000
0000
0000
0000
2003
0000
0000
0000
0000
0000
0000
3001
2000
0000
0000
0000
0000
0000
0000
0000
,
0000
3002
0023
0230
,
2300
3020
0230
0302
,
0000
0000
1003
0200
0000
0000
0320
0000
,
0032
0000
0000
0000
,
0003
0001
0001
0001
,
2000
3020
0230
0302
,
0000
0000
0000
0000
0000
0000
1003
0100
,
0020
0000
0000
0000
0000
0000
0000
0000
0032
0000
0000
0000
0000
0000
0000
0000
2003
0000
0000
0000
0000
0000
0000
3001
2000
0000
0000
0000
0000
0000
0000
0000
,
0000
3002
0023
0230
,
2300
3020
0230
0302
,
0000
0000
2003
0000
3001
0010
0100
2000
,
0000
0000
0000
0000
0000
0000
0000
3000
,
0000
0001
0100
0010
1000
0001
0010
0100
,
2000
3020
0230
0302
,
0000
0000
0000
0000
0000
0000
1003
0100
,
0020
0000
0000
0000
0000
0000
0000
0000
0032
0000
0000
0000
0000
0000
0000
0000
2003
0000
0000
0000
0000
0000
0000
3001
2000
0000
0000
0000
0000
0000
0000
0000
,
0000
3020
0230
0302
,
2003
3200
0320
0032
,
0000
0000
1003
0002
0000
0000
2003
0000
,
3020
0000
0000
0000
,
0030
1000
1000
1000
,
0002
0023
0230
2300
,
0000
0000
0000
0000
0000
0000
3001
0100
,
0020
0000
0000
0000
0000
0000
0000
0000
2030
0000
0000
0000
0000
0000
0000
0000
3002
0000
0000
0000
0000
0000
0000
1003
0002
0000
0000
0000
0000
0000
0000
0000
,
0000
2003
3020
0230
,
0302
0023
0230
2300
,
0000
0000
3002
0000
1003
0100
0010
0002
,
0000
0000
0000
0000
,
0003
MMMM
MMMM
MMMM
,
1000
0010
0100
0001
1000
0001
1000
0010
0100
0001
1000
0100
0010
0001
0010
0001
,
1000
0100
0010
0001
0010
0100
1000
0001
1000
0001
0100
0010
1000
0001
1000
0001
,
0100
0010
1000
0010
0100
0001
1000
0001
1000
0100
0010
0001
0010
0001
1000
0100
,
1000
0001
0100
0010
1000
0001
1000
0001
0010
0100
1000
0100
0010
0001
0010
0001
,
1000
0100
0010
0001
1000
0001
1000
0100
0010
0001
1000
0001
1000
0010
0100
0001
,
0010
0100
1000
0001
1000
0001
0010
0100
1000
0001
1000
0001
0100
0010
1000
0001
,
1000
0100
0010
0001
1000
0001
1000
0100
0010
0001
1000
0001
1000
0010
0100
0001
,
1000
0001
0100
0010
1000
0001
1000
0100
0010
0001
0010
0100
1000
0100
1000
0001
,
1000
0010
0100
0001
1000
0001
1000
0010
0100
0001
1000
0100
0010
0001
0010
0001
,
1000
0100
0010
0001
0010
0100
1000
0001
1000
0001
0100
0010
1000
0001
1000
0001
,
0100
0010
1000
0010
0100
0001
1000
0001
1000
0100
0010
0001
0010
0001
1000
0100
,
1000
0001
0100
0010
1000
0001
1000
0001
0010
0100
1000
0100
0010
0001
0010
0001
,
1000
0100
0010
0001
1000
0001
1000
0100
0010
0001
1000
0001
1000
0010
0100
0001
,
0010
0100
1000
0001
1000
0001
0010
0100
1000
0001
1000
0001
0100
0010
1000
0001
,
1000
0100
0010
0001
1000
0001
1000
0100
0010
0001
1000
0001
1000
0010
0100
0001
,
1000
0001
0100
0010
1000
0001
1000
0100
0010
0001
0010
0100
1000
0100
0010
0001
,
1000
0000
0100
0000
0010
0000
0001
0100
,
0000
0001
0010
0001
,
1000
0000
0010
0000
0100
0000
0001
0010
,
0000
0001
0100
0001
,
1000
0000
0100
0000
0010
0000
0001
0100
,
0000
0001
0010
0001
,
1000
0000
0010
0000
0100
0000
0001
0010
,
0000
0001
0100
0001
,
1000
0000
0000
1000
0000
0000
1000
0000
;
