#TITLE:강남스타일;
#SUBTITLE:;
#ARTIST:싸이;
#TITLETRANSLIT:GANGNAM STYLE;
#SUBTITLETRANSLIT:;
#ARTISTTRANSLIT:PSY;
#CREDIT:owenviau1;
#BANNER:BN.PNG;
#BACKGROUND:BG.PNG;
#LYRICSPATH:;
#CDTITLE:ov1_title.png;
#MUSIC:PSY - GANGNAM STYLE.mp3;
#OFFSET:-18.680;
#SAMPLESTART:69.100;
#SAMPLELENGTH:29.999;
#SELECTABLE:YES;
#BPMS:0.000=132.000;
#STOPS:;
#BGCHANGES:;
// cache tags:
#FIRSTBEAT:0.000;
#LASTBEAT:514.000;
#SONGFILENAME:Songs/Owenviau1 Simfiles 4/GANGNAM STYLE - PSY [owenviau1]/sm.sm;
#HASMUSIC:1;
#HASBANNER:1;
#MUSICLENGTH:252.403;
// end cache tags

//---------------dance-single - ----------------
#NOTES:
     dance-single:
     :
     Challenge:
     10:
     0.655,0.837,0.891,0.119,0.184,902.000,225.000,30.000,216.000,0.000:

1000
0100
0010
1001
0001
0100
0010
1000
,
0010
0100
0001
0010
0110
1001
0001
0100
,
0101
0001
0010
0100
0010
0001
1000
0010
,
0101
0010
1000
0100
1001
1001
0100
1000
,
1001
0001
0010
0100
0010
0001
0100
0010
,
1000
0010
0100
0001
1000
1001
0001
0100
,
0010
1000
0100
0010
0100
0010
0001
1000
,
1010
0000
0000
0110
0000
0000
1001
0000
0110
0000
0000
1100
0000
0000
1001
0000
,
1100
0100
0110
0100
1000
0100
0010
0001
,
1000
0000
0010
1000
0010
0000
0100
0000
0001
0000
0010
0000
0011
0000
0001
0000
,
1000
0000
0010
0100
0010
0000
1000
0000
0100
0000
0010
0000
0011
0000
0100
0000
,
1000
0000
1000
0100
0001
0000
1000
0000
0010
0000
0100
0000
0011
0000
0001
0000
,
0010
0000
0100
1000
0100
0000
1000
0000
0001
0000
0100
0000
1010
0000
0010
0000
,
0100
0000
0001
0010
0100
0000
0010
0000
0001
0000
1000
0000
1010
0000
0010
0000
,
0100
0000
0001
0010
0100
0000
1000
0000
0010
0000
0100
0000
0101
0000
0001
0000
,
0011
0000
0000
0110
0000
0000
1100
0000
0110
0000
0000
1001
0000
0000
0110
0000
,
0011
1000
0001
0010
0100
1000
0001
0100
,
0010
0000
1000
0010
0100
0000
0001
0000
0010
0000
0100
0000
0010
0000
0001
0000
,
0011
0000
0001
0000
1000
0000
2M1M
0000
3010
0000
0100
0000
0001
0000
0010
0100
,
0010
0000
0001
0000
1000
0000
2MM1
0000
3001
0100
0010
0000
1000
0000
0010
0000
,
0101
0000
0001
0000
0010
0100
0010
0000
0001
0000
1000
0000
0100
0000
1000
0000
,
1001
0000
0001
0100
0010
0000
1000
0000
0010
0000
0100
0000
0001
0000
0010
0000
,
0011
1000
0001
21MM
3100
0010
0001
1000
,
1001
0000
0001
0100
0010
0000
1M2M
0000
1030
0000
0010
0000
0100
0000
0001
0000
,
0010
0100
0010
0001
1000
0100
0010
0001
,
2002
0000
0000
3003
0202
0000
0000
0303
2020
0000
0000
3030
0220
0000
0000
0330
,
1000
0100
0010
0001
1000
0010
0100
0010
1000
0100
0010
0001
1000
0010
0100
0001
,
0020
0000
0030
0000
,
0000
0000
1000
0001
0100
0010
1000
0001
,
1001
0000
0001
0100
0010
0000
1000
0000
0010
0000
0100
0000
0101
0000
0001
0000
,
0011
0000
0001
1000
0010
0000
0100
0000
0011
0000
0001
0000
0110
0000
0100
0000
,
1100
0000
1000
0001
0100
0000
0101
0000
0001
0000
1001
0000
1000
0000
1010
0000
,
0110
0010
1000
0001
0101
0001
0011
1000
,
1100
0000
0100
0010
0001
0000
1000
0000
0010
0000
1000
0000
0101
0000
0001
0010
,
0001
0000
0001
0010
0001
0000
1000
0000
1001
0000
0001
0000
0101
0000
0100
0000
,
0110
0000
0010
1000
0010
0000
0110
0000
0010
0000
1010
0000
1000
0000
1001
0000
,
1001
0000
0000
0101
0000
0000
1010
0000
0110
0000
0000
1001
0000
0000
1001
0000
,
0110
0000
1000
0000
0001
0000
0100
0000
0010
0000
1000
0000
0100
0000
0010
0001
,
0010
0100
1001
0001
0101
0100
0110
0010
,
1010
0000
1000
0001
0010
0000
0011
0000
0001
0000
1001
0000
0100
0000
0101
0000
,
1001
0100
1100
0001
0110
0001
0011
0100
,
1001
0000
0001
0100
0010
0000
1000
0000
0010
0000
0100
0000
0001
0000
0010
0100
,
0010
0001
1001
0010
0101
1000
0110
0010
,
1010
0000
1000
0100
0010
0000
0011
0000
0100
0000
1001
0000
0001
0000
0110
0000
,
1010
0000
0000
0110
0000
0000
1010
0000
0110
0000
0000
1001
0000
0000
0101
0000
,
1001
0100
0010
0001
1000
0010
0100
0001
,
0010
0000
0100
0010
0001
0000
1000
0000
1001
0000
1001
0000
0001
0000
0100
0000
,
1010
0010
1000
0100
0010
0001
0010
0100
,
0010
0001
1000
0010
0101
1001
0001
1000
,
0110
0000
0001
1000
0100
0000
1000
0000
0001
0000
0100
0000
0010
0000
1000
0000
,
0010
0000
0100
0001
0010
0000
1000
0000
0101
0000
0011
0000
0100
0000
0001
0000
,
1000
0000
0010
0100
0010
0000
1000
0000
0100
0000
0010
0000
0001
0000
0010
0000
,
1001
0000
0000
0110
0000
0000
0101
0000
1001
0000
0000
1010
0000
0000
0110
0000
,
1001
0100
0010
0001
1000
0100
0011
0010
,
0100
1000
1001
0001
0100
0010
1010
0100
,
0001
0000
0010
0100
0010
0000
0001
0000
1000
0000
0100
0000
1001
0000
0001
0000
,
0100
0000
0010
1000
0010
0000
0100
0000
0001
0000
0010
0000
0110
0000
0100
0000
,
1000
0000
0001
0100
0001
0000
0010
0000
0100
0000
0010
0000
0011
0000
0001
0000
,
1000
0000
0100
0010
0100
0000
1000
0000
0100
0000
0001
0000
0101
0000
0001
0000
,
0010
0000
0100
0001
0010
0000
0100
0000
1000
0000
0001
0000
1001
0000
0010
0000
,
0101
0000
0000
1010
0000
0000
0110
0000
1001
0000
0000
1001
0000
0000
0110
0000
,
0011
1000
0100
0010
0001
0010
0100
1000
,
0001
0000
0100
0000
0010
1000
0010
0000
0100
0000
0001
0000
0010
0000
0100
0000
,
0110
0000
0100
1000
0001
0000
2MM1
0000
3001
0000
0100
0000
0010
0000
1000
0010
,
0100
0000
0001
0000
0010
0000
MM21
0000
0031
1000
0100
0000
0010
0000
0001
0000
,
0110
0100
1100
1000
0001
0100
0010
1000
,
0010
0000
0100
0001
0010
0000
0100
0000
0010
0000
0001
0000
1000
0000
0010
0000
,
1010
0000
0010
0100
0001
0000
M2M1
0000
0301
0000
0010
0000
0100
0000
1000
0000
,
1001
0000
0001
0100
0010
0000
2M1M
0000
3010
0000
0100
0000
0001
0000
1000
0000
,
0100
0010
0100
1000
0100
0001
0100
0010
,
2002
0000
0000
3003
0202
0000
0000
0303
0022
0000
0000
0033
0220
0000
0000
0330
,
1000
0100
0010
0001
0010
0100
1000
0001
0010
0100
1000
0100
0010
0001
1000
0001
,
0200
0000
0300
0000
,
0000
0000
1000
0001
0100
0010
1000
0001
,
1001
0000
0001
0100
0010
0000
1000
0000
0001
0000
0010
0000
0011
0000
0001
0000
,
1000
0000
0100
0010
0100
0000
0010
0000
0011
0000
0001
0000
1001
0000
1000
0000
,
1010
0000
0010
0100
0001
0000
0101
0000
0001
0000
1001
0000
1000
0000
1100
0000
,
0110
0001
0011
0001
1000
0010
0100
0001
,
0101
0000
0001
1000
0100
0000
0010
0000
0001
0000
0010
0000
0110
0000
0100
0000
,
1000
0000
0001
0100
0001
0000
1000
0000
1010
0000
0010
0000
0110
0000
0100
0000
,
0101
0000
0001
1000
0100
0000
1100
0000
0100
0000
0110
0000
0010
0000
0011
0000
,
1001
0000
0000
0110
0000
0000
1010
0000
0110
0000
0000
0101
0000
0000
0110
0000
,
1010
0000
1000
0100
0010
0000
0001
0000
0010
0000
0100
0000
1000
0000
0001
0000
,
0100
0001
1001
0001
0101
0100
0110
0010
,
1010
0000
1000
0100
0010
0000
0011
0000
0001
0000
1010
0000
0001
0000
0110
0000
,
0001
1000
1100
0100
0110
0010
0011
0001
,
1001
0000
0010
0100
0001
0000
1000
0000
0100
0000
0010
0000
0001
0000
0010
0100
,
0010
0001
0011
0001
1001
1000
1010
0010
,
0110
0000
1000
0010
0100
0000
0101
0000
0001
0000
0011
0000
0010
0000
0110
0000
,
1100
0000
0000
0101
0000
0000
1100
0000
0101
0000
0000
0110
0000
0000
0011
0000
,
1010
0001
1000
0001
0010
0100
1000
0100
,
0010
0001
0010
0100
0010
0001
0010
0100
,
1000
0100
0010
0001
0010
0100
0010
0001
,
0010
0100
1000
0010
0100
0010
1000
0010
,
1001
0001
0100
0010
1000
0010
0100
0010
,
1000
0100
0010
0001
0010
0100
0001
1000
,
0010
0100
0001
0010
0100
0010
0001
0010
,
1000
0001
0010
0100
1000
0100
0010
0001
,
1000
0000
1000
0100
0010
0001
1000
0000
,
1001
0000
0000
0110
0000
0000
1010
0000
0110
0000
0000
1001
0000
0000
1001
0000
,
0110
0000
1000
0100
0010
0000
0001
0000
0010
0000
0100
0000
1100
0000
0100
1000
,
0001
0100
0101
0001
1010
1000
0110
0010
,
1010
0000
1000
0010
0100
0000
0101
0000
0001
0000
0011
0000
0010
0000
0110
0000
,
1100
0001
1001
0001
0100
0010
1000
0010
,
1001
0000
0001
1000
0100
0000
0010
0000
0001
0000
0010
0000
0110
0000
0100
1000
,
0100
1000
1001
0001
0101
0100
1010
0010
,
0110
0000
1000
0010
0100
0000
0101
0000
0001
0000
0011
0000
0010
0000
0110
0000
,
1100
0000
0000
0101
0000
0000
1001
0000
0101
0000
0000
1010
0000
0000
0110
0000
,
1001
0000
1000
0100
0010
0001
1000
0000
,
2002
0000
0000
0000
,
0000
0000
0000
0000
,
3003
0000
0000
0000
,
0000
0000
MMMM
MMMM
,
MMMM
MMMM
MMMM
MMMM
,
MMMM
MMMM
MMMM
MMMM
,
MMMM
MMMM
MMMM
MMMM
,
MMMM
MMMM
MMMM
MMMM
,
MMMM
MMMM
MMMM
MMMM
,
MMMM
MMMM
MMMM
MMMM
,
MMMM
MMMM
MMMM
MMMM
,
MMMM
MMMM
MMMM
MMMM
,
MMMM
MMMM
MMMM
MMMM
,
MMMM
MMMM
MMMM
MMMM
,
MMMM
MMMM
MMMM
MMMM
,
MMMM
MMMM
MMMM
MMMM
,
1000
0100
0010
0001
1000
0000
2002
0000
,
0000
0000
0000
0000
,
0000
0000
0000
0000
,
3003
0000
0000
0000
;

//---------------dance-double - For\----------------
#NOTES:
     dance-double:
     For\:
     Easy:
     1:
     0.000,0.000,0.000,0.000,0.000,0.000,0.000,0.000,0.000,0.000:
     0.000,0.000,0.000,0.000,0.000,0.000,0.000,0.000,0.000,0.000,0.000,0.000,0.000,0.000,0.000,0.000,0.000,0.000,0.000,0.000,0.000,0.000:

00000000
00000000
00000000
00000000
;

//---------------dance-single - ----------------
#NOTES:
     dance-single:
     :
     Hard:
     8:
     0.326,0.382,0.020,0.040,0.000,561.000,5.000,10.000,0.000,0.000:

1000
0001
0100
0010
1000
0000
0001
0100
,
0001
0000
0010
0000
0100
1000
0100
0000
,
1000
0001
1000
0000
0010
0000
0100
0001
,
0010
0000
1000
0000
0001
1000
0001
0000
,
0010
0000
0100
1000
0100
0000
1000
0000
,
0010
0000
1000
0000
0001
0000
0010
0100
,
1000
0000
0001
0000
0100
0010
1000
0010
,
0200
0000
0000
0000
,
0301
0000
1000
0001
1000
0000
0010
0000
,
0100
0000
0001
1000
0001
0000
0010
0000
,
0100
0000
1000
0100
1000
0000
0001
0000
,
0100
0000
0010
1000
0010
0000
0100
0000
,
1001
0000
0100
1000
0100
0000
0010
0000
,
0001
0000
0100
0010
1000
0000
0100
0000
,
0010
0000
0001
0000
0100
0010
1000
0000
,
0002
0000
0000
0000
0000
0000
0000
0003
,
1000
0100
0010
0001
,
0100
0000
0010
1000
0001
0000
0010
0000
,
0100
1000
0010
0100
,
0001
0000
0010
0000
0100
1000
0001
0100
,
0010
0000
1000
0001
0010
0000
0100
0000
,
1000
0000
0001
1000
0001
0010
0100
1000
,
0001
0000
0010
0000
0100
0000
1000
0001
,
1000
0000
0010
0000
0100
0000
0001
1000
,
0100
0010
0001
0010
0100
1000
0100
0010
,
0001
0100
0010
1000
,
0001
0100
0001
0010
0001
0100
0001
1000
,
0002
0000
0003
0000
,
0000
0000
0000
0000
,
1001
0000
0100
0000
1000
0001
0010
0000
,
0100
0000
1000
0001
0100
0001
0010
0000
,
0100
0000
1000
0001
0000
0100
0000
0010
,
1000
0000
0001
1000
0001
0010
0100
0000
,
1000
0000
0010
0000
1000
0001
0010
0100
,
1000
0000
0001
0100
0001
0010
0100
0000
,
1000
0000
0010
1000
0000
1000
0000
1000
,
0010
0100
0001
0010
,
0001
0000
1000
0001
0100
0000
0010
0000
,
1000
0000
0100
1000
0100
0000
0010
0001
,
0100
0000
0010
1000
0000
1000
0000
1000
,
0001
0000
0001
0100
0010
1000
0010
0000
,
0100
0000
0001
1000
0001
0010
0100
0000
,
1000
0000
0001
0100
0001
0000
0010
0000
,
0100
0000
1000
0010
0000
0010
0000
0010
,
0100
0001
0010
0100
,
1000
0000
0001
0100
0000
0000
0010
0000
,
1000
0001
0100
0001
0010
0100
0000
0000
,
1000
0010
0100
0010
1000
0001
0010
0100
,
1000
0100
0010
0001
0100
0010
0000
0000
,
1000
0001
0100
0001
0010
0000
0100
0000
,
1000
0001
0100
0010
1000
0100
0000
0000
,
0001
0000
0010
0000
0100
1000
0100
0010
,
0001
0100
0010
1000
,
0001
0000
0100
0010
1000
0001
0010
0000
,
0100
0000
1000
0100
0010
0001
0100
0000
,
0010
0000
1000
0001
0010
0100
1000
0001
,
0100
0000
0010
1000
0010
0000
0100
0000
,
0001
0000
1000
0001
0010
0000
0100
0000
,
1000
0000
0010
1000
0001
0000
0010
0000
,
0001
0000
0100
0010
1000
0000
0001
0000
,
0020
0000
0000
0000
,
0130
1000
0001
0100
,
0010
0000
1000
0001
0010
0000
0100
1000
,
0001
0000
0010
0000
0100
0000
1000
0001
,
0010
0000
0100
0000
0001
0000
1000
0010
,
0100
0000
0001
1000
0001
0000
0010
0000
,
0100
0000
1000
0001
0010
0000
0001
0100
,
0010
0000
1000
0000
0010
0000
0100
0001
,
0010
0000
1000
0000
0001
0000
1000
0100
,
0010
0100
1000
0001
0100
0010
0100
0001
,
0010
0100
1000
0001
,
1000
0010
0100
0010
1000
0100
0010
0001
,
0200
0000
0300
0000
,
0000
0000
0000
0000
,
1001
0000
0100
0000
1000
0001
0010
0000
,
0100
1000
0100
0000
0010
0001
0100
0000
,
0010
0000
1000
0001
0000
0001
0000
1000
,
0010
0000
0100
0001
0010
0100
1000
0000
,
0001
0000
0100
0001
0010
0100
1000
0001
,
0100
0000
0100
0010
1000
0010
0100
0001
,
0010
0000
1000
0001
0000
0100
0000
0010
,
1000
0001
0010
0100
,
1000
0000
0001
0100
0000
0000
0001
0010
,
0100
0000
1000
0001
0100
0010
1000
0010
,
0100
0000
0001
1000
0000
1000
0000
1000
,
0010
0000
0100
0001
1000
0100
0001
0000
,
0100
0000
0001
0010
0100
1000
0001
0010
,
0100
0000
1000
0001
0100
0000
0010
0000
,
1000
0000
0001
0100
0000
0010
0000
1000
,
0100
0010
0001
0100
,
0010
0000
1000
0001
0000
0000
0010
0100
,
1000
0000
0001
0000
0100
0000
0010
1000
,
0010
0100
0001
0000
1000
0000
0100
0000
,
1000
0001
0010
0100
1000
0000
0001
0000
,
0100
0000
0010
1000
0001
0000
0010
0000
,
0100
1000
0001
0000
0100
0000
0010
1000
,
0010
0100
0001
0000
1000
0000
0001
0000
,
1000
0100
0010
0000
0001
0000
0100
0000
,
0010
1000
0001
0010
,
0002
0000
0000
0000
,
1003
0000
0010
0000
0100
0001
1000
0000
,
1000
0000
1000
0010
0100
0000
0100
0001
,
0010
0000
1000
0001
0000
0001
0000
0001
,
0010
0000
0100
1000
0001
0100
0010
0000
,
1000
0000
0001
0000
0100
0010
1000
0000
,
0010
0000
0100
0001
0010
0000
0100
0000
,
1000
0000
1000
0001
0000
0001
0000
0001
,
0010
0100
1000
0001
,
0100
0000
0010
1000
0001
0010
0100
0000
,
2002
0000
0000
0000
,
0000
0000
0000
0000
,
0000
0000
3003
0000
,
0000
0000
0000
0000
,
0000
0000
0000
0000
,
0000
0000
0000
0000
,
0000
0000
0000
0000
,
0000
0000
0000
0000
,
0000
0000
0000
0000
,
0000
0000
0000
0000
,
0000
0000
0000
0000
,
0000
0000
0000
0000
,
0000
0000
0000
0000
,
0000
0000
0000
0000
,
0000
0000
0000
0000
,
0000
0000
0000
0000
,
1000
0100
0010
0001
1000
0000
2002
0000
,
0000
0000
0000
0000
,
0000
0000
0000
0000
,
0000
0000
3003
0000
;
