#TITLE:Toxic Caves;
#SUBTITLE:Sonic Spinball;
#ARTIST:Sonic Team;
#TITLETRANSLIT:;
#SUBTITLETRANSLIT:;
#ARTISTTRANSLIT:;
#CREDIT:;
#BANNER:Toxic Caves.jpg;
#BACKGROUND:Toxic Caves-bg.jpg;
#LYRICSPATH:;
#CDTITLE:!macTitle.png;
#MUSIC:Toxic Caves.mp3;
#OFFSET:-0.285;
#SAMPLESTART:31.166;
#SAMPLELENGTH:12.000;
#SELECTABLE:YES;
#BPMS:0.000=124.050;
#STOPS:107.500=0.242
;
#BGCHANGES:;
// cache tags:
#FIRSTBEAT:0.000;
#LASTBEAT:161.000;
#SONGFILENAME:Songs/VGMP 2/Toxic Caves (MacGravel)/Toxic Caves.sm;
#HASMUSIC:1;
#HASBANNER:1;
#MUSICLENGTH:81.841;
// end cache tags

//---------------dance-single - Blank----------------
#NOTES:
     dance-single:
     Blank:
     Hard:
     11:
     1.000,1.000,1.000,1.000,1.000,473.000,148.000,171.000,0.000,1.000:

1000
0000
0100
0010
1001
0010
0100
1000
0000
0010
0100
0000
0011
0000
0100
0000
,
1000
0000
0100
0010
1001
0010
0100
1000
0000
0110
1000
0000
0110
0000
1000
0000
,
1000
0000
0100
0010
1001
0010
0100
1000
0000
0010
0100
0000
0011
0000
0100
0000
,
1000
0000
0100
0010
0001
0010
0100
2000
0000
3001
2000
3200
0302
0203
2300
3020
,
0131
0000
0000
0100
1001
0100
0000
0010
0000
1000
0000
0100
1001
0010
0001
0000
,
0010
0000
0000
0000
0101
1000
0010
1000
0000
0101
0010
0000
0110
0001
0010
0000
,
0100
0000
0000
0100
1001
0100
0000
0010
0000
1000
0000
0100
1001
0010
0001
0000
,
0010
0000
0000
1000
0101
1000
0010
1000
0000
0101
0010
0000
0110
0001
0010
0000
,
0100
0000
0000
0000
0000
0000
0000
0000
0002
0000
0000
0000
0203
0000
0000
0300
1002
0000
0000
0000
0203
0000
0000
0000
0302
0000
0000
0000
0023
0000
0000
0000
0030
0000
0000
0000
1000
0000
0000
0000
0020
0000
0000
0000
0130
0000
0000
0000
1001
0000
0000
0000
0010
0000
0000
0000
0001
0000
0000
0000
0000
0000
0000
0000
,
0010
0000
0000
0000
0000
0000
0000
0000
0200
0000
0000
0000
2300
0000
0000
3000
0201
0000
0000
0000
2300
0000
0000
0000
3020
0000
0000
0000
2030
0000
0000
0000
3000
0000
0000
0000
0201
0000
0000
0000
0320
0000
0000
0000
2030
0000
0000
3000
0120
0000
0000
0000
0032
0000
0000
0000
0013
0000
0000
0000
0000
0000
0000
0000
,
0100
0000
0000
0000
0000
0000
0000
0000
0002
0000
0000
0000
0203
0000
0000
0300
1002
0000
0000
0000
0203
0000
0000
0000
0302
0000
0000
0000
0023
0000
0000
0000
0030
0000
0000
0000
1000
0000
0000
0000
0020
0000
0000
0000
0130
0000
0000
0000
1001
0000
0000
0000
0010
0000
0000
0000
0001
0000
0000
0000
0000
0000
0000
0000
,
0010
0000
0000
0000
0000
0000
0000
0000
0200
0000
0000
0000
2300
0000
0000
3000
0201
0000
0000
0000
2300
0000
0000
0000
3020
0000
0000
0000
2030
0000
0000
0000
3000
0000
0000
0000
0201
0000
0000
0000
0320
0000
0000
0000
2030
0000
0000
3000
0120
0000
0000
0000
0032
0000
0000
0000
0013
0000
0000
0000
0000
0000
0000
0000
,
1000
0000
0100
0010
1001
0010
0100
1000
0000
0010
0100
0000
0011
0000
0100
0000
,
1000
0000
0100
0010
1001
0010
0100
1000
0000
0110
1000
0000
0110
0000
1000
0000
,
1000
0000
0100
0010
1001
0010
0100
1000
0000
0010
0100
0000
0011
0000
0100
0000
,
1000
0000
0000
0000
0000
0000
0000
0000
0100
0000
0000
0000
0010
0000
0000
0000
0001
0000
0000
0000
0010
0000
0000
0000
0100
0000
0000
0000
2000
0000
0000
0000
0000
0000
0000
0000
3001
0000
0000
0000
2000
0000
0000
0000
3200
0000
0000
0000
0302
0000
0000
0000
0203
0000
0000
0000
2300
0000
0000
0000
3020
0000
0000
0030
,
0101
0000
1001
0100
1001
0100
0000
0010
0000
1000
0011
0100
1001
0010
0101
0000
,
0110
0000
0110
0000
0101
1000
0010
1000
0000
0101
0110
0000
0110
0001
1010
0000
,
0101
0000
1001
0100
1001
0100
0000
0010
0000
1000
0011
0100
1001
0010
0101
0000
,
0110
0000
0110
1000
0101
1000
0010
1000
0000
0101
0110
0000
0110
0001
1010
0000
,
0101
0000
0000
0000
0000
0000
0000
0000
0002
0003
0000
0000
0200
0300
0000
0000
1002
0003
0000
0000
0200
0300
0000
0000
0002
0003
0000
0000
0020
0030
0000
0000
0000
0000
0000
0000
2000
3000
0000
0000
0021
0030
0000
0000
0100
0000
0000
0000
1002
0003
0000
0000
0010
0000
0000
0000
0102
0003
0000
0000
0000
0000
0000
0000
,
0110
0000
0000
0000
0000
0000
0000
0000
0201
0300
0000
0000
2000
3000
0000
0000
0201
0300
0000
0000
2000
3000
0000
0000
0020
0030
0000
0000
2000
3000
0000
0000
0000
0000
0000
0000
0201
0300
0000
0000
0120
0030
0000
0000
1000
0000
0000
0000
0120
0030
0000
0000
0001
0000
0000
0000
1020
0030
0000
0000
0000
0000
0000
0000
,
0101
0000
0000
0000
0000
0000
0000
0000
0002
0003
0000
0000
0200
0300
0000
0000
1002
0003
0000
0000
0200
0300
0000
0000
0002
0003
0000
0000
0020
0030
0000
0000
0000
0000
0000
0000
2000
3000
0000
0000
0021
0030
0000
0000
0100
0000
0000
0000
1002
0003
0000
0000
0010
0000
0000
0000
0102
0003
0000
0000
0000
0000
0000
0000
,
0110
0000
0000
0000
0000
0000
0000
0000
0201
0300
0000
0000
2000
3000
0000
0000
0201
0300
0000
0000
2000
3000
0000
0000
0020
0030
0000
0000
2000
3000
0000
0000
0000
0000
0000
0000
0201
0300
0000
0000
0120
0030
0000
0000
1000
0000
0000
0000
0120
0030
0000
0000
0001
0000
0000
0000
1020
0030
0000
0000
0000
0000
0000
0000
,
0101
0000
1001
0010
0101
1000
0000
0010
0000
1000
0101
0000
0110
0000
1010
0000
,
0101
0000
1001
0010
0101
1000
0010
1000
0000
0101
1010
0000
1010
0000
0110
0000
,
1001
0000
1010
0100
1010
0001
0010
0100
0000
1000
0110
0000
1001
0000
0101
0000
,
0002
0000
0000
0000
2003
0000
0000
0000
3002
0000
0000
0000
2003
0000
0000
0000
3002
0000
0000
0000
0023
0000
0000
0000
0030
0000
0000
0000
0210
0000
0000
0300
2010
0000
0000
0000
3002
0000
0000
0000
2003
0000
0000
3000
0012
0000
0000
0003
0110
0000
0000
0000
0000
0000
0000
0000
0100
0000
0000
0000
0000
0000
0000
0000
,
0010
0000
0000
0000
0100
0000
0000
0000
1002
0000
0000
0000
0103
0000
0000
0000
0000
0000
0000
0000
0010
0000
0000
0000
0000
0000
0000
0000
1000
0000
0000
0000
0020
0000
0000
0000
0230
0000
0000
0300
2001
0000
0000
0000
3010
0000
0000
0000
0001
0000
0000
0000
0000
0000
0000
0000
0010
0000
0000
0000
0000
0000
0000
0000
,
0100
0000
0102
1003
0010
2000
3000
0101
0020
0030
0110
0002
0013
0000
0100
0000
,
0010
0000
0000
0000
0100
0000
0000
0000
2001
0000
0000
0000
3100
0000
0000
0000
0000
0000
0000
0000
0010
0000
0000
0000
0000
0000
0000
0000
1000
0000
0000
0000
0020
0000
0000
0000
0230
0000
0000
0300
2001
0000
0000
0000
3010
0000
0000
0000
0001
0000
0000
0000
0000
0000
0000
0000
0010
0000
0000
0000
0000
0000
0000
0000
,
0100
1000
0102
1003
0010
2000
3000
0101
0020
0030
0110
0002
0013
0000
0100
0000
,
0020
0030
0000
0000
0200
0300
0000
0000
1002
0000
0000
0000
0103
0000
0000
0000
0000
0000
0000
0000
0020
0030
0000
0000
0000
0000
0000
0000
2000
3000
0000
0000
0020
0000
0000
0000
0230
0000
0000
0300
2002
0003
0000
0000
3010
0000
0000
0000
0002
0003
0000
0000
0000
0000
0000
0000
0020
0030
0000
0000
0000
0000
0000
0000
,
0200
0300
0000
0000
0020
0030
0000
0000
0102
0000
0000
0000
2003
3000
0000
0000
0020
0030
0000
0000
2000
0000
0000
0000
3000
0000
0000
0000
0102
0003
0000
0000
0020
0000
0000
0000
0030
0000
0000
0000
0110
0000
0000
0000
0002
0000
0000
0000
0023
0030
0000
0000
0000
0000
0000
0000
0200
0300
0000
0000
0000
0000
0000
0000
,
0020
0030
0000
0000
0200
0300
0000
0000
2001
0000
0000
0000
3200
0300
0000
0000
2000
3000
0000
0000
0020
0030
0000
0000
0000
0000
0000
0000
2000
3000
0000
0000
0020
0000
0000
0000
0230
0000
0000
0300
2002
0003
0000
0000
3010
0000
0000
0000
0002
0003
0000
0000
0000
0000
0000
0000
0020
0030
0000
0000
0000
0000
0000
0000
,
0200
0300
0000
0000
2000
3000
0000
0000
0102
0000
0000
0000
2003
3000
0000
0000
0020
0030
0000
0000
2000
0000
0000
0000
3000
0000
0000
0000
0102
0003
0000
0000
0020
0000
0000
0000
0030
0000
0000
0000
0110
0000
0000
0000
0002
0000
0000
0000
0023
0030
0000
0000
0000
0000
0000
0000
0011
0000
0000
0000
0000
0000
0000
0000
,
1001
0100
1010
0100
1000
0100
0000
0010
1001
0000
0110
0000
0101
0000
0101
0000
,
1001
0010
1100
0010
1000
0010
0000
0101
0110
0000
0101
0000
1001
0000
0110
0000
,
0101
1000
0011
1000
0001
1000
0000
0010
1100
0000
0011
0000
0101
0000
0010
0000
,
0001
0000
0000
0000
0100
0000
0000
0000
0010
0000
0000
0000
0100
0000
0000
0000
0001
0000
0000
0000
2000
0000
0000
0000
0000
0000
0000
0000
3000
0000
0000
0000
2000
0000
0000
0000
3200
0000
0000
0000
0302
0000
0000
0000
0203
0000
0000
0000
2300
0000
0000
0000
3020
0000
0000
0030
2002
0000
0000
0000
0000
0000
0000
0000
,
0000
3003
0000
0000
;
