#TITLE:Hyperdestructive;
#SUBTITLE:;
#ARTIST:Nighthawk22;
#TITLETRANSLIT:;
#SUBTITLETRANSLIT:;
#ARTISTTRANSLIT:;
#CREDIT:;
#BANNER:hyperdestructive bn.png;
#BACKGROUND:hyperdestructive bg.png;
#LYRICSPATH:;
#CDTITLE:cdtitle.png;
#MUSIC:Hyperdestructive.ogg;
#OFFSET:-0.067;
#SAMPLESTART:35.367;
#SAMPLELENGTH:12.000;
#SELECTABLE:YES;
#BPMS:0.000=170.020;
#STOPS:;
#BGCHANGES:;
// cache tags:
#FIRSTBEAT:0.000;
#LASTBEAT:428.500;
#SONGFILENAME:Songs/SSSC Pack 2/Hyperdestructive - [Psychotic]/Hyperdestructive.sm;
#HASMUSIC:1;
#HASBANNER:1;
#MUSICLENGTH:105.000;
// end cache tags

//---------------dance-single - R. Cardenas----------------
#NOTES:
     dance-single:
     R. Cardenas:
     Challenge:
     13:
     1.000,1.000,0.105,0.238,1.000,1093.000,11.000,25.000,8.000,0.000:

1000
0100
0100
0010
0001
1000
0010
0100
,
0001
1000
1000
0010
0001
0010
1000
0001
,
0010
0001
0001
1000
0010
0100
0001
1000
,
0100
0010
0010
0100
0001
0100
1000
0001
,
0200
0310
0010
1000
0010
0001
0010
1000
,
0100
0001
0001
0100
1000
0001
0100
0010
,
1000
0010
0010
1000
0001
0100
0001
1000
,
0001
0010
0010
0100
1000
0001
0100
0001
,
1001
1000
1000
0010
0100
1000
0100
0010
,
1000
0001
0001
0010
1000
0010
0001
1000
,
0100
0010
0010
0100
1000
0001
0100
1000
,
0100
0001
0001
1000
0100
0010
0001
0010
,
0110
0100
0100
1000
0010
0100
0001
0100
,
0010
1000
1000
0100
0001
0100
0010
0001
,
1000
0010
0010
1000
0001
0010
0100
1000
,
0100
0010
0010
0001
0100
1000
0100
0001
,
0011
0010
0010
0001
0100
0010
0100
0001
,
1000
0100
0100
1000
0001
0100
1000
0100
,
0010
1000
1000
0001
0010
0100
0010
0001
,
1000
0010
0010
1000
0001
0100
0010
1000
,
1010
0010
0100
0001
0010
1000
0010
0100
,
1000
0001
0001
0100
0010
1000
0001
0010
,
0100
1000
1000
0100
0001
0100
0010
0001
,
0100
1000
1000
0100
0010
1000
0100
1000
,
0001
0100
0001
0100
0001
0100
0010
0100
0010
0100
0010
1000
0010
1000
0010
1000
,
0001
0001
0010
0010
0100
0100
1000
1000
,
0001
0000
0100
0010
0000
0000
0100
0000
0001
0000
1000
0001
0010
0000
0100
1000
,
0001
0000
0000
1000
0000
1000
0001
0000
0100
0000
0010
1000
0010
0000
0100
0000
,
0001
0000
0000
0001
0000
0000
0001
0000
1000
0000
0100
0000
0010
0000
0001
0000
,
1000
0000
1000
0100
0000
0000
0100
0000
1000
0000
1000
0001
0010
0000
0001
1000
,
0100
0000
0000
0100
0000
0100
0010
0000
0001
0000
0001
0000
1000
0000
1000
0010
,
0100
0000
0000
0100
0000
0000
0100
0000
0010
0000
1000
0100
0010
0000
0100
0000
,
1000
0000
0000
1000
0000
0000
1000
0000
0001
0000
0010
0000
0100
0000
1000
0000
,
0001
0000
1000
0010
0000
1000
0010
0000
0100
0000
0010
1000
0100
0000
0010
0001
,
0100
0000
0001
1000
0000
1000
0100
0000
0010
0000
0100
1000
0010
0000
0100
0001
,
0010
0000
0100
1000
0001
0100
0010
1000
0010
0100
0001
1000
0100
0010
0100
1000
,
0001
0000
0001
1000
0000
1000
0100
0000
0010
0001
1000
0001
0010
0100
1000
0001
,
0100
0010
0100
0001
1000
0010
0100
0001
1000
0001
0010
0100
1000
0010
0100
0010
,
1000
0001
0100
0010
1000
0100
0010
0001
00M0
0000
0001
0010
0100
1000
0100
0010
,
0001
00M0
0000
0000
0000
0000
0000
0001
0100
0000
0100
0000
0010
0000
0010
0000
,
1000
0000
0000
0000
0010
0100
0000
0100
0010
0000
0010
0000
0100
0000
0100
0000
,
1001
0001
0100
0010
0100
1000
0100
0010
,
1000
0100
0100
0010
0001
1000
0010
0100
,
0010
1000
1000
0001
0010
0100
1000
0100
,
0010
0001
0001
1000
0010
0100
0001
0010
,
0110
0100
1000
0001
0010
1000
0010
0100
,
1000
0010
0010
0100
0001
0100
1000
0100
,
0001
0010
0010
0001
1000
0100
0010
0001
,
1000
0010
0010
0001
0010
0100
0001
1000
,
1100
0100
0010
0001
1000
0010
0001
0010
,
1000
0001
0001
0010
0100
1000
0001
0100
,
0010
0100
0100
0001
1000
0100
0001
0100
,
0010
0001
0001
1000
0010
0100
0001
0010
,
0011
0001
1000
0010
0100
0010
1000
0001
,
0100
1000
1000
0100
0010
1000
0100
0010
,
0001
1000
1000
0001
0010
0100
1000
0010
,
0100
0010
0010
0001
0010
1000
0100
0010
,
0001
0010
0100
1000
0001
0010
0100
1000
0001
0100
0010
1000
0001
0100
0010
1000
,
0001
0000
0010
0100
1000
0000
1000
0100
0010
0000
0001
0100
0010
0000
0010
0100
,
0001
0000
0001
0010
0100
1000
0100
0010
0001
0000
1000
0100
0010
0001
0010
0100
,
1000
0010
0100
0001
0100
0010
1000
0010
0100
0001
1000
0100
0010
0001
0010
0100
,
1000
0000
0000
2000
3002
0003
0000
2000
3020
0030
0000
1000
0001
0010
0002
0003
,
0000
0000
1000
0001
1000
0000
0000
0000
0000
0000
0001
0010
0100
1000
0001
0000
,
0000
0100
0000
0100
0001
1000
0100
0010
0001
0000
0000
0002
2003
3000
0000
0002
,
0023
0030
0000
0002
2003
3000
0000
0002
0203
0300
0000
0002
2003
3000
0000
0002
,
0023
0030
0000
0002
2003
3000
0000
1000
0100
0010
0001
0100
0010
1000
0001
1000
,
0010
0100
0001
1000
0100
0010
0001
0010
0100
1000
0010
0100
0010
1000
0001
1000
,
0MM0
0001
1000
0001
0MM0
0001
1000
0010
0100
0001
0100
0010
1000
0001
0010
0100
,
1000
0100
0010
0001
0100
0010
0100
0001
1000
0010
0100
0001
1000
0100
0010
0001
,
1000
0001
0100
0001
1000
0001
0010
0001
1000
0001
0100
0001
1000
0001
0010
0100
,
1000
0001
1000
0010
1000
0001
1000
0100
1000
0001
1000
0010
0100
0001
0100
0010
,
1000
0001
0010
0100
1000
0001
1000
0010
0100
0001
0100
0010
1000
0001
1000
0100
,
0010
0001
1000
0100
0010
0100
1000
0001
0100
0010
1000
0001
0100
0010
0100
0001
,
1000
0010
0100
0001
0010
0100
0010
0001
1000
0100
0010
0001
1000
0010
0100
0002
,
2000
0000
0000
3003
0001
0000
1000
0000
0100
0000
0010
0000
0001
0000
0010
0000
,
0100
1000
1000
0001
0100
0010
1000
0010
,
0100
0001
0001
1000
0100
0001
0100
0010
,
0001
1000
1000
0010
0001
0010
1000
0010
,
0110
0100
0001
1000
0100
0010
0100
1000
,
0001
0100
0100
0001
1000
0010
0100
0001
,
1000
0100
0100
0001
1000
0010
0001
1000
,
0100
0010
0010
0100
1000
0001
0100
0010
,
1010
1000
0001
0100
0010
1000
0100
0010
,
0001
1000
1000
0001
0100
0010
0100
0001
,
1000
0001
0001
0010
0100
1000
0100
0010
,
0001
0100
0100
0001
1000
0010
0100
0001
,
1001
1000
0100
0010
0001
1000
0010
1000
,
0100
0001
0001
0100
1000
0001
1000
0010
,
0100
0001
0001
0100
1000
0100
0010
1000
,
0001
0010
0010
0100
1000
0100
0010
0001
,
1000
0100
0010
0001
1000
0010
0100
0001
1000
0100
0010
0001
1000
0010
0100
0001
,
1000
0000
0001
0100
0010
0100
0001
1000
0MM0
1000
0001
0010
0100
1000
0100
0010
,
0001
1000
0010
0100
0000
0100
0010
0000
0000
1000
0010
0000
0010
1000
0001
1000
,
0010
0000
0100
0001
0010
0000
0100
1000
0010
0000
0100
0001
0010
0000
0100
1000
,
0001
0010
0100
1000
0100
0010
0001
1000
0010
0100
0010
1000
0001
0010
0100
1000
,
0001
0000
0001
0010
0100
1000
0001
0000
0000
0000
0001
1000
0010
0100
0001
0100
,
0010
1000
0001
0010
0100
0010
0001
1000
0100
0010
0001
0100
0010
0100
0001
1000
,
0000
1000
0100
0010
0000
0000
0000
0000
0010
0100
1000
0001
0100
0010
1000
0001
,
1000
0000
0000
0100
0000
0000
0010
0000
0000
0001
0000
0000
1000
0000
0000
0100
0000
0000
0010
0000
0000
0001
0000
1000
,
0001
0000
1000
0001
0000
1000
0001
0000
1000
0001
0000
1000
0001
0000
0010
0001
0000
0000
0010
0100
1000
0001
1000
0100
,
0010
0000
0000
0000
0000
0000
0001
0000
0000
0000
0000
0000
1000
0000
0000
0000
0000
0000
0010
0000
0000
0000
0100
0000
0001
0000
0000
0000
1000
0000
0001
0000
0000
0000
1000
0000
0001
0000
0000
1000
0000
0000
0010
0000
0000
0100
0000
0000
,
0001
0000
0000
0100
0000
0000
0010
0000
0000
1000
0000
0000
0001
0000
0000
0010
0000
0000
0100
0000
0000
1000
0000
0000
0001
0000
0010
0000
0100
0000
1000
0000
0000
0001
0000
0000
0100
0000
0000
0010
0000
0000
1000
0000
0000
0002
0000
0000
,
0000
0003
0000
0000
1000
0001
0010
0100
0010
0001
1000
0010
0100
0001
1000
0010
,
0100
0000
0000
0010
0000
0000
1000
0000
0000
0001
0000
0000
1000
0000
0000
0100
0000
0000
0010
0000
0000
0001
0000
0000
0100
0000
0000
0010
0000
0000
0100
0000
0000
0001
0000
0000
1000
0000
0010
0000
1000
0000
0001
0000
0100
0000
0001
0000
,
0100
0000
0000
0001
0000
0000
1000
0000
0000
0100
0000
0000
0010
0000
0000
0000
0000
0000
0001
0000
0000
0000
0000
0000
0001
0000
0000
0000
0000
0000
0100
0000
0000
0000
0000
0000
0100
0000
0000
0000
0000
0000
0010
0000
1000
0000
0010
0000
,
1000
0000
0000
0000
0000
0000
0001
0000
0000
1000
0000
0000
0010
0000
0000
0100
0000
0000
0001
0000
0000
0100
0000
0000
0000
0000
0000
0000
0000
0000
0000
0000
0000
0000
0000
0000
0100
0000
0000
0000
0000
0000
0001
0000
1000
0000
0001
0000
,
1000
0000
0000
0010
0000
0000
0100
0000
0000
0001
0000
0000
1000
0000
0000
0100
0000
0000
0010
0000
0000
0100
0000
0000
1000
0000
0000
0001
0000
0000
0100
0000
0000
0010
0000
0000
1000
0000
0010
0000
0100
0000
0001
0000
0100
0000
0020
0000
,
2000
3030
0000
0000
0000
0000
0000
0000
;
