#TITLE:Agarrala Pillala;
#SUBTITLE:;
#ARTIST:DJ Warner;
#TITLETRANSLIT:;
#SUBTITLETRANSLIT:;
#ARTISTTRANSLIT:;
#CREDIT:;
#BANNER:banner.JPG;
#BACKGROUND:;
#LYRICSPATH:;
#CDTITLE:!tizaTitle.png;
#MUSIC:Dj Warner (ExtenDeD BosTel Dj) - Agarrala Pillala Mix .ogg;
#OFFSET:0.000;
#SAMPLESTART:30.001;
#SAMPLELENGTH:16.200;
#SELECTABLE:YES;
#BPMS:0.000=184.500,4.000=185.500,14.000=187.000,20.000=187.000,22.000=190.000,40.000=187.500,104.000=190.000,128.000=185.000,136.000=92.500,140.000=190.000,162.000=185.000,172.000=187.500,204.000=190.000,227.000=187.500,235.000=3.900,235.250=187.500,364.000=188.500,428.000=187.000,458.000=190.000;
#STOPS:218.000=0.340
,235.250=0.120
,235.375=0.120
,235.500=0.120
,235.625=0.120
,235.750=0.260
,235.875=0.280
,299.500=2.500
;
#BGCHANGES:;
// cache tags:
#FIRSTBEAT:0.000;
#LASTBEAT:460.000;
#SONGFILENAME:Songs/Reggaeton and more/Agarrala Pillala/agarralapillala.sm;
#HASMUSIC:1;
#HASBANNER:1;
#MUSICLENGTH:196.718;
// end cache tags

//---------------dance-single - ----------------
#NOTES:
     dance-single:
     :
     Challenge:
     12:
     0.740,0.848,0.447,0.097,0.696,912.000,88.000,19.000,0.000,3.000:

1001
0000
1000
0100
1000
0100
1000
0000
,
1000
0000
0010
1000
0010
0000
0000
0000
,
1010
0000
1000
0010
0100
0001
1001
0001
,
0101
0100
0010
0100
0110
0000
0000
0000
,
1010
0000
0100
0001
0010
0100
1000
0000
,
1010
0000
1000
0100
1100
0000
0000
0000
,
1000
0000
1000
0100
0001
1000
0010
0000
,
0001
0000
1000
1000
1000
0000
0000
1000
,
0100
0010
0001
0010
0100
1000
1100
1100
,
1000
0000
0010
0000
0100
0000
0001
0000
0100
0000
0010
0000
1000
0100
1000
0000
,
0100
0010
0001
1000
0010
0100
0001
0001
,
0100
0010
0100
0001
0010
0100
1100
0000
,
1000
0100
0001
1000
0010
0001
0010
1000
,
0001
0100
1000
0010
0100
0001
1000
0100
,
0010
0001
0010
0100
1000
0010
0100
0001
0100
0010
1000
0100
,
0010
0001
0010
0001
0010
0100
1000
0100
1000
0100
1000
0010
0100
0001
0100
0010
,
1000
0000
0000
0010
0000
0000
1000
0000
0000
0100
0000
0000
0001
0000
0000
0100
0000
0000
0000
0000
0000
0000
1000
0000
,
0010
0100
0001
1000
0100
0010
0001
0010
0100
1000
0001
0100
,
0010
0010
1000
0100
0010
0010
0001
0001
,
1001
1000
1000
0100
0010
0001
1001
1000
,
1100
0100
0010
0001
0100
0010
0000
1000
,
1100
0100
0010
0001
1000
1001
0000
0000
,
1100
0100
0010
0001
0011
0000
0000
1000
,
1010
0010
0100
0001
0202
0000
0000
0000
,
1000
0000
0000
0000
0010
0000
0000
0303
,
1100
0000
0000
0110
0000
0000
1100
0000
0000
1001
0000
0000
0101
0000
0000
0000
0000
0000
1001
0000
0000
0000
1000
0000
,
0100
0010
0100
1000
0010
0100
0010
1000
0100
0010
0001
0010
,
0100
1000
0010
0100
0001
0100
0010
1000
0100
0010
0001
1000
,
0100
0010
0001
1000
0010
0100
0001
1000
0010
0100
0001
0010
,
0100
0010
0001
0100
0010
0100
0001
0010
0100
0001
0100
1000
,
0010
0100
1000
0001
0010
1000
0100
0010
0001
1000
0010
0100
,
0001
0100
0010
1000
0100
1000
0100
0010
0100
0001
0100
1000
,
0001
1000
1000
0010
0100
0001
0001
0010
,
0100
1000
1000
0100
0010
0100
0100
1000
,
1001
0000
1000
0100
0020
0000
0001
0100
0032
0000
1000
0010
1000
0003
1001
0000
,
1000
0100
0010
0001
1000
0010
0100
0001
,
1000
0100
0001
0100
1000
0010
0001
1000
,
0100
0001
0010
0100
1000
0000
1000
0100
,
1000
0010
0000
0100
0001
0000
1001
0000
,
1000
0010
0100
0001
0010
0100
1000
0100
,
0010
0100
1000
0010
0001
1000
0100
0001
,
0010
0100
1000
0100
0010
0001
0010
0100
1000
0010
0100
0001
,
0100
0010
1000
0010
0100
0010
1000
0100
0010
0100
1000
0001
,
0010
0100
1000
0010
0100
0001
0010
0001
,
0100
0010
1000
0100
0010
0100
1000
0001
,
0010
0100
0010
0001
0100
0010
0100
0001
,
1000
0010
0100
0010
1000
0100
0001
1000
,
0010
0001
0100
1000
0001
0010
1000
0100
,
0010
0001
1000
0010
0100
0001
1000
0100
,
0010
0000
1000
0010
0101
0000
0001
0100
,
1010
1000
0100
0010
0110
0000
0101
0000
,
1001
0000
0000
0000
1000
0010
0000
0000
,
1100
0000
0001
0100
2000
0000
3000
0000
,
1001
0000
1000
1000
0100
0100
0110
0000
,
0011
0000
0000
0000
0000
0000
0000
0000
0001
0000
0000
0000
0100
0000
0000
0000
2020
3030
0000
0000
0000
0000
0000
0000
1001
0000
0000
0000
0000
0000
0000
0000
,
1000
0010
0100
0001
0010
0000
1100
0000
,
1000
0010
0202
0000
0303
0000
1100
0000
,
1000
0100
0001
0100
1000
0010
0001
0000
,
0001
0000
0000
0000
0010
0000
0000
0000
2000
0000
0000
0000
0000
0000
0000
0000
3001
0000
0000
0000
0000
0000
0000
0000
1001
0000
1000
0100
0010
0001
1000
0010
,
1010
1001
0101
1000
,
0010
0100
0001
0000
,
1100
0000
0000
0100
0001
0000
1001
0000
,
1100
0000
0000
1000
0010
0000
0101
0000
,
1001
0000
0000
1000
0001
0000
0100
0000
,
1010
0000
0000
0001
0100
0000
0010
0000
,
1010
0000
0000
1000
1000
0000
0110
0000
,
0011
0000
0000
0001
0001
0000
0101
0000
,
1010
0000
0000
1001
0000
0000
0001
0000
0100
0000
0000
0000
0010
0000
1000
0000
,
0100
0000
0000
0000
0010
0000
0001
0000
0100
0000
0000
1001
0000
0000
0010
0000
,
1001
0000
0000
1000
0000
0000
0100
0000
0110
0000
0000
0000
0001
0000
0100
0000
,
0010
0000
1000
0100
0010
0000
0001
1000
,
1001
0000
0000
1010
0000
0000
0110
0000
0101
0000
0000
0000
1000
0000
0100
0000
,
0010
0000
0000
0000
0001
0000
0100
0000
0010
0000
0000
1010
0000
0000
1000
0000
,
1001
0000
0000
0001
0000
0000
0100
0000
0101
0000
0000
0000
0001
0000
0010
0000
,
1010
0000
0000
0000
0000
0000
0000
0000
0000
1000
0000
0000
0000
0000
0000
0000
0000
0000
0100
0000
0000
0000
0000
0000
1100
0000
0000
0000
0000
0000
0000
0000
0000
0000
0000
0000
1001
0000
0000
0000
0000
0000
0000
0000
1000
0000
0000
0000
,
0100
0010
0100
1000
0010
0100
0010
1000
0100
0010
0001
0010
,
0100
1000
0100
1000
0010
1000
0100
1000
0100
0010
0001
0100
,
0010
1000
0010
0100
0001
0100
0010
1000
0100
0010
0100
1000
,
0010
0100
0001
1000
0100
0010
0001
0010
0100
1000
0010
0100
,
1000
0100
0001
0010
0100
1000
0010
0100
0001
0010
1000
0001
,
0100
1000
0010
0100
0001
0010
0100
1000
0100
0010
0001
1000
,
0001
0100
0010
1000
0010
0100
0001
0010
0100
1000
0100
0010
,
0001
1000
0100
0010
0100
1000
0010
0100
0010
1000
0100
0010
,
0001
0010
0100
1000
0100
1000
0010
1000
0100
1000
0100
0010
,
0001
0100
0010
1000
0010
0100
0001
0100
0010
1000
0100
0010
,
0100
1000
0010
0100
0001
1000
0100
0010
0001
0010
0100
1000
,
0010
0100
1000
0100
0001
0010
0100
1000
0010
0100
0001
0010
,
1000
0001
0100
1000
0010
0100
0001
0010
0100
1000
0100
0010
,
0001
1000
0001
0100
0010
1000
0010
0100
0001
0010
0100
1000
,
0100
0010
0001
1000
0100
0010
0001
1000
0010
0100
0001
1000
,
0010
0100
0001
1000
0100
0010
0100
1000
0001
0010
0100
0010
,
0001
0100
0010
1000
0010
0100
0002
0000
0000
1000
0003
1000
,
0100
0010
0001
0010
0100
1000
0020
0000
0000
0100
0030
1000
,
0010
0100
0001
1000
0100
0010
0002
0000
0000
1000
0003
0001
,
0100
0010
1000
0001
0100
0010
2000
0000
0000
0010
3000
0100
,
1000
0100
1000
0100
1000
0010
0200
0000
0000
0001
0300
0100
,
1000
0010
0100
0010
1000
0100
0020
0000
0000
0001
0030
1000
,
0010
0100
0001
0010
0100
1000
0002
0000
0000
1000
0003
1000
,
0100
0010
0100
1000
0010
0100
0001
0000
0000
0110
0000
0000
,
1000
0100
1000
0100
1001
0001
0100
0001
,
0100
0010
1000
0100
1100
1000
0010
0100
,
0001
0010
0100
1000
0010
0100
0001
0100
,
0010
1000
0100
0001
1000
0010
0001
0100
,
1000
0001
0010
1000
0100
0010
0100
1000
,
0001
0100
0010
0100
0001
1000
0010
0100
,
0010
1000
0001
0010
0100
0010
0002
0000
,
2000
0000
0000
0010
0000
3003
0000
0000
,
1100
0100
0010
0001
0010
0001
0100
0010
,
0100
0010
1000
0100
1000
0000
0000
0000
,
0001
1000
0001
0100
0001
0001
0100
0010
,
0100
0010
1000
0100
1100
0000
0000
0000
,
1010
0010
1000
0100
1100
1000
0010
0100
,
0110
0100
0001
0010
0011
0000
0000
0000
,
1100
1000
0100
0010
0110
0010
0001
0010
,
0110
0100
1100
1001
0101
0000
0000
0000
,
1001
0000
0000
0000
;
