#TITLE:Moonlight Shadow;
#SUBTITLE:;
#ARTIST:DJ Izzy;
#TITLETRANSLIT:;
#SUBTITLETRANSLIT:;
#ARTISTTRANSLIT:;
#CREDIT:;
#BANNER:Moonlight Shadow Mini copy.png;
#BACKGROUND:Moonlight Shadow copy.png;
#LYRICSPATH:;
#CDTITLE:Izzy MiniLittle copy.png;
#MUSIC:Moonlight Shadow.mp3;
#OFFSET:0.000;
#SAMPLESTART:12.857;
#SAMPLELENGTH:12.000;
#SELECTABLE:YES;
#BPMS:0.000=140.000;
#STOPS:;
#BGCHANGES:;
// cache tags:
#FIRSTBEAT:0.250;
#LASTBEAT:65.250;
#SONGFILENAME:Songs/IzzySM Keyboard Mega Pack/Moonlight Shadow/Moonlight Shadow.sm;
#HASMUSIC:1;
#HASBANNER:1;
#MUSICLENGTH:29.675;
// end cache tags

//---------------dance-single - ----------------
#NOTES:
     dance-single:
     :
     Hard:
     7:
     0.477,0.550,0.640,0.067,1.000,78.000,19.000,2.000,0.000,0.000:  // measure 1
0000
1000
0000
0100
0000
0010
0000
0000
0000
0000
0000
0001
0000
0100
0000
0010
,  // measure 2
0000
1000
0000
0100
0000
0010
0000
0000
0000
0000
0000
0001
0000
0000
0000
0000
,  // measure 3
0000
0000
0000
0000
0000
1000
0000
0100
0000
0010
0000
0001
0000
0000
0000
0000
,  // measure 4
0000
0010
0000
0100
0000
0001
0000
0000
0000
1000
0000
0000
0000
0100
0000
0010
,  // measure 5
0000
0001
0000
1000
0000
0010
0000
0000
0000
0000
0000
0001
0000
0000
0000
0001
,  // measure 6
0000
0010
0000
0100
0000
1000
0000
0000
0000
0000
0000
1000
0000
0000
0000
0000
,  // measure 7
0000
0000
0000
0000
0000
1000
0000
0100
0000
0010
0000
0001
0000
0000
0000
0000
,  // measure 8
0000
0010
0000
0100
0000
0010
0000
0000
0000
0001
0000
0000
0000
1000
0000
0001
,  // measure 9
0000
1000
0000
0010
0000
0100
0000
0000
0000
0100
0000
0000
0000
0010
0000
0000
,  // measure 10
0000
1000
0000
0000
0000
0100
0000
0010
0000
0001
0000
1000
0000
0011
0000
0000
,  // measure 11
0000
0110
0000
0000
0000
1100
0000
0000
0000
0000
0000
0101
0000
1010
0000
0000
,  // measure 12
0000
1001
0000
0110
0000
1001
0000
0110
0000
1001
0000
0110
0000
0000
0000
0000
,  // measure 13
0000
0001
0000
0010
0000
0001
0000
0000
0000
0010
0000
0000
0000
0001
0000
0000
,  // measure 14
0000
0010
0000
0000
0000
0011
0000
1100
0000
0110
0000
1001
0000
0000
0000
0000
,  // measure 15
0000
1000
0000
0100
0000
0010
0000
0001
0000
0110
0000
0000
0000
1001
0000
0000
,  // measure 16
0000
0110
0000
2002
0000
0000
0000
0000
0000
0000
0000
0000
0000
0000
0000
0000
,  // measure 17
0000
0000
0000
0000
0000
3003
0000
0000
0000
0000
0000
0000
0000
0000
0000
0000
;

//---------------dance-single - ----------------
#NOTES:
     dance-single:
     :
     Challenge:
     10:
     1.000,0.907,0.034,0.067,1.000,243.000,1.000,2.000,0.000,0.000:  // measure 1
0000
1000
0100
0010
0001
1000
0010
0100
0001
1000
0010
0100
0001
1000
0100
0010
,  // measure 2
0001
0010
0100
1000
0100
0010
0001
0010
0100
1000
0001
1000
0010
1000
0001
0100
,  // measure 3
0010
1000
0001
0010
0100
1000
0001
0010
0100
1000
0010
0100
0001
0010
0100
1000
,  // measure 4
0010
0100
0001
0010
0001
0010
0100
1000
0010
0100
0001
1000
0010
0100
0001
1000
,  // measure 5
0010
0100
0001
1000
0010
0100
0001
1000
0010
0100
0001
1000
0100
0010
0001
0010
,  // measure 6
0100
1000
0100
0010
0001
0010
0100
1000
0100
0010
0001
0010
0001
1000
0010
0100
,  // measure 7
0001
1000
0010
0100
0001
0010
0100
1000
0001
0010
0100
1000
0100
0010
0001
0100
,  // measure 8
0010
1000
0100
0010
0001
0100
0010
1000
0100
0010
0001
0010
0100
1000
0010
0100
,  // measure 9
0001
1000
0010
0100
0001
1000
0010
0100
0001
1000
0001
1000
0001
1000
0001
1000
,  // measure 10
0001
1000
0001
1000
0001
0100
0010
0100
0010
0100
0010
0100
0010
0100
0010
0100
,  // measure 11
0010
0100
0001
1000
0010
0100
0001
1000
0010
0100
0001
1000
0010
0100
0001
1000
,  // measure 12
0010
0100
0001
1000
0010
0100
0001
1000
0010
0100
0001
1000
0001
0010
0100
1000
,  // measure 13
0001
0010
0001
0010
0100
1000
0001
0010
0001
0010
0100
1000
0001
0010
0100
1000
,  // measure 14
0100
1000
0001
0010
0100
1000
0100
1000
0001
0010
0100
1000
0010
0100
0001
0010
,  // measure 15
0100
1000
0010
0100
0001
1000
0010
0100
0001
1000
0010
0100
0001
1000
0010
0100
,  // measure 16
0001
1000
0010
2002
0000
0000
0000
0000
0000
0000
0000
0000
0000
0000
0000
0000
,  // measure 17
0000
0000
0000
0000
0000
3003
0000
0000
0000
0000
0000
0000
0000
0000
0000
0000
;
