#TITLE:MeSC 611b;
#SUBTITLE:;
#ARTIST:Sidney600 and TheMetea11;
#TITLETRANSLIT:;
#SUBTITLETRANSLIT:;
#ARTISTTRANSLIT:;
#CREDIT:Mad Matt;
#BANNER:../Tachyon Gamma-bn.png;
#BACKGROUND:../Tachyon Gamma-bg.png;
#LYRICSPATH:;
#CDTITLE:;
#MUSIC:MeSC 611b.ogg;
#OFFSET:0.005;
#SAMPLESTART:80.542;
#SAMPLELENGTH:16.000;
#SELECTABLE:YES;
#DISPLAYBPM:160.000;
#BPMS:0.000=140.000,160.000=160.000;
#STOPS:;
#BGCHANGES:;
// cache tags:
#FIRSTBEAT:16.000;
#LASTBEAT:319.500;
#SONGFILENAME:Songs/Tachyon Gamma/MeSC 611b - [Mad Matt]/MeSC 611b.sm;
#HASMUSIC:1;
#HASBANNER:1;
#MUSICLENGTH:130.061;
// end cache tags

//---------------dance-single - Mad Matt----------------
#NOTES:
     dance-single:
     Mad Matt:
     Challenge:
     15:
     1.000,1.000,0.085,0.384,1.000,960.000,11.000,50.000,0.000,0.000:

0000
0000
0000
0000
,
0000
0000
0000
0000
,
0000
0000
0000
0000
,
0000
0000
0000
0000
,
1000
0000
0000
0001
0000
0001
0100
0000
0010
0000
0000
1000
0000
1000
0001
1000
,
0100
0000
0000
1000
0000
1000
0001
1000
0010
0000
0100
0000
0001
0000
0100
0000
,
0010
0000
0000
1000
0000
1000
0100
0000
0010
0000
0000
0001
0000
0001
0010
0001
,
0100
0000
0000
0001
0000
0001
0100
0000
0010
0000
1000
0000
0001
0000
0010
0000
,
0110
0000
0000
1000
0000
1000
0010
0000
0110
0000
0000
0001
0000
0001
0010
0000
,
0110
0000
0000
1000
0000
1000
0010
1000
0100
0000
0010
0000
0001
0000
0100
0000
,
0110
0000
0000
1000
0000
1000
0100
0000
0110
0000
0000
0001
0000
0001
0100
0000
,
0110
0000
0000
1000
0000
1000
0100
0000
0010
0000
0001
0000
1000
0000
0010
0000
,
0110
0000
0000
0001
0000
0001
0010
0000
0110
0000
0000
1000
0000
1000
0100
1000
,
0010
0000
0000
1000
0000
1000
0010
1000
0100
0000
0010
0000
0001
0000
0100
0000
,
0110
0000
0000
1000
0000
1000
0100
0000
0110
0000
0000
0001
0000
0001
0100
0000
,
0110
0000
0000
1000
0000
1000
0010
1000
0100
0000
0010
0000
0001
0000
1000
0000
,
0020
0000
0230
0000
,
0301
0000
1000
0000
0100
0000
1000
0000
0001
0000
0100
0000
0010
1000
0100
1000
,
0001
0100
0001
1000
0010
1000
0001
0010
0001
1000
0100
1000
,
0001
0000
0000
0010
0000
0000
0100
0000
0000
1000
0000
0000
0100
0000
0000
0010
0000
0000
0100
0000
0000
1000
0000
0000
0001
0000
0000
0010
0000
0000
0100
0000
0000
1000
0000
0000
0001
0000
0100
0000
0001
0000
1000
0000
0001
0000
0100
0000
,
0020
0000
0000
0000
0000
0000
0000
0000
0000
0000
0000
0000
0000
0000
0000
0000
0000
0000
0000
0000
0000
0000
0000
0000
0000
0000
0000
0000
0000
0000
0130
0000
0000
0001
0000
0000
1000
0000
0100
0000
1000
0000
0001
0000
1000
0000
0100
0000
,
0020
0000
0000
0000
0000
0000
0000
0000
0000
0000
0031
1000
0010
0100
0001
1000
,
0100
0010
0100
0010
0100
0010
0100
0010
0001
0100
0001
0100
0001
0100
0001
0100
,
0010
0100
0001
0100
0010
1000
0010
0100
0010
1000
0001
0100
0010
1000
0001
0000
,
0010
0100
1000
0000
0001
0010
0100
0000
1000
0100
0010
0000
0001
0010
0100
0000
,
1000
0010
0100
0010
1000
0001
0100
0000
0001
0000
1000
0000
0001
0010
0100
0000
,
1000
0100
0010
0001
1000
0010
1000
0100
0010
0001
1000
0010
1000
0001
0100
0001
1000
0010
0100
0001
0100
0010
1000
0001
,
1000
0100
0010
0001
0010
0100
1000
0010
0100
0001
0100
0010
,
1000
0001
0100
0001
0010
0100
0010
0001
1000
0100
0010
0100
1000
0010
0100
0001
,
1000
0010
0100
0001
0100
0010
1000
0010
0100
0001
0100
0010
1000
0100
0010
0001
0010
0100
1000
0100
0010
0001
0010
0100
,
1000
0001
0100
0001
1000
0010
1000
0001
0010
0001
1000
0010
1000
0100
0010
0001
0010
0100
1000
0010
1000
0001
0010
0100
,
1000
0001
0010
0001
1000
0100
1000
0001
0100
0001
1000
0010
0100
0001
0100
0010
0100
0001
1000
0000
0000
0000
0000
0000
,
0002
0000
0023
0000
,
0031
0100
0010
1000
0010
0100
0001
1000
,
0001
0010
0001
1000
0010
1000
0001
0100
0001
1000
0100
1000
0001
0010
0100
0000
,
1000
0010
1000
0001
0010
0001
1000
0100
1000
0001
0100
0001
1000
0010
0100
0000
,
0001
0010
0100
0010
0001
0010
0100
1000
0000
0100
0010
0001
0100
0010
1000
0001
,
0100
0010
0100
0010
1000
0001
1000
0001
0010
0100
0010
0100
1000
0001
1000
0001
,
0100
0010
0100
0001
1000
0100
0010
0001
0010
0100
1000
0001
0100
0010
0100
0001
1000
0100
0010
0001
0010
0100
1000
0001
,
0200
0320
2030
3002
,
1003
0000
0001
0000
1000
0100
0010
0000
0001
0000
1000
0010
0100
0000
0001
0000
,
1000
0100
0010
0000
0001
0000
0010
0100
1000
0000
0001
0000
0010
0100
1000
0000
,
0001
0000
1000
0010
0100
0000
0001
0000
1000
0100
0010
0000
0001
0000
1000
0010
,
0100
0000
0001
0000
0100
0010
1000
0000
0001
0000
0100
0010
1000
0000
0000
0000
,
0001
0020
0130
0020
0031
2000
3100
0020
,
0031
0020
0130
2000
3100
0020
0031
0020
,
0130
0020
0031
2000
3100
0020
0130
2000
,
3001
0200
0310
0200
0301
0200
0310
0000
,
1000
0100
0010
0001
0010
0100
1000
0000
,
0001
0010
0100
0010
0001
0010
0100
1000
0001
0100
0010
0100
0001
1000
0010
0100
,
0001
1000
0001
1000
0100
0010
0001
1000
0001
1000
0100
0010
0001
1000
0001
1000
0010
0100
0001
1000
0001
1000
0010
0100
,
0001
0100
0001
0010
0100
1000
0020
0000
,
0230
0000
0000
0310
1000
0001
1000
0100
,
1000
0010
0100
0001
1000
0001
1000
0010
0100
0001
1000
0001
1000
0100
0010
0001
1000
0001
1000
0100
0010
0001
1000
0001
,
1000
0000
0010
0000
0100
0001
0100
0001
0010
0000
0100
0000
2000
3002
2003
3002
,
0103
0000
0010
0000
1000
0100
1000
0100
0010
0001
0010
0100
1000
0010
0100
0001
,
1000
0000
0100
0000
1000
0000
0001
0000
0010
0000
0100
0000
1000
0000
0001
0000
0010
0000
0001
0000
1000
0000
0100
0000
1000
0000
0000
0001
0000
0000
1000
0000
0000
0000
0000
0000
0100
0000
0000
0010
0000
0000
0100
0000
0000
0010
0000
0000
,
0001
0000
0000
1000
0000
0000
0001
0000
0000
1000
0000
0000
0010
0000
0100
0000
0010
0000
0100
0000
0000
0001
0000
0000
1000
0000
0000
0100
0000
0000
0010
0000
0000
0100
0000
0000
1000
0000
0000
0100
0000
0000
0010
0000
0000
0001
0000
0000
,
1000
0000
0000
0100
0000
0000
1000
0000
0000
0001
0000
0100
0010
0000
0000
1000
0000
0000
0100
0000
0000
0010
0000
0000
,
0001
0000
0000
1000
0000
0000
0001
0000
0000
1000
0000
0000
0010
0000
0100
0000
0001
0000
0100
0000
0010
0000
1000
0000
0001
0000
0000
0000
0000
0000
0010
0000
0000
0000
0000
0000
0100
0000
0000
0000
0000
0000
1000
0000
0000
0000
0000
0000
,
0002
0000
0000
0000
0000
0000
1003
0000
0100
0000
1000
0000
0001
0000
0010
0000
0001
0000
1000
0010
1000
0001
0100
0001
,
1000
0010
0100
0001
1000
0010
1000
0001
0100
0001
1000
0100
0010
0001
1000
0100
1000
0001
0010
0001
1000
0100
0010
0001
,
1000
0010
0100
0001
1000
0010
0100
0001
0100
0010
1000
0001
1000
0100
0010
0001
1000
0100
0010
0001
0010
0100
1000
0001
,
0100
0010
0100
0001
1000
0100
0010
0001
0010
0100
1000
0001
0100
0010
0100
0001
1000
0001
1000
0000
0000
0000
0000
0000
,
0002
2003
3020
0230
,
0301
0000
1000
0000
0100
0010
0100
0010
0001
1000
0010
0100
0001
0100
0010
1000
,
0001
0100
0010
1000
0001
0100
0001
1000
0010
1000
0001
0100
0010
1000
0010
1000
0000
0000
0001
0010
0001
0010
0000
0000
,
0200
2300
3002
0203
,
0301
0010
0001
0010
0100
1000
0100
1000
0001
0100
0001
0100
0010
1000
0010
1000
,
0001
0010
0001
0010
0000
0000
0100
1000
0100
1000
0000
0000
0001
0100
0001
0100
0000
0000
0010
1000
0010
1000
0000
0000
,
0002
0000
0000
0000
2003
0000
0000
0000
3100
0000
0010
0001
2000
0000
0000
0000
,
3002
0000
0203
0000
0320
0000
0230
0000
0302
0000
0023
0000
,
0130
1000
0100
1000
0100
1000
0010
0100
,
0001
1000
0001
1000
0100
0000
0010
0000
0100
0000
1000
0000
0002
0000
0000
0000
,
1003
0100
1000
0001
0010
0100
1000
0001
0010
0001
1000
0100
1000
0000
0000
0001
0000
0000
0100
0000
0000
0001
0000
0000
,
1000
0000
0000
0010
0000
0000
1000
0000
0000
0010
0000
0000
0100
0000
0000
0000
0000
0000
0001
0000
0000
0000
0000
0000
1000
0000
0100
0000
1000
0000
0100
0000
0000
0000
0000
0000
0010
0000
0001
0000
0010
0000
0001
0000
0000
0000
0000
0000
,
1000
0010
1000
0010
0100
0001
0100
0001
1000
0100
1000
0100
0010
0001
0010
0001
,
1000
0010
0100
0001
1000
0010
1000
0001
0100
0001
1000
0010
0100
0001
1000
0100
1000
0001
0010
0001
1000
0100
0010
0001
,
1000
0010
1000
0001
0100
0001
1000
0100
0010
0001
1000
0010
1000
0001
0010
0001
1000
0010
0100
0001
1000
0100
0010
0001
,
1000
0001
1000
0001
1000
0100
0010
0001
;
