#TITLE:EXE;
#SUBTITLE:;
#ARTIST:Mr.T;
#TITLETRANSLIT:;
#SUBTITLETRANSLIT:;
#ARTISTTRANSLIT:;
#CREDIT:;
#BANNER:exe-bnr.PNG;
#BACKGROUND:exe-bg.PNG;
#LYRICSPATH:;
#CDTITLE:;
#MUSIC:18.EXE.mp3;
#OFFSET:-0.400;
#SAMPLESTART:37.975;
#SAMPLELENGTH:12.000;
#SELECTABLE:YES;
#BPMS:0.000=158.000;
#STOPS:;
#BGCHANGES:;
// cache tags:
#FIRSTBEAT:0.000;
#LASTBEAT:287.500;
#SONGFILENAME:Songs/Ace Megapack/EXE/EXE.sm;
#HASMUSIC:1;
#HASBANNER:1;
#MUSICLENGTH:113.087;
// end cache tags

//---------------dance-single - ----------------
#NOTES:
     dance-single:
     :
     Hard:
     10:
     1.000,0.985,0.937,0.000,1.000,799.000,106.000,0.000,0.000,0.000:
0010
1000
0000
0000
0000
0100
0000
0010
0001
1000
0000
0000
0000
0000
0000
0010
,
1000
0100
0000
0000
0000
0010
0000
0100
0000
0000
0000
1000
0000
0010
0100
0000
,
0010
0100
0001
0000
0000
1000
0100
0010
0001
1000
0010
0000
0000
0000
0100
0010
,
1000
0100
0010
0000
0000
0001
1000
0010
0100
0010
1000
0100
0000
0010
0100
0000
,
1000
0010
0100
0000
0001
0100
0010
1000
0100
0010
0100
0000
0110
0000
1000
0010
,
0100
0010
1000
0000
0001
1000
0100
0010
0000
0000
0001
0010
0100
1000
0010
0000
,
0100
0010
1000
0000
0001
0100
0010
0100
0001
1000
0001
0000
1001
0000
0010
0100
,
0001
1000
0001
1000
0001
1000
0001
1000
0001
1000
0100
0010
0001
0010
0100
1000
,
0010
0100
0010
1000
0100
0010
0001
0000
1000
0001
0100
0001
1000
0100
0010
0000
,
0001
1000
0010
1000
0001
1000
0100
0000
0010
0100
1000
0010
0100
0001
1000
0000
,
0001
1000
0000
0000
0100
0010
0000
0001
1000
0010
0100
0010
1000
0100
0010
0001
,
1000
0010
0100
0000
0010
1000
0100
0010
0001
0100
0010
0100
0001
1000
0100
0010
,
0001
1000
0001
0100
0010
0100
0001
0000
1000
0100
0010
0100
1000
0010
0100
0000
,
0010
1000
0001
0100
0010
0100
0001
0000
1000
0001
0100
0001
1000
0100
0010
0000
,
0100
0010
0000
0000
0001
1000
0000
0010
1000
0100
0010
0100
1000
0010
0100
0010
,
1001
0001
0101
1010
1001
0110
1001
0100
,
0010
0100
1000
0000
1100
0000
0010
0001
0100
0000
0010
0000
1010
0000
1000
0000
,
0100
0000
0010
0000
0110
0000
0001
0010
0100
0000
0110
0000
1001
0000
1100
0000
,
0100
1000
0010
0000
1010
0000
0010
0100
0001
0000
0100
0000
0101
0000
0001
0000
,
1000
0000
0100
0000
1100
0000
0010
0001
0100
0000
0101
0000
1010
0000
0110
0000
,
0010
0100
0001
0000
0101
0000
0010
0100
0001
0000
0100
0000
0101
0000
0010
0000
,
1000
0000
0100
0000
1100
0000
0010
0100
0010
0000
0110
0000
1001
0000
0011
0000
,
0001
0010
0100
1000
0010
0100
0001
0000
1000
0010
0000
0010
1000
0100
0010
0000
,
0100
1000
0100
1000
0010
0100
0001
0100
0010
1000
0100
0010
0001
1000
0100
0010
,
0001
1000
0010
1000
0100
0000
0010
0001
0100
0010
0000
0100
0001
0000
1000
0000
,
0001
1000
0000
0100
1000
0000
0010
1000
0100
0010
0001
0100
0010
0000
0110
0000
,
0010
0100
0001
1000
0100
0000
0010
0100
1000
0010
0000
0100
0010
0000
1000
0000
,
0001
1000
0000
1000
0001
0000
0001
1000
0010
0100
0010
1000
0001
0000
1001
0000
,
1000
0100
0010
0100
1000
0000
0010
0100
0001
1000
0000
1000
0001
0000
0100
0000
,
0010
1000
0000
1000
0100
0000
0010
0100
1000
0010
0100
0001
0100
0000
0101
0000
,
0010
1000
0010
1000
0100
0010
0001
0000
1000
0010
0000
0010
1000
0100
1000
0000
,
0100
0010
0001
0100
0010
0100
0001
0000
1000
0010
1000
0100
1000
0000
1100
0000
,
1001
0100
0010
0001
0000
1000
0010
0000
,
1010
0100
0010
0110
0000
0001
0100
0000
,
0101
0010
1000
1100
0000
0010
0100
0000
,
0110
1000
0001
0100
0000
0010
0100
0000
,
0110
0100
0101
0101
0000
0010
1010
0000
,
1001
1000
1100
0110
0000
0001
0011
0000
,
0110
0100
1100
1001
0000
0001
1001
0000
,
1001
1100
0011
0101
1010
1100
1001
0110
,
1100
0000
0010
0100
1000
0000
0010
0100
0001
0000
1000
0001
1000
0000
1001
0000
,
1100
0011
0101
1010
1001
0110
1010
0101
,
0010
0000
1000
0100
0010
0000
0001
0010
0100
0000
1000
0010
0100
0000
0110
0000
,
0010
1000
0100
0010
0001
1000
0010
0100
0001
0000
1000
0000
1010
0000
0101
0000
,
1001
0000
0001
0000
1000
0000
0100
1000
0100
0000
1100
0000
1010
0000
0101
0000
,
0010
0100
0001
0000
1000
0000
0001
0100
0010
0000
0110
0000
1010
0000
1000
0000
,
1100
0011
1100
1001
0110
0011
0101
1010
,
1001
0000
1000
0100
0010
0001
1000
0010
0100
0000
0010
0000
1010
0000
1000
0000
,
0001
1000
0100
1000
0010
0000
0100
0010
1000
0100
0000
0010
0100
0000
1000
0000
,
0001
1000
0000
1000
0010
0000
0010
0100
0001
1000
0010
1000
0100
0000
1100
0000
,
0100
0010
0001
0000
0011
0000
0001
1000
0001
0000
0100
0000
0110
0000
0100
0000
,
0001
0000
1000
0000
1001
0000
1000
0100
0010
0000
0110
0000
0011
0000
1001
0000
,
1000
0010
1000
0000
1010
0000
0100
0001
0100
0000
0001
0000
0101
0000
0100
0000
,
0010
0000
1000
0000
1010
0000
1000
0001
1000
0000
1001
0000
1100
0000
0011
0000
,
0001
0010
0100
1000
0010
0100
0001
0000
1000
0010
0000
0010
1000
0001
1000
0000
,
0010
0100
0010
0100
0001
1000
0100
0010
0001
1000
0010
0100
0001
1000
0010
0100
,
0001
1000
0001
1000
0010
0000
0100
0010
1000
0001
0000
0001
1000
0100
0010
0001
,
1000
0010
0000
0100
0010
0000
1000
0100
0010
0100
1000
0010
0100
0000
0110
0000
,
0010
0100
0001
0100
0010
0000
1000
0100
0010
0001
0000
0100
0010
1000
0100
0010
,
0100
1000
0000
0001
1000
0000
0010
1000
0100
0010
0001
1000
0010
0000
1010
0000
,
0010
0100
0001
1000
0001
0000
1000
0100
0010
0001
0000
0100
0010
0100
0001
1000
,
0100
0010
0000
0010
0100
0000
1000
0001
0100
0010
0100
0010
1000
0000
1010
0000
,
1000
0001
0100
0001
0010
0100
1000
0000
0001
1000
0000
1000
0100
0010
0001
0000
,
1000
0010
1000
0010
1000
0100
0010
0000
0001
1000
0010
1000
0001
1000
0100
0000
,
0010
0100
1000
0000
0010
0100
0000
0100
0010
1000
0000
0000
1010
0000
0000
0010
,
0100
0001
0000
0000
0001
0100
0000
0100
0001
0000
0000
1000
0100
0010
0100
0000
,
1000
0010
0000
0000
0100
0010
0000
0010
1000
0001
0000
0000
1001
0000
0000
0001
,
1000
0010
0000
0000
0100
0001
0000
0001
0100
0001
0000
0100
0010
1000
0001
0000
,
1000
0100
0010
0000
0001
1000
0010
0100
0010
1000
0001
0000
1001
0000
1000
0100
,
0010
0100
1000
0000
0010
0100
0001
1000
0010
0000
0100
0010
1000
0001
0100
0000
,
0010
1000
0100
0000
0010
0100
1000
0001
0100
0010
0100
0000
0101
0000
0001
0100
,
0010
1000
0001
0000
1000
0100
0010
0100
0010
0001
1000
0010
0100
0010
0110
0000
;
