#TITLE:Reflections;
#SUBTITLE:(Original);
#ARTIST:Akira Kayosa & Firestorm;
#TITLETRANSLIT:;
#SUBTITLETRANSLIT:;
#ARTISTTRANSLIT:;
#CREDIT:owenviau1;
#BANNER:../owenviau1 Simfiles 6 (Science X Owen).png;
#BACKGROUND:BG.PNG;
#LYRICSPATH:;
#CDTITLE:;
#MUSIC:Akira Kayosa & Firestorm - Reflections (Original).mp3;
#OFFSET:-0.017;
#SAMPLESTART:262.602;
#SAMPLELENGTH:29.999;
#SELECTABLE:YES;
#DISPLAYBPM:73.000:146.000;
#BPMS:0.000=146.204,416.000=73.102,496.000=146.204;
#STOPS:;
#BGCHANGES:;
// cache tags:
#FIRSTBEAT:0.000;
#LASTBEAT:1034.000;
#SONGFILENAME:Songs/owenviau1 Simfiles 6/Reflections (Original) - [owenviau1] v1.0.0/Reflections.sm;
#HASMUSIC:1;
#HASBANNER:1;
#MUSICLENGTH:461.583;
// end cache tags

//---------------dance-single - 13 (owenviau1)----------------
#NOTES:
     dance-single:
     13 (owenviau1):
     Hard:
     13:
     1.000,1.000,0.002,0.054,1.000,3892.000,1.000,25.000,19.000,1.000:
1000
0010
0100
0001
1000
0010
1000
0100
0010
0001
0100
0010
1000
0001
0100
0001
,
1000
0100
0010
0001
0100
0010
1000
0010
0100
0001
1000
0100
0010
0001
0100
0010
,
0100
0001
1000
0010
0100
0001
1000
0100
0010
0001
1000
0010
0100
0010
1000
0001
,
0100
0001
1000
0100
0010
0001
0100
0010
1000
0001
0010
0001
0100
0010
1000
0100
,
0010
0001
0010
0100
1000
0010
0100
0001
1000
0100
1000
0010
0100
0001
1000
0100
,
0010
0001
1000
0001
0100
0010
1000
0100
0010
0001
1000
0010
1000
0001
0100
0001
,
1000
0100
0010
0001
0100
0010
1000
0001
0010
0001
0100
0010
0100
0001
1000
0010
,
1000
0001
0100
0010
1000
0100
0010
0001
1000
0010
0100
0010
1000
0001
0100
0010
,
100M
0010
0100
0001
1000
0010
1000
0100
0010
0001
0100
0010
1000
0001
0100
0001
,
1000
0100
0010
0001
0100
0010
1000
0010
0100
0001
1000
0100
0010
0001
0100
0010
,
0100
0001
1000
0010
0100
0001
1000
0100
0010
0001
1000
0010
0100
0010
1000
0001
,
0100
0001
1000
0100
0010
0001
0100
0010
1000
0001
0010
0001
0100
0010
1000
0100
,
0010
0001
0010
0100
1000
0010
0100
0001
1000
0100
1000
0010
0100
0001
1000
0100
,
0010
0001
1000
0001
0100
0010
1000
0100
0010
0001
1000
0010
1000
0001
0100
0001
,
1000
0100
0010
0001
0100
0010
1000
0001
0010
0001
0100
0010
0100
0001
1000
0010
,
1000
0001
0100
0010
1000
0100
0010
0001
1000
0010
0100
0010
1000
0001
0100
0010
,
100M
0010
0100
0001
1000
0010
1000
0100
0010
0001
0100
0010
1000
0001
0100
0001
,
1000
0100
0010
0001
0100
0010
1000
0010
0100
0001
1000
0100
0010
0001
0100
0010
,
0100
0001
1000
0010
0100
0001
1000
0100
0010
0001
1000
0010
0100
0010
1000
0001
,
0100
0001
1000
0100
0010
0001
0100
0010
1000
0001
0010
0001
0100
0010
1000
0100
,
0010
0001
0010
0100
1000
0010
0100
0001
1000
0100
1000
0010
0100
0001
1000
0100
,
0010
0001
1000
0001
0100
0010
1000
0100
0010
0001
1000
0010
1000
0001
0100
0001
,
1000
0100
0010
0001
0100
0010
1000
0001
0010
0001
0100
0010
0100
0001
1000
0010
,
1000
0001
0100
0010
1000
0100
0010
0001
1000
0010
0100
0010
1000
0001
0100
0010
,
100M
0010
0100
0001
1000
0010
1000
0100
0010
0001
0100
0010
1000
0001
0100
0001
,
1000
0100
0010
0001
0100
0010
1000
0010
0100
0001
1000
0100
0010
0001
0100
0010
,
0100
0001
1000
0010
0100
0001
1000
0100
0010
0001
1000
0010
0100
0010
1000
0001
,
0100
0001
1000
0100
0010
0001
0100
0010
1000
0001
0010
0001
0100
0010
1000
0100
,
0010
0001
0010
0100
1000
0010
0100
0001
1000
0100
1000
0010
0100
0001
1000
0100
,
0010
0001
1000
0001
0100
0010
1000
0100
0010
0001
1000
0010
1000
0001
0100
0001
,
1000
0100
0010
0001
0100
0010
1000
0001
0010
0001
0100
0010
0100
0001
1000
0010
,
1000
0001
0100
0010
1000
0100
0010
0001
1000
0010
0100
0010
1000
0001
0100
0010
,
1000
0010
0100
0001
1000
0010
1000
0100
0010
0001
0100
0010
1000
0001
0100
0001
,
1000
0100
0010
0001
0100
0010
1000
0010
0100
0001
1000
0100
0010
0001
0100
0010
,
0100
0001
1000
0010
0100
0001
1000
0100
0010
0001
1000
0010
0100
0010
1000
0001
,
0100
0001
1000
0100
0010
0001
0100
0010
1000
0001
0010
0001
0100
0010
1000
0100
,
0010
0001
0010
0100
1000
0010
0100
0001
1000
0100
1000
0010
0100
0001
1000
0100
,
0010
0001
1000
0001
0100
0010
1000
0100
0010
0001
1000
0010
1000
0001
0100
0001
,
1000
0100
0010
0001
0100
0010
1000
0001
0010
0001
0100
0010
0100
0001
1000
0010
,
1000
0001
0100
0010
1000
0100
0010
0001
1000
0010
0100
0010
1000
0001
0100
0010
,
1000
0010
0100
0001
1000
0010
1000
0100
0010
0001
0100
0010
1000
0001
0100
0001
,
1000
0100
0010
0001
0100
0010
1000
0010
0100
0001
1000
0100
0010
0001
0100
0010
,
0100
0001
1000
0010
0100
0001
1000
0100
0010
0001
1000
0010
0100
0010
1000
0001
,
0100
0001
1000
0100
0010
0001
0100
0010
1000
0001
0010
0001
0100
0010
1000
0100
,
0010
0001
0010
0100
1000
0010
0100
0001
1000
0100
1000
0010
0100
0001
1000
0100
,
0010
0001
1000
0001
0100
0010
1000
0100
0010
0001
1000
0010
1000
0001
0100
0001
,
1000
0100
0010
0001
0100
0010
1000
0001
0010
0001
0100
0010
0100
0001
1000
0010
,
1000
0001
0100
0010
1000
0100
0010
0001
1000
0010
0100
0010
1000
0001
0100
0010
,
100M
0010
0100
0001
1000
0010
1000
0100
0010
0001
0100
0010
1000
0001
0100
0001
,
1000
0100
0010
0001
0100
0010
1000
0010
0100
0001
1000
0100
0010
0001
0100
0010
,
0100
0001
1000
0010
0100
0001
1000
0100
0010
0001
1000
0010
0100
0010
1000
0001
,
0100
0001
1000
0100
0010
0001
0100
0010
1000
0001
0010
0001
0100
0010
1000
0100
,
0010
0001
0010
0100
1000
0010
0100
0001
1000
0100
1000
0010
0100
0001
1000
0100
,
0010
0001
1000
0001
0100
0010
1000
0100
0010
0001
1000
0010
1000
0001
0100
0001
,
1000
0100
0010
0001
0100
0010
1000
0001
0010
0001
0100
0010
0100
0001
1000
0010
,
1000
0001
0100
0010
1000
0100
0010
0001
1000
0010
0100
0010
1000
0001
0100
0010
,
1000
0010
0100
0001
1000
0010
1000
0100
0010
0001
0100
0010
1000
0001
0100
0001
,
1000
0100
0010
0001
0100
0010
1000
0010
0100
0001
1000
0100
0010
0001
0100
0010
,
0100
0001
1000
0010
0100
0001
1000
0100
0010
0001
1000
0010
0100
0010
1000
0001
,
0100
0001
1000
0100
0010
0001
0100
0010
1000
0001
0010
0001
0100
0010
1000
0100
,
0010
0001
0010
0100
1000
0010
0100
0001
1000
0100
1000
0010
0100
0001
1000
0100
,
0010
0001
1000
0001
0100
0010
1000
0100
0010
0001
1000
0010
1000
0001
0100
0001
,
1000
0100
0010
0001
0100
0010
1000
0001
0010
0001
0100
0010
0100
0001
1000
0010
,
1000
0001
0100
0010
1000
0100
0010
0001
1000
0010
0100
0010
1000
0001
0100
0010
,
100M
0010
0100
0001
1000
0010
1000
0100
0010
0001
0100
0010
1000
0001
0100
0001
,
1000
0100
0010
0001
0100
0010
1000
0010
0100
0001
1000
0100
0010
0001
0100
0010
,
0100
0001
1000
0010
0100
0001
1000
0100
0010
0001
1000
0010
0100
0010
1000
0001
,
0100
0001
1000
0100
0010
0001
0100
0010
1000
0001
0010
0001
0100
0010
1000
0100
,
0010
0001
0010
0100
1000
0010
0100
0001
1000
0100
1000
0010
0100
0001
1000
0100
,
0010
0001
1000
0001
0100
0010
1000
0100
0010
0001
1000
0010
1000
0001
0100
0001
,
1000
0100
0010
0001
0100
0010
1000
0001
0010
0001
0100
0010
0100
0001
1000
0010
,
1000
0001
0100
0010
1000
0100
0010
0001
1000
0010
0100
0010
1000
0001
0100
0010
,
100M
0010
0100
0001
1000
0010
1000
0100
0010
0001
0100
0010
1000
0001
0100
0001
,
1000
0100
0010
0001
0100
0010
1000
0010
0100
0001
1000
0100
0010
0001
0100
0010
,
0100
0001
1000
0010
0100
0001
1000
0100
0010
0001
1000
0010
0100
0010
1000
0001
,
0100
0001
1000
0100
0010
0001
0100
0010
1000
0001
0010
0001
0100
0010
1000
0100
,
0010
0001
0010
0100
1000
0010
0100
0001
1000
0100
1000
0010
0100
0001
1000
0100
,
0010
0001
1000
0001
0100
0010
1000
0100
0010
0001
1000
0010
1000
0001
0100
0001
,
1000
0100
0010
0001
0100
0010
1000
0001
0010
0001
0100
0010
0100
0001
1000
0010
,
1000
0001
0100
0010
1000
0100
0010
0001
1000
0010
0100
0010
1000
0001
0100
0010
,
100M
0010
0100
0001
1000
0010
1000
0100
0010
0001
0100
0010
1000
0001
0100
0001
,
1000
0100
0010
0001
0100
0010
1000
0010
0100
0001
1000
0100
0010
0001
0100
0010
,
0100
0001
1000
0010
0100
0001
1000
0100
0010
0001
1000
0010
0100
0010
1000
0001
,
0100
0001
1000
0100
0010
0001
0100
0010
1000
0001
0010
0001
0100
0010
1000
0100
,
0010
0001
0010
0100
1000
0010
0100
0001
1000
0100
1000
0010
0100
0001
1000
0100
,
0010
0001
1000
0001
0100
0010
1000
0100
0010
0001
1000
0010
1000
0001
0100
0001
,
1000
0100
0010
0001
0100
0010
1000
0001
0010
0001
0100
0010
0100
0001
1000
0010
,
1000
0001
0100
0010
1000
0100
0010
0001
1000
0010
0100
0010
1000
0001
0100
0010
,
100M
0010
0100
0001
1000
0010
1000
0100
0010
0001
0100
0010
1000
0001
0100
0001
,
1000
0100
0010
0001
0100
0010
1000
0010
0100
0001
1000
0100
0010
0001
0100
0010
,
0100
0001
1000
0010
0100
0001
1000
0100
0010
0001
1000
0010
0100
0010
1000
0001
,
0100
0001
1000
0100
0010
0001
0100
0010
1000
0001
0010
0001
0100
0010
1000
0100
,
0010
0001
0010
0100
1000
0010
0100
0001
1000
0100
1000
0010
0100
0001
1000
0100
,
0010
0001
1000
0001
0100
0010
1000
0100
0010
0001
1000
0010
1000
0001
0100
0001
,
1000
0100
0010
0001
0100
0010
1000
0001
0010
0001
0100
0010
0100
0001
1000
0010
,
1000
0001
0100
0010
1000
0100
0010
0001
1000
0010
0100
0010
1000
0001
0100
0010
,
1000
0000
0000
0000
1000
0000
0100
0000
0000
0000
0100
0000
0000
0000
0010
0001
,
0010
0000
0100
1000
0000
1000
0000
1000
,
0010
0000
0000
1000
0001
0000
1000
0010
0000
0100
0001
0000
1000
0100
0000
0000
,
0000
0000
0000
0000
0001
0000
0000
1000
0010
0000
0100
0001
1000
0100
0010
0001
,
1000
0010
0000
0010
0100
0000
0100
0001
0000
1000
0100
0000
0000
0000
0000
0000
,
0000
0000
0000
0000
,
0000
0000
0002
0000
,
0000
0000
0000
0000
0000
0000
0000
0000
0000
0000
0000
0000
0000
0000
0000
0000
0000
0000
0003
1000
0001
1000
0001
1000
,
0002
0000
0000
0000
,
0000
2003
0000
0000
0000
0000
3020
0000
0000
0000
0000
0000
0000
0000
0000
0000
,
0000
0000
0000
0230
0000
0000
0000
0000
0000
0000
0000
0000
0000
0302
0000
0000
,
0000
0000
0000
0000
0000
2003
0000
0000
0000
0000
0000
0000
0000
0000
0000
0000
,
0000
0000
0000
3020
0000
0000
0000
0000
0000
0000
0000
0000
0000
2030
0000
0000
,
0000
3200
0000
0000
0320
0000
0000
0000
0032
0000
0000
0000
0000
0000
0000
0000
,
0000
0000
2003
0000
0000
0000
0000
0000
0000
0000
0000
0000
0000
3020
0000
0000
,
0000
0000
0000
0000
0000
0000
0230
0000
0000
0000
0000
0000
0000
0000
0000
0000
0000
0000
0000
0000
0000
0000
0000
0000
0000
0000
0000
0000
0000
0000
0000
0000
0000
0000
0000
0000
0000
0000
0000
0000
0000
0000
0000
0000
1300
0001
1000
0001
,
1000
0000
0000
0000
1000
0000
0000
0000
0000
0000
1000
0000
0000
0000
0100
0010
0001
0000
0000
0000
1000
0000
0010
0000
0000
0000
0100
0000
0000
0000
0001
0000
,
0000
0000
0000
1000
0000
0000
0000
0000
0000
0000
0000
0000
1000
0000
0000
0000
0000
0000
0000
0000
0000
1000
0000
0000
0000
0000
0000
0000
0000
0000
0000
0000
0000
0000
0000
0000
0000
0000
0000
0000
0000
0000
0000
0000
0000
0000
0000
0000
0000
0000
0000
0000
0000
0000
0020
0000
0000
0000
0000
0000
0000
0000
0000
0000
0000
0000
0000
0000
0000
0000
0000
0000
0000
0000
0000
0000
0000
0000
0000
0000
0000
0000
0000
0000
0000
0000
0000
0000
1030
0000
0001
0000
1000
0000
0001
0000
,
1000
0000
0000
0000
0001
0000
0000
0000
0000
0000
1000
0000
0000
0000
0100
0010
0001
0000
0000
0000
1000
0000
0010
0000
0000
0000
0100
0000
0000
0000
0001
0000
,
0000
0000
0000
0000
0000
0000
1000
0000
0000
0100
0000
0000
0010
0000
0000
0000
0000
0000
0001
0000
0000
0010
0000
0000
0000
0000
0000
0100
0000
0000
1000
0000
0000
0000
0000
0000
0100
0000
0000
1000
0000
0000
0000
0000
0000
0000
0000
0000
0000
0000
0000
0000
0000
0000
0020
0000
0000
0000
0000
0000
0000
0000
0000
0000
0000
0000
0000
0000
0000
0000
0000
0000
0000
0000
0000
0000
0000
0000
0000
0000
0000
0000
0000
0000
0000
0000
0000
0000
1030
0000
0001
0000
1000
0000
0001
0000
,
1000
0000
0000
0000
0100
0000
0000
0000
0000
0000
1000
0000
0000
0000
0100
0010
0001
0000
0000
0000
1000
0000
0010
0000
0000
0000
0100
0000
0000
0000
0001
0000
,
2000
0000
0000
0000
0000
0000
0000
0000
0000
0000
0000
0000
0000
0000
0000
0000
0000
0000
0000
0000
0000
0000
0000
0000
0000
0000
0000
3020
0000
0000
0000
0000
0000
0000
0000
0000
0000
0000
0000
0000
0000
0000
0000
0000
1030
0001
1000
0001
,
1000
0000
0000
0000
0010
0000
0000
0000
0000
0000
1000
0000
0000
0000
0100
0010
0001
0000
0000
0000
1000
0000
0010
0000
0000
0000
0100
0000
0000
0000
0001
0000
,
0000
0000
2000
0000
0000
0000
0000
0000
0000
3020
0000
0000
0000
0000
0000
0000
,
1031
1000
0100
0010
0001
0100
0010
1000
0001
0100
0001
1000
0100
0010
0001
0100
0010
1000
0010
0100
0001
1000
0100
0010
0001
1000
0010
1000
0001
0100
0001
1000
,
0100
0010
0001
1000
0010
0100
0001
1000
0100
1000
0010
0100
0001
1000
0100
0010
0001
1000
0001
0100
0010
1000
0100
0010
0001
0010
0100
1000
0010
0100
0001
1000
,
0001
0100
0010
1000
0001
0100
0001
1000
0100
1000
0010
0100
0001
1000
0100
0010
0001
1000
0001
0100
0010
1000
0100
1000
0001
0100
0001
1000
0010
0100
0001
1000
0100
0010
0001
0100
0010
1000
0001
0100
0001
1000
0100
1000
0010
0100
0001
1000
,
0100
0010
0001
1000
0010
1000
0001
0100
0001
1000
0100
0010
0001
0100
0010
1000
0001
0010
0001
0100
0010
0100
0001
1000
0100
1000
0010
0100
0001
1000
0100
0010
0001
0010
0100
1000
0010
0100
0001
1000
0001
0010
0200
0000
0000
0000
0000
0000
,
1300
0010
0100
0001
1000
0010
1000
0100
0010
0001
0100
0010
1000
0001
0100
0001
,
1000
0100
0010
0001
0100
0010
1000
0010
0100
0001
1000
0100
0010
0001
0100
0010
,
0100
0001
1000
0010
0100
0001
1000
0100
0010
0001
1000
0010
0100
0010
1000
0001
,
0100
0001
1000
0100
0010
0001
0100
0010
1000
0001
0010
0001
0100
0010
1000
0100
,
0010
0001
0010
0100
1000
0010
0100
0001
1000
0100
1000
0010
0100
0001
1000
0100
,
0010
0001
1000
0001
0100
0010
1000
0100
0010
0001
1000
0010
1000
0001
0100
0001
,
1000
0100
0010
0001
0100
0010
1000
0001
0010
0001
0100
0010
0100
0001
1000
0010
,
1000
0001
0100
0010
1000
0100
0010
0001
1000
0010
0100
0010
1000
0001
0100
0010
,
1000
0010
0100
0001
1000
0010
1000
0100
0010
0001
0100
0010
1000
0001
0100
0001
,
1000
0100
0010
0001
0100
0010
1000
0010
0100
0001
1000
0100
0010
0001
0100
0010
,
0100
0001
1000
0010
0100
0001
1000
0100
0010
0001
1000
0010
0100
0010
1000
0001
,
0100
0001
1000
0100
0010
0001
0100
0010
1000
0001
0010
0001
0100
0010
1000
0100
,
0010
0001
1000
0010
1000
0001
0100
0010
1000
0100
0010
0001
0100
0010
1000
0001
0100
0001
1000
0100
0010
0001
0100
0010
,
1000
0001
0100
0001
1000
0100
0010
0001
0100
0010
1000
0001
0010
0001
0100
0010
1000
0100
0010
0001
0100
0010
1000
0001
,
0100
0001
1000
0100
0010
0001
0100
0010
1000
0001
0100
0001
1000
0100
1000
0010
0100
0001
1000
0100
0010
0001
0100
0010
,
1000
0001
0100
0001
1000
0100
0010
0001
0100
0010
1000
0001
1000
0010
0100
0002
0000
0000
0000
0000
0000
0000
0000
0000
,
1003
0010
0100
0001
1000
0010
1000
0100
0010
0001
0100
0010
1000
0001
0100
0001
,
1000
0100
0010
0001
0100
0010
1000
0010
0100
0001
1000
0100
0010
0001
0100
0010
,
0100
0001
1000
0010
0100
0001
1000
0100
0010
0001
1000
0010
0100
0010
1000
0001
,
0100
0001
1000
0100
0010
0001
0100
0010
1000
0001
0010
0001
0100
0010
1000
0100
,
0010
0001
0010
0100
1000
0010
0100
0001
1000
0100
1000
0010
0100
0001
1000
0100
,
0010
0001
1000
0001
0100
0010
1000
0100
0010
0001
1000
0010
1000
0001
0100
0001
,
1000
0100
0010
0001
0100
0010
1000
0001
0010
0001
0100
0010
0100
0001
1000
0010
,
1000
0001
0100
0010
1000
0100
0010
0001
1000
0010
0100
0010
1000
0001
0100
0010
,
100M
0010
0100
0001
1000
0010
1000
0100
0010
0001
0100
0010
1000
0001
0100
0001
,
1000
0100
0010
0001
0100
0010
1000
0010
0100
0001
1000
0100
0010
0001
0100
0010
,
0100
0001
1000
0010
0100
0001
1000
0100
0010
0001
1000
0010
0100
0010
1000
0001
,
0100
0001
1000
0100
0010
0001
0100
0010
1000
0001
0010
0001
0100
0010
1000
0100
,
0010
0001
0010
0100
1000
0010
0100
0001
1000
0100
1000
0010
0100
0001
1000
0100
,
0010
0001
1000
0001
0100
0010
1000
0100
0010
0001
1000
0010
1000
0001
0100
0001
,
1000
0100
0010
0001
0100
0010
1000
0001
0010
0001
0100
0010
0100
0001
1000
0010
,
1000
0001
0100
0010
1000
0100
0010
0001
1000
0010
0100
0010
1000
0001
0100
0010
,
100M
0010
0100
0001
1000
0010
1000
0100
0010
0001
0100
0010
1000
0001
0100
0001
,
1000
0100
0010
0001
0100
0010
1000
0010
0100
0001
1000
0100
0010
0001
0100
0010
,
0100
0001
1000
0010
0100
0001
1000
0100
0010
0001
1000
0010
0100
0010
1000
0001
,
0100
0001
1000
0100
0010
0001
0100
0010
1000
0001
0010
0001
0100
0010
1000
0100
,
0010
0001
0010
0100
1000
0010
0100
0001
1000
0100
1000
0010
0100
0001
1000
0100
,
0010
0001
1000
0001
0100
0010
1000
0100
0010
0001
1000
0010
1000
0001
0100
0001
,
1000
0100
0010
0001
0100
0010
1000
0001
0010
0001
0100
0010
0100
0001
1000
0010
,
1000
0001
0100
0010
1000
0100
0010
0001
1000
0010
0100
0010
1000
0001
0100
0010
,
100M
0010
0100
0001
1000
0010
1000
0100
0010
0001
0100
0010
1000
0001
0100
0001
,
1000
0100
0010
0001
0100
0010
1000
0010
0100
0001
1000
0100
0010
0001
0100
0010
,
0100
0001
1000
0010
0100
0001
1000
0100
0010
0001
1000
0010
0100
0010
1000
0001
,
0100
0001
1000
0100
0010
0001
0100
0010
1000
0001
0010
0001
0100
0010
1000
0100
,
0010
0001
0010
0100
1000
0010
0100
0001
1000
0100
1000
0010
0100
0001
1000
0100
,
0010
0001
1000
0001
0100
0010
1000
0100
0010
0001
1000
0010
1000
0001
0100
0001
,
1000
0100
0010
0001
0100
0010
1000
0001
0010
0001
0100
0010
0100
0001
1000
0010
,
1000
0001
0100
0010
1000
0100
0010
0001
1000
0010
0100
0010
1000
0001
0100
0010
,
100M
0010
0100
0001
1000
0010
1000
0100
0010
0001
0100
0010
1000
0001
0100
0001
,
1000
0100
0010
0001
0100
0010
1000
0010
0100
0001
1000
0100
0010
0001
0100
0010
,
0100
0001
1000
0010
0100
0001
1000
0100
0010
0001
1000
0010
0100
0010
1000
0001
,
0100
0001
1000
0100
0010
0001
0100
0010
1000
0001
0010
0001
0100
0010
1000
0100
,
0010
0001
0010
0100
1000
0010
0100
0001
1000
0100
1000
0010
0100
0001
1000
0100
,
0010
0001
1000
0001
0100
0010
1000
0100
0010
0001
1000
0010
1000
0001
0100
0001
,
1000
0100
0010
0001
0100
0010
1000
0001
0010
0001
0100
0010
0100
0001
1000
0010
,
1000
0001
0100
0010
1000
0100
0010
0001
1000
0010
0100
0010
1000
0001
0100
0010
,
100M
0010
0100
0001
1000
0010
1000
0100
0010
0001
0100
0010
1000
0001
0100
0001
,
1000
0100
0010
0001
0100
0010
1000
0010
0100
0001
1000
0100
0010
0001
0100
0010
,
0100
0001
1000
0010
0100
0001
1000
0100
0010
0001
1000
0010
0100
0010
1000
0001
,
0100
0001
1000
0100
0010
0001
0100
0010
1000
0001
0010
0001
0100
0010
1000
0100
,
0010
0001
0010
0100
1000
0010
0100
0001
1000
0100
1000
0010
0100
0001
1000
0100
,
0010
0001
1000
0001
0100
0010
1000
0100
0010
0001
1000
0010
1000
0001
0100
0001
,
1000
0100
0010
0001
0100
0010
1000
0001
0010
0001
0100
0010
0100
0001
1000
0010
,
1000
0001
0100
0010
1000
0100
0010
0001
1000
0010
0100
0010
1000
0001
0100
0010
,
100M
0010
0100
0001
1000
0010
1000
0100
0010
0001
0100
0010
1000
0001
0100
0001
,
1000
0100
0010
0001
0100
0010
1000
0010
0100
0001
1000
0100
0010
0001
0100
0010
,
0100
0001
1000
0010
0100
0001
1000
0100
0010
0001
1000
0010
0100
0010
1000
0001
,
0100
0001
1000
0100
0010
0001
0100
0010
1000
0001
0010
0001
0100
0010
1000
0100
,
0010
0001
0010
0100
1000
0010
0100
0001
1000
0100
1000
0010
0100
0001
1000
0100
,
0010
0001
1000
0001
0100
0010
1000
0100
0010
0001
1000
0010
1000
0001
0100
0001
,
1000
0100
0010
0001
0100
0010
1000
0001
0010
0001
0100
0010
0100
0001
1000
0010
,
1000
0001
0100
0010
1000
0100
0010
0001
1000
0010
0100
0010
1000
0001
0100
0010
,
100M
0010
0100
0001
1000
0010
1000
0100
0010
0001
0100
0010
1000
0001
0100
0001
,
1000
0100
0010
0001
0100
0010
1000
0010
0100
0001
1000
0100
0010
0001
0100
0010
,
0100
0001
1000
0010
0100
0001
1000
0100
0010
0001
1000
0010
0100
0010
1000
0001
,
0100
0001
1000
0100
0010
0001
0100
0010
1000
0001
0010
0001
0100
0010
1000
0100
,
0010
0001
0010
0100
1000
0010
0100
0001
1000
0100
1000
0010
0100
0001
1000
0100
,
0010
0001
1000
0001
0100
0010
1000
0100
0010
0001
1000
0010
1000
0001
0100
0001
,
1000
0100
0010
0001
0100
0010
1000
0001
0010
0001
0100
0010
0100
0001
1000
0010
,
1000
0001
0100
0010
1000
0100
0010
0001
1000
0010
0100
0010
1000
0001
0100
0010
,
1000
0010
0100
0001
1000
0010
1000
0100
0010
0001
0100
0010
1000
0001
0100
0001
,
1000
0100
0010
0001
0100
0010
1000
0010
0100
0001
1000
0100
0010
0001
0100
0010
,
0100
0001
1000
0010
0100
0001
1000
0100
0010
0001
1000
0010
0100
0010
1000
0001
,
0100
0001
1000
0100
0010
0001
0100
0010
1000
0001
0010
0001
0100
0010
1000
0100
,
0010
0001
0010
0100
1000
0010
0100
0001
1000
0100
1000
0010
0100
0001
1000
0100
,
0010
0001
1000
0001
0100
0010
1000
0100
0010
0001
1000
0010
1000
0001
0100
0001
,
1000
0100
0010
0001
0100
0010
1000
0001
0010
0001
0100
0010
0100
0001
1000
0010
,
1000
0001
0100
0010
1000
0100
0010
0001
1000
0010
0100
0010
1000
0001
0100
0010
,
100M
0010
0100
0001
1000
0010
1000
0100
0010
0001
0100
0010
1000
0001
0100
0001
,
1000
0100
0010
0001
0100
0010
1000
0010
0100
0001
1000
0100
0010
0001
0100
0010
,
0100
0001
1000
0010
0100
0001
1000
0100
0010
0001
1000
0010
0100
0010
1000
0001
,
0100
0001
1000
0100
0010
0001
0100
0010
1000
0001
0010
0001
0100
0010
1000
0100
,
0010
0001
0010
0100
1000
0010
0100
0001
1000
0100
1000
0010
0100
0001
1000
0100
,
0010
0001
1000
0001
0100
0010
1000
0100
0010
0001
1000
0010
1000
0001
0100
0001
,
1000
0100
0010
0001
0100
0010
1000
0001
0010
0001
0100
0010
0100
0001
1000
0010
,
1000
0001
0100
0010
1000
0100
0010
0001
1000
0010
0100
0010
1000
0001
0100
0010
,
100M
0010
0100
0001
1000
0010
1000
0100
0010
0001
0100
0010
1000
0001
0100
0001
,
1000
0100
0010
0001
0100
0010
1000
0010
0100
0001
1000
0100
0010
0001
0100
0010
,
0100
0001
1000
0010
0100
0001
1000
0100
0010
0001
1000
0010
0100
0010
1000
0001
,
0100
0001
1000
0100
0010
0001
0100
0010
1000
0001
0010
0001
0100
0010
1000
0100
,
0010
0001
0010
0100
1000
0010
0100
0001
1000
0100
1000
0010
0100
0001
1000
0100
,
0010
0001
1000
0001
0100
0010
1000
0100
0010
0001
1000
0010
1000
0001
0100
0001
,
1000
0100
0010
0001
0100
0010
1000
0001
0010
0001
0100
0010
0100
0001
1000
0010
,
1000
0001
0100
0010
1000
0100
0010
0001
1000
0010
0100
0010
1000
0001
0100
0010
,
100M
0010
0100
0001
1000
0010
1000
0100
0010
0001
0100
0010
1000
0001
0100
0001
,
1000
0100
0010
0001
0100
0010
1000
0010
0100
0001
1000
0100
0010
0001
0100
0010
,
0100
0001
1000
0010
0100
0001
1000
0100
0010
0001
1000
0010
0100
0010
1000
0001
,
0100
0001
1000
0100
0010
0001
0100
0010
1000
0001
0010
0001
0100
0010
1000
0100
,
0010
0001
0010
0100
1000
0010
0100
0001
1000
0100
1000
0010
0100
0001
1000
0100
,
0010
0001
1000
0001
0100
0010
1000
0100
0010
0001
1000
0010
1000
0001
0100
0001
,
1000
0100
0010
0001
0100
0010
1000
0001
0010
0001
0100
0010
0100
0001
1000
0010
,
1000
0001
0100
0010
1000
0100
0010
0001
1000
0010
0100
0010
1000
0001
0100
0010
,
1M00
0001
1000
0010
0100
0001
1000
0100
0010
0001
1000
0010
0100
0010
1000
0001
,
0100
0001
1000
0100
0010
0001
0100
0010
1000
0001
0010
0001
0100
0010
1000
0100
,
0010
0001
0010
0100
1000
0010
0100
0001
1000
0100
1000
0010
0100
0001
1000
0100
,
0010
0001
1000
0001
0100
0010
1000
0100
0010
0001
1000
0010
1000
0001
0100
0001
,
1000
0100
0010
0001
0100
0010
1000
0001
0010
0001
0100
0010
0100
0001
1000
0010
,
1000
0001
0100
0010
1000
0100
0010
0001
1000
0010
0100
0010
1000
0001
0100
0010
,
1000
0010
0100
0001
1000
0010
1000
0100
0010
0001
0100
0010
1000
0001
0100
0001
,
1000
0100
0010
0001
0100
0010
1000
0010
0100
0001
1000
0100
0010
0001
0100
0010
,
0100
0001
1000
0010
0100
0001
1000
0100
0010
0001
1000
0010
0100
0010
1000
0001
,
0100
0001
1000
0100
0010
0001
0100
0010
1000
0001
0010
0001
0100
0010
1000
0100
,
0010
0001
0010
0100
1000
0010
0100
0001
1000
0100
1000
0010
0100
0001
1000
0100
,
0010
0001
1000
0001
0100
0010
1000
0100
0010
0001
1000
0010
1000
0001
0100
0001
,
1000
0100
0010
0001
0100
0010
1000
0001
0010
0001
0100
0010
0100
0001
1000
0010
,
1000
0001
0100
0010
1000
0100
0010
0001
1000
0010
0100
0010
1000
0001
0100
0010
,
1000
0001
0010
0001
0100
0010
1000
0100
0010
0001
0010
0100
1000
0010
0100
0001
,
1000
0100
1000
0010
0100
0001
1000
0100
0010
0001
1000
0001
0200
0000
0000
0000
,
0320
0000
0000
0000
,
0000
0000
0000
0000
,
0000
0000
0000
0000
,
0000
0000
0000
0000
,
0000
0000
0000
0000
,
0000
0000
0000
0000
,
0000
0000
0030
0000
;

//---------------dance-single - 20 (owenviau1)----------------
#NOTES:
     dance-single:
     20 (owenviau1):
     Challenge:
     20:
     1.000,1.000,0.002,0.054,1.000,5028.000,1.000,25.000,4.000,1.000:
1000
0010
0100
0001
1000
0010
1000
0100
0010
0001
0100
0010
1000
0001
0100
0001
,
1000
0100
0010
0001
0100
0010
1000
0010
0100
0001
1000
0100
0010
0001
0100
0010
,
0100
0001
1000
0010
0100
0001
1000
0100
0010
0001
1000
0010
0100
0010
1000
0001
,
0100
0001
1000
0100
0010
0001
0100
0010
1000
0001
0010
0001
0100
0010
1000
0100
,
0010
0001
0010
0100
1000
0010
0100
0001
1000
0100
1000
0010
0100
0001
1000
0100
,
0010
0001
1000
0001
0100
0010
1000
0100
0010
0001
1000
0010
1000
0001
0100
0001
,
1000
0100
0010
0001
0100
0010
1000
0001
0010
0001
0100
0010
0100
0001
1000
0010
,
1000
0001
0100
0010
1000
0100
0010
0001
1000
0010
0100
0010
1000
0001
0100
0010
,
100M
0010
0100
0001
1000
0010
1000
0100
0010
0001
0100
0010
1000
0001
0100
0001
,
1000
0100
0010
0001
0100
0010
1000
0010
0100
0001
1000
0100
0010
0001
0100
0010
,
0100
0001
1000
0010
0100
0001
1000
0100
0010
0001
1000
0010
0100
0010
1000
0001
,
0100
0001
1000
0100
0010
0001
0100
0010
1000
0001
0010
0001
0100
0010
1000
0100
,
0010
0001
0010
0100
1000
0010
0100
0001
1000
0100
1000
0010
0100
0001
1000
0100
,
0010
0001
1000
0001
0100
0010
1000
0100
0010
0001
1000
0010
1000
0001
0100
0001
,
1000
0100
0010
0001
0100
0010
1000
0001
0010
0001
0100
0010
0100
0001
1000
0010
,
1000
0001
0100
0010
1000
0100
0010
0001
1000
0010
0100
0010
1000
0001
0100
0010
,
100M
0010
0100
0001
1000
0010
1000
0100
0010
0001
0100
0010
1000
0001
0100
0001
,
1000
0100
0010
0001
0100
0010
1000
0010
0100
0001
1000
0100
0010
0001
0100
0010
,
0100
0001
1000
0010
0100
0001
1000
0100
0010
0001
1000
0010
0100
0010
1000
0001
,
0100
0001
1000
0100
0010
0001
0100
0010
1000
0001
0010
0001
0100
0010
1000
0100
,
0010
0001
0010
0100
1000
0010
0100
0001
1000
0100
1000
0010
0100
0001
1000
0100
,
0010
0001
1000
0001
0100
0010
1000
0100
0010
0001
1000
0010
1000
0001
0100
0001
,
1000
0100
0010
0001
0100
0010
1000
0001
0010
0001
0100
0010
0100
0001
1000
0010
,
1000
0001
0100
0010
1000
0100
0010
0001
1000
0010
0100
0010
1000
0001
0100
0010
,
100M
0010
0100
0001
1000
0010
1000
0100
0010
0001
0100
0010
1000
0001
0100
0001
,
1000
0100
0010
0001
0100
0010
1000
0010
0100
0001
1000
0100
0010
0001
0100
0010
,
0100
0001
1000
0010
0100
0001
1000
0100
0010
0001
1000
0010
0100
0010
1000
0001
,
0100
0001
1000
0100
0010
0001
0100
0010
1000
0001
0010
0001
0100
0010
1000
0100
,
0010
0001
0010
0100
1000
0010
0100
0001
1000
0100
1000
0010
0100
0001
1000
0100
,
0010
0001
1000
0001
0100
0010
1000
0100
0010
0001
1000
0010
1000
0001
0100
0001
,
1000
0100
0010
0001
0100
0010
1000
0001
0010
0001
0100
0010
0100
0001
1000
0010
,
1000
0001
0100
0010
1000
0100
0010
0001
1000
0010
0100
0010
1000
0001
0100
0010
,
1000
0001
0100
0001
1000
0010
0100
0001
1000
0100
1000
0010
0100
0001
1000
0100
0010
0001
0100
0010
1000
0001
0100
0001
,
1000
0100
0010
0001
0100
0010
1000
0001
0010
0001
0100
0010
1000
0100
0010
0001
1000
0001
0100
0010
1000
0100
0010
0001
,
1000
0010
1000
0001
0100
0010
1000
0100
1000
0001
0100
0010
1000
0001
0100
0010
0100
0001
1000
0010
0100
0010
1000
0001
,
1000
0010
0100
0001
1000
0100
0010
0001
0010
0100
1000
0010
0100
0001
1000
0010
1000
0001
0100
0001
1000
0100
0010
0001
,
0100
0010
1000
0001
0010
0001
0100
0010
1000
0100
0010
0001
1000
0100
1000
0010
0100
0001
1000
0100
0010
0001
0100
0010
,
1000
0001
0100
0001
1000
0100
0010
0001
1000
0010
0100
0001
0010
0001
1000
0010
1000
0001
0100
0010
1000
0100
0010
0001
,
1000
0001
0100
0001
1000
0010
0100
0001
1000
0100
1000
0010
0100
0001
1000
0100
0010
0001
0100
0010
1000
0001
0100
0001
,
1000
0100
0010
0001
0100
0010
1000
0001
0010
0001
0100
0010
1000
0100
0010
0001
1000
0001
0100
0010
1000
0100
0010
0001
,
1000
0010
1000
0001
0100
0010
1000
0100
1000
0001
0100
0010
1000
0001
0100
0010
0100
0001
1000
0010
0100
0010
1000
0001
,
1000
0010
0100
0001
1000
0100
0010
0001
0010
0100
1000
0010
0100
0001
1000
0010
1000
0001
0100
0001
1000
0100
0010
0001
,
0100
0010
1000
0001
0010
0001
0100
0010
1000
0100
0010
0001
1000
0100
1000
0010
0100
0001
1000
0100
0010
0001
0100
0010
,
1000
0001
0100
0001
1000
0100
0010
0001
1000
0010
0100
0001
0010
0001
1000
0010
1000
0001
0100
0010
1000
0100
0010
0001
,
1000
0001
0100
0001
1000
0010
0100
0001
1000
0100
1000
0010
0100
0001
1000
0100
0010
0001
0100
0010
1000
0001
0100
0001
,
1000
0100
0010
0001
0100
0010
1000
0001
0010
0001
0100
0010
1000
0100
0010
0001
1000
0001
0100
0010
1000
0100
0010
0001
,
1000
0010
1000
0001
0100
0010
1000
0100
1000
0001
0100
0010
1000
0001
0100
0010
0100
0001
1000
0010
0100
0010
1000
0001
,
1000
0010
0100
0001
1000
0100
0010
0001
0010
0100
1000
0010
0100
0001
1000
0010
1000
0001
0100
0001
1000
0100
0010
0001
,
0100
0010
1000
0001
0010
0001
0100
0010
1000
0100
0010
0001
1000
0100
1000
0010
0100
0001
1000
0100
0010
0001
0100
0010
,
1000
0001
0100
0001
1000
0100
0010
0001
1000
0010
0100
0001
0010
0001
1000
0010
1000
0001
0100
0010
1000
0100
0010
0001
,
1000
0001
0100
0001
1000
0010
0100
0001
1000
0100
1000
0010
0100
0001
1000
0100
0010
0001
0100
0010
1000
0001
0100
0001
,
1000
0100
0010
0001
0100
0010
1000
0001
0010
0001
0100
0010
1000
0100
0010
0001
1000
0001
0100
0010
1000
0100
0010
0001
,
1000
0010
1000
0001
0100
0010
1000
0100
1000
0001
0100
0010
1000
0001
0100
0010
0100
0001
1000
0010
0100
0010
1000
0001
,
1000
0010
0100
0001
1000
0100
0010
0001
0010
0100
1000
0010
0100
0001
1000
0010
1000
0001
0100
0001
1000
0100
0010
0001
,
0100
0010
1000
0001
0010
0001
0100
0010
1000
0100
0010
0001
1000
0100
1000
0010
0100
0001
1000
0100
0010
0001
0100
0010
,
1000
0001
0100
0001
1000
0100
0010
0001
1000
0010
0100
0001
0010
0001
1000
0010
1000
0001
0100
0010
1000
0100
0010
0001
,
1000
0001
0100
0001
1000
0010
0100
0001
1000
0100
1000
0010
0100
0001
1000
0100
0010
0001
0100
0010
1000
0001
0100
0001
,
1000
0100
0010
0001
0100
0010
1000
0001
0010
0001
0100
0010
1000
0100
0010
0001
1000
0001
0100
0010
1000
0100
0010
0001
,
1000
0010
1000
0001
0100
0010
1000
0100
1000
0001
0100
0010
1000
0001
0100
0010
0100
0001
1000
0010
0100
0010
1000
0001
,
1000
0010
0100
0001
1000
0100
0010
0001
0010
0100
1000
0010
0100
0001
1000
0010
1000
0001
0100
0001
1000
0100
0010
0001
,
0100
0010
1000
0001
0010
0001
0100
0010
1000
0100
0010
0001
1000
0100
1000
0010
0100
0001
1000
0100
0010
0001
0100
0010
,
1000
0001
0100
0001
1000
0100
0010
0001
1000
0010
0100
0001
0010
0001
1000
0010
1000
0001
0100
0010
1000
0100
0010
0001
,
1000
0001
0100
0001
1000
0010
0100
0001
1000
0100
1000
0010
0100
0001
1000
0100
0010
0001
0100
0010
1000
0001
0100
0001
,
1000
0100
0010
0001
0100
0010
1000
0001
0010
0001
0100
0010
1000
0100
0010
0001
1000
0001
0100
0010
1000
0100
0010
0001
,
1000
0010
1000
0001
0100
0010
1000
0100
1000
0001
0100
0010
1000
0001
0100
0010
0100
0001
1000
0010
0100
0010
1000
0001
,
1000
0010
0100
0001
1000
0100
0010
0001
0010
0100
1000
0010
0100
0001
1000
0010
1000
0001
0100
0001
1000
0100
0010
0001
,
0100
0010
1000
0001
0010
0001
0100
0010
1000
0100
0010
0001
1000
0100
1000
0010
0100
0001
1000
0100
0010
0001
0100
0010
,
1000
0001
0100
0001
1000
0100
0010
0001
1000
0010
0100
0001
0010
0001
1000
0010
1000
0001
0100
0010
1000
0100
0010
0001
,
1000
0001
0100
0001
1000
0010
0100
0001
1000
0100
1000
0010
0100
0001
1000
0100
0010
0001
0100
0010
1000
0001
0100
0001
,
1000
0100
0010
0001
0100
0010
1000
0001
0010
0001
0100
0010
1000
0100
0010
0001
1000
0001
0100
0010
1000
0100
0010
0001
,
1000
0010
1000
0001
0100
0010
1000
0100
1000
0001
0100
0010
1000
0001
0100
0010
0100
0001
1000
0010
0100
0010
1000
0001
,
1000
0010
0100
0001
1000
0100
0010
0001
0010
0100
1000
0010
0100
0001
1000
0010
1000
0001
0100
0001
1000
0100
0010
0001
,
0100
0010
1000
0001
0010
0001
0100
0010
1000
0100
0010
0001
1000
0100
1000
0010
0100
0001
1000
0100
0010
0001
0100
0010
,
1000
0001
0100
0001
1000
0100
0010
0001
1000
0010
0100
0001
0010
0001
1000
0010
1000
0001
0100
0010
1000
0100
0010
0001
,
1000
0001
0100
0001
1000
0010
0100
0001
1000
0100
1000
0010
0100
0001
1000
0100
0010
0001
0100
0010
1000
0001
0100
0001
,
1000
0100
0010
0001
0100
0010
1000
0001
0010
0001
0100
0010
1000
0100
0010
0001
1000
0001
0100
0010
1000
0100
0010
0001
,
1000
0010
1000
0001
0100
0010
1000
0100
1000
0001
0100
0010
1000
0001
0100
0010
0100
0001
1000
0010
0100
0010
1000
0001
,
1000
0010
0100
0001
1000
0100
0010
0001
0010
0100
1000
0010
0100
0001
1000
0010
1000
0001
0100
0001
1000
0100
0010
0001
,
0100
0010
1000
0001
0010
0001
0100
0010
1000
0100
0010
0001
1000
0100
1000
0010
0100
0001
1000
0100
0010
0001
0100
0010
,
1000
0001
0100
0001
1000
0100
0010
0001
1000
0010
0100
0001
0010
0001
1000
0010
1000
0001
0100
0010
1000
0100
0010
0001
,
1000
0001
0100
0001
1000
0010
0100
0001
1000
0100
1000
0010
0100
0001
1000
0100
0010
0001
0100
0010
1000
0001
0100
0001
,
1000
0100
0010
0001
0100
0010
1000
0001
0010
0001
0100
0010
1000
0100
0010
0001
1000
0001
0100
0010
1000
0100
0010
0001
,
1000
0010
1000
0001
0100
0010
1000
0100
1000
0001
0100
0010
1000
0001
0100
0010
0100
0001
1000
0010
0100
0010
1000
0001
,
1000
0010
0100
0001
1000
0100
0010
0001
0010
0100
1000
0010
0100
0001
1000
0010
1000
0001
0100
0001
1000
0100
0010
0001
,
0100
0010
1000
0001
0010
0001
0100
0010
1000
0100
0010
0001
1000
0100
1000
0010
0100
0001
1000
0100
0010
0001
0100
0010
,
1000
0001
0100
0001
1000
0100
0010
0001
1000
0010
0100
0001
0010
0001
1000
0010
1000
0001
0100
0010
1000
0100
0010
0001
,
1000
0001
0100
0001
1000
0010
0100
0001
1000
0100
1000
0010
0100
0001
1000
0100
0010
0001
0100
0010
1000
0001
0100
0001
,
1000
0100
0010
0001
0100
0010
1000
0001
0010
0001
0100
0010
1000
0100
0010
0001
1000
0001
0100
0010
1000
0100
0010
0001
,
1000
0010
0100
0001
1000
0010
1000
0100
0010
0001
0100
0010
1000
0001
0100
0001
,
1000
0100
0010
0001
0100
0010
1000
0010
0100
0001
1000
0100
0010
0001
0100
0010
,
0100
0001
1000
0010
0100
0001
1000
0100
0010
0001
1000
0010
0100
0010
1000
0001
,
0100
0001
1000
0100
0010
0001
0100
0010
1000
0001
0010
0001
0100
0010
1000
0100
,
0010
0001
0010
0100
1000
0010
0100
0001
1000
0100
1000
0010
0100
0001
1000
0100
,
0010
0001
1000
0001
0100
0010
1000
0100
0010
0001
1000
0010
1000
0001
0100
0001
,
1000
0100
0010
0001
0100
0010
1000
0001
0010
0001
0100
0010
0100
0001
1000
0010
,
1000
0001
0100
0010
1000
0100
0010
0001
1000
0010
0100
0010
1000
0001
0100
0010
,
1000
0000
0000
0000
1000
0000
0100
0000
0000
0000
0100
0000
0000
0000
0010
0001
,
0010
0000
0100
1000
0000
1000
0000
1000
,
0010
0000
0000
1000
0001
0000
1000
0010
0000
0100
0001
0000
1000
0100
0000
0000
,
0000
0000
0000
0000
0001
0000
0000
1000
0010
0000
0100
0001
1000
0100
0010
0001
,
1000
0010
0000
0010
0100
0000
0100
0001
0000
1000
0100
0000
0000
0000
0000
0000
,
0000
0000
0000
0000
,
0000
0000
0002
0000
,
0000
0000
0000
0000
0000
0000
0000
0000
0000
0000
0000
0000
0000
0000
0000
0000
0000
0000
0003
1000
0001
1000
0001
1000
,
0002
0000
0000
0000
,
0000
2003
0000
0000
0000
0000
3020
0000
0000
0000
0000
0000
0000
0000
0000
0000
,
0000
0000
0000
0230
0000
0000
0000
0000
0000
0000
0000
0000
0000
0302
0000
0000
,
0000
0000
0000
0000
0000
2003
0000
0000
0000
0000
0000
0000
0000
0000
0000
0000
,
0000
0000
0000
3020
0000
0000
0000
0000
0000
0000
0000
0000
0000
2030
0000
0000
,
0000
3200
0000
0000
0320
0000
0000
0000
0032
0000
0000
0000
0000
0000
0000
0000
,
0000
0000
2003
0000
0000
0000
0000
0000
0000
0000
0000
0000
0000
3020
0000
0000
,
0000
0000
0000
0000
0000
0000
0230
0000
0000
0000
0000
0000
0000
0000
0000
0000
0000
0000
0000
0000
0000
0000
0000
0000
0000
0000
0000
0000
0000
0000
0000
0000
0000
0000
0000
0000
0000
0000
0000
0000
0000
0000
0000
0000
1300
0001
1000
0001
,
1000
0000
0000
0000
1000
0000
0000
0000
0000
0000
1000
0000
0000
0000
0100
0010
0001
0000
0000
0000
1000
0000
0010
0000
0000
0000
0100
0000
0000
0000
0001
0000
,
0000
0000
0000
1000
0000
0000
0000
0000
0000
0000
0000
0000
1000
0000
0000
0000
0000
0000
0000
0000
0000
1000
0000
0000
0000
0000
0000
0000
0000
0000
0000
0000
0000
0000
0000
0000
0000
0000
0000
0000
0000
0000
0000
0000
0000
0000
0000
0000
0000
0000
0000
0000
0000
0000
0020
0000
0000
0000
0000
0000
0000
0000
0000
0000
0000
0000
0000
0000
0000
0000
0000
0000
0000
0000
0000
0000
0000
0000
0000
0000
0000
0000
0000
0000
0000
0000
0000
0000
1030
0000
0001
0000
1000
0000
0001
0000
,
1000
0000
0000
0000
0001
0000
0000
0000
0000
0000
1000
0000
0000
0000
0100
0010
0001
0000
0000
0000
1000
0000
0010
0000
0000
0000
0100
0000
0000
0000
0001
0000
,
0000
0000
0000
0000
0000
0000
1000
0000
0000
0100
0000
0000
0010
0000
0000
0000
0000
0000
0001
0000
0000
0010
0000
0000
0000
0000
0000
0100
0000
0000
1000
0000
0000
0000
0000
0000
0100
0000
0000
1000
0000
0000
0000
0000
0000
0000
0000
0000
0000
0000
0000
0000
0000
0000
0020
0000
0000
0000
0000
0000
0000
0000
0000
0000
0000
0000
0000
0000
0000
0000
0000
0000
0000
0000
0000
0000
0000
0000
0000
0000
0000
0000
0000
0000
0000
0000
0000
0000
1030
0000
0001
0000
1000
0000
0001
0000
,
1000
0000
0000
0000
0100
0000
0000
0000
0000
0000
1000
0000
0000
0000
0100
0010
0001
0000
0000
0000
1000
0000
0010
0000
0000
0000
0100
0000
0000
0000
0001
0000
,
2000
0000
0000
0000
0000
0000
0000
0000
0000
0000
0000
0000
0000
0000
0000
0000
0000
0000
0000
0000
0000
0000
0000
0000
0000
0000
0000
3020
0000
0000
0000
0000
0000
0000
0000
0000
0000
0000
0000
0000
0000
0000
0000
0000
1030
0001
1000
0001
,
1000
0000
0000
0000
0010
0000
0000
0000
0000
0000
1000
0000
0000
0000
0100
0010
0001
0000
0000
0000
1000
0000
0010
0000
0000
0000
0100
0000
0000
0000
0001
0000
,
0000
0000
2000
0000
0000
0000
0000
0000
0000
3020
0000
0000
0000
0000
0000
0000
,
1031
1000
0100
0010
0001
0100
0010
1000
0001
0100
0001
1000
0100
0010
0001
0100
0010
1000
0010
0100
0001
1000
0100
0010
0001
1000
0010
1000
0001
0100
0001
1000
,
0100
0010
0001
1000
0010
0100
0001
1000
0100
1000
0010
0100
0001
1000
0100
0010
0001
1000
0001
0100
0010
1000
0100
0010
0001
0010
0100
1000
0010
0100
0001
1000
,
0001
0100
0010
1000
0001
0100
0001
1000
0100
1000
0010
0100
0001
1000
0100
0010
0001
1000
0001
0100
0010
1000
0100
1000
0001
0100
0001
1000
0010
0100
0001
1000
0100
0010
0001
0100
0010
1000
0001
0100
0001
1000
0100
1000
0010
0100
0001
1000
,
0100
0010
0001
1000
0010
1000
0001
0100
0001
1000
0100
0010
0001
0100
0010
1000
0001
0010
0001
0100
0010
0100
0001
1000
0100
1000
0010
0100
0001
1000
0100
0010
0001
0010
0100
1000
0010
0100
0001
1000
0001
0010
0200
0000
0000
0000
0000
0000
,
1300
0010
0100
0001
1000
0010
1000
0100
0010
0001
0100
0010
1000
0001
0100
0001
,
1000
0100
0010
0001
0100
0010
1000
0010
0100
0001
1000
0100
0010
0001
0100
0010
,
0100
0001
1000
0010
0100
0001
1000
0100
0010
0001
1000
0010
0100
0010
1000
0001
,
0100
0001
1000
0100
0010
0001
0100
0010
1000
0001
0010
0001
0100
0010
1000
0100
,
0010
0001
0010
0100
1000
0010
0100
0001
1000
0100
1000
0010
0100
0001
1000
0100
,
0010
0001
1000
0001
0100
0010
1000
0100
0010
0001
1000
0010
1000
0001
0100
0001
,
1000
0100
0010
0001
0100
0010
1000
0001
0010
0001
0100
0010
0100
0001
1000
0010
,
1000
0001
0100
0010
1000
0100
0010
0001
1000
0010
0100
0010
1000
0001
0100
0010
,
1000
0010
0100
0001
1000
0010
1000
0100
0010
0001
0100
0010
1000
0001
0100
0001
,
1000
0100
0010
0001
0100
0010
1000
0010
0100
0001
1000
0100
0010
0001
0100
0010
,
0100
0001
1000
0010
0100
0001
1000
0100
0010
0001
1000
0010
0100
0010
1000
0001
,
0100
0001
1000
0100
0010
0001
0100
0010
1000
0001
0010
0001
0100
0010
1000
0100
,
0010
0001
1000
0010
1000
0001
0100
0010
1000
0100
0010
0001
0100
0010
1000
0001
0100
0001
1000
0100
0010
0001
0100
0010
,
1000
0001
0100
0001
1000
0100
0010
0001
0100
0010
1000
0001
0010
0001
0100
0010
1000
0100
0010
0001
0100
0010
1000
0001
,
0100
0001
1000
0100
0010
0001
0100
0010
1000
0001
0100
0001
1000
0100
1000
0010
0100
0001
1000
0100
0010
0001
0100
0010
,
1000
0001
0100
0001
1000
0100
0010
0001
0100
0010
1000
0001
1000
0010
0100
0002
0000
0000
0000
0000
0000
0000
0000
0000
,
1003
0010
0100
0001
1000
0010
0100
0001
1000
0100
1000
0010
0100
0001
1000
0100
0010
0001
0100
0010
1000
0001
0100
0001
,
1000
0100
0010
0001
0100
0010
1000
0001
0010
0001
0100
0010
1000
0100
0010
0001
1000
0001
0100
0010
1000
0100
0010
0001
,
1000
0010
1000
0001
0100
0010
1000
0100
1000
0001
0100
0010
1000
0001
0100
0010
0100
0001
1000
0010
0100
0010
1000
0001
,
1000
0010
0100
0001
1000
0100
0010
0001
0010
0100
1000
0010
0100
0001
1000
0010
1000
0001
0100
0001
1000
0100
0010
0001
,
0100
0010
1000
0001
0010
0001
0100
0010
1000
0100
0010
0001
1000
0100
1000
0010
0100
0001
1000
0100
0010
0001
0100
0010
,
1000
0001
0100
0001
1000
0100
0010
0001
1000
0010
0100
0001
0010
0001
1000
0010
1000
0001
0100
0010
1000
0100
0010
0001
,
1000
0001
0100
0001
1000
0010
0100
0001
1000
0100
1000
0010
0100
0001
1000
0100
0010
0001
0100
0010
1000
0001
0100
0001
,
1000
0100
0010
0001
0100
0010
1000
0001
0010
0001
0100
0010
1000
0100
0010
0001
1000
0001
0100
0010
1000
0100
0010
0001
,
1000
0010
1000
0001
0100
0010
1000
0100
1000
0001
0100
0010
1000
0001
0100
0010
0100
0001
1000
0010
0100
0010
1000
0001
,
1000
0010
0100
0001
1000
0100
0010
0001
0010
0100
1000
0010
0100
0001
1000
0010
1000
0001
0100
0001
1000
0100
0010
0001
,
0100
0010
1000
0001
0010
0001
0100
0010
1000
0100
0010
0001
1000
0100
1000
0010
0100
0001
1000
0100
0010
0001
0100
0010
,
1000
0001
0100
0001
1000
0100
0010
0001
1000
0010
0100
0001
0010
0001
1000
0010
1000
0001
0100
0010
1000
0100
0010
0001
,
1000
0001
0100
0001
1000
0010
0100
0001
1000
0100
1000
0010
0100
0001
1000
0100
0010
0001
0100
0010
1000
0001
0100
0001
,
1000
0100
0010
0001
0100
0010
1000
0001
0010
0001
0100
0010
1000
0100
0010
0001
1000
0001
0100
0010
1000
0100
0010
0001
,
1000
0010
1000
0001
0100
0010
1000
0100
1000
0001
0100
0010
1000
0001
0100
0010
0100
0001
1000
0010
0100
0010
1000
0001
,
1000
0010
0100
0001
1000
0100
0010
0001
0010
0100
1000
0010
0100
0001
1000
0010
1000
0001
0100
0001
1000
0100
0010
0001
,
0100
0010
1000
0001
0010
0001
0100
0010
1000
0100
0010
0001
1000
0100
1000
0010
0100
0001
1000
0100
0010
0001
0100
0010
,
1000
0001
0100
0001
1000
0100
0010
0001
1000
0010
0100
0001
0010
0001
1000
0010
1000
0001
0100
0010
1000
0100
0010
0001
,
1000
0001
0100
0001
1000
0010
0100
0001
1000
0100
1000
0010
0100
0001
1000
0100
0010
0001
0100
0010
1000
0001
0100
0001
,
1000
0100
0010
0001
0100
0010
1000
0001
0010
0001
0100
0010
1000
0100
0010
0001
1000
0001
0100
0010
1000
0100
0010
0001
,
1000
0010
1000
0001
0100
0010
1000
0100
1000
0001
0100
0010
1000
0001
0100
0010
0100
0001
1000
0010
0100
0010
1000
0001
,
1000
0010
0100
0001
1000
0100
0010
0001
0010
0100
1000
0010
0100
0001
1000
0010
1000
0001
0100
0001
1000
0100
0010
0001
,
0100
0010
1000
0001
0010
0001
0100
0010
1000
0100
0010
0001
1000
0100
1000
0010
0100
0001
1000
0100
0010
0001
0100
0010
,
1000
0001
0100
0001
1000
0100
0010
0001
1000
0010
0100
0001
0010
0001
1000
0010
1000
0001
0100
0010
1000
0100
0010
0001
,
1000
0001
0100
0001
1000
0010
0100
0001
1000
0100
1000
0010
0100
0001
1000
0100
0010
0001
0100
0010
1000
0001
0100
0001
,
1000
0100
0010
0001
0100
0010
1000
0001
0010
0001
0100
0010
1000
0100
0010
0001
1000
0001
0100
0010
1000
0100
0010
0001
,
1000
0010
1000
0001
0100
0010
1000
0100
1000
0001
0100
0010
1000
0001
0100
0010
0100
0001
1000
0010
0100
0010
1000
0001
,
1000
0010
0100
0001
1000
0100
0010
0001
0010
0100
1000
0010
0100
0001
1000
0010
1000
0001
0100
0001
1000
0100
0010
0001
,
0100
0010
1000
0001
0010
0001
0100
0010
1000
0100
0010
0001
1000
0100
1000
0010
0100
0001
1000
0100
0010
0001
0100
0010
,
1000
0001
0100
0001
1000
0100
0010
0001
1000
0010
0100
0001
0010
0001
1000
0010
1000
0001
0100
0010
1000
0100
0010
0001
,
1000
0001
0100
0001
1000
0010
0100
0001
1000
0100
1000
0010
0100
0001
1000
0100
0010
0001
0100
0010
1000
0001
0100
0001
,
1000
0100
0010
0001
0100
0010
1000
0001
0010
0001
0100
0010
1000
0100
0010
0001
1000
0001
0100
0010
1000
0100
0010
0001
,
1000
0010
1000
0001
0100
0010
1000
0100
1000
0001
0100
0010
1000
0001
0100
0010
0100
0001
1000
0010
0100
0010
1000
0001
,
1000
0010
0100
0001
1000
0100
0010
0001
0010
0100
1000
0010
0100
0001
1000
0010
1000
0001
0100
0001
1000
0100
0010
0001
,
0100
0010
1000
0001
0010
0001
0100
0010
1000
0100
0010
0001
1000
0100
1000
0010
0100
0001
1000
0100
0010
0001
0100
0010
,
1000
0001
0100
0001
1000
0100
0010
0001
1000
0010
0100
0001
0010
0001
1000
0010
1000
0001
0100
0010
1000
0100
0010
0001
,
1000
0001
0100
0001
1000
0010
0100
0001
1000
0100
1000
0010
0100
0001
1000
0100
0010
0001
0100
0010
1000
0001
0100
0001
,
1000
0100
0010
0001
0100
0010
1000
0001
0010
0001
0100
0010
1000
0100
0010
0001
1000
0001
0100
0010
1000
0100
0010
0001
,
1000
0010
1000
0001
0100
0010
1000
0100
1000
0001
0100
0010
1000
0001
0100
0010
0100
0001
1000
0010
0100
0010
1000
0001
,
1000
0010
0100
0001
1000
0100
0010
0001
0010
0100
1000
0010
0100
0001
1000
0010
1000
0001
0100
0001
1000
0100
0010
0001
,
1000
0010
0100
0001
1000
0100
1000
0010
0100
0001
1000
0100
0010
0001
1000
0001
,
0100
0010
1000
0100
0010
0001
1000
0010
1000
0001
0100
0001
1000
0100
0010
0001
,
0100
0010
0100
0001
1000
0010
1000
0001
0100
0010
1000
0100
0010
0001
0100
0010
,
0100
0001
1000
0100
0010
0001
0100
0001
1000
0010
0100
0001
1000
0100
1000
0001
,
0100
0001
1000
0100
0010
0001
0100
0010
1000
0001
0010
0001
1000
0010
1000
0001
,
0100
0010
1000
0100
0010
0001
1000
0001
0100
0010
1000
0100
1000
0001
0100
0001
,
1000
0010
0100
0001
1000
0100
0010
0001
0010
0100
1000
0010
0100
0001
1000
0001
,
0100
0010
1000
0100
1000
0001
0100
0010
1000
0100
0010
0001
0100
0001
1000
0010
,
1000
0001
0100
0001
1000
0010
0100
0001
1000
0100
1000
0010
0100
0001
1000
0100
0010
0001
0100
0010
1000
0001
0100
0001
,
1000
0100
0010
0001
0100
0010
1000
0001
0010
0001
0100
0010
1000
0100
0010
0001
1000
0001
0100
0010
1000
0100
0010
0001
,
1000
0010
1000
0001
0100
0010
1000
0100
1000
0001
0100
0010
1000
0001
0100
0010
0100
0001
1000
0010
0100
0010
1000
0001
,
1000
0010
0100
0001
1000
0100
0010
0001
0010
0100
1000
0010
0100
0001
1000
0010
1000
0001
0100
0001
1000
0100
0010
0001
,
0100
0010
1000
0001
0010
0001
0100
0010
1000
0100
0010
0001
1000
0100
1000
0010
0100
0001
1000
0100
0010
0001
0100
0010
,
1000
0001
0100
0001
1000
0100
0010
0001
1000
0010
0100
0001
0010
0001
1000
0010
1000
0001
0100
0010
1000
0100
0010
0001
,
1000
0001
0100
0001
1000
0010
0100
0001
1000
0100
1000
0010
0100
0001
1000
0100
0010
0001
0100
0010
1000
0001
0100
0001
,
1000
0100
0010
0001
0100
0010
1000
0001
0010
0001
0100
0010
1000
0100
0010
0001
1000
0001
0100
0010
1000
0100
0010
0001
,
1000
0001
0100
0001
1000
0010
0100
0001
1000
0100
1000
0010
0100
0001
1000
0100
0010
0001
0100
0010
1000
0001
0100
0001
,
1000
0100
0010
0001
0100
0010
1000
0001
0010
0001
0100
0010
1000
0100
0010
0001
1000
0001
0100
0010
1000
0100
0010
0001
,
1000
0010
1000
0001
0100
0010
1000
0100
1000
0001
0100
0010
1000
0001
0100
0010
0100
0001
1000
0010
0100
0010
1000
0001
,
1000
0010
0100
0001
1000
0100
0010
0001
0010
0100
1000
0010
0100
0001
1000
0010
1000
0001
0100
0001
1000
0100
0010
0001
,
0100
0010
1000
0001
0010
0001
0100
0010
1000
0100
0010
0001
1000
0100
1000
0010
0100
0001
1000
0100
0010
0001
0100
0010
,
1000
0001
0100
0001
1000
0100
0010
0001
1000
0010
0100
0001
0010
0001
1000
0010
1000
0001
0100
0010
1000
0100
0010
0001
,
1000
0001
0100
0001
1000
0010
0100
0001
1000
0100
1000
0010
0100
0001
1000
0100
0010
0001
0100
0010
1000
0001
0100
0001
,
1000
0100
0010
0001
0100
0010
1000
0001
0010
0001
0100
0010
1000
0100
0010
0001
1000
0001
0100
0010
1000
0100
0010
0001
,
1000
0010
1000
0001
0100
0010
1000
0100
1000
0001
0100
0010
1000
0001
0100
0010
0100
0001
1000
0010
0100
0010
1000
0001
,
1000
0010
0100
0001
1000
0100
0010
0001
0010
0100
1000
0010
0100
0001
1000
0010
1000
0001
0100
0001
1000
0100
0010
0001
,
0100
0010
1000
0001
0010
0001
0100
0010
1000
0100
0010
0001
1000
0100
1000
0010
0100
0001
1000
0100
0010
0001
0100
0010
,
1000
0001
0100
0001
1000
0100
0010
0001
1000
0010
0100
0001
0010
0001
1000
0010
1000
0001
0100
0010
1000
0100
0010
0001
,
1000
0001
0100
0001
1000
0010
0100
0001
1000
0100
1000
0010
0100
0001
1000
0100
0010
0001
0100
0010
1000
0001
0100
0001
,
1000
0100
0010
0001
0100
0010
1000
0001
0010
0001
0100
0010
1000
0100
0010
0001
1000
0001
0100
0010
1000
0100
0010
0001
,
1000
0010
1000
0001
0100
0010
1000
0100
1000
0001
0100
0010
1000
0001
0100
0010
0100
0001
1000
0010
0100
0010
1000
0001
,
1000
0010
0100
0001
1000
0100
0010
0001
0010
0100
1000
0010
0100
0001
1000
0010
1000
0001
0100
0001
1000
0100
0010
0001
,
0100
0010
1000
0001
0010
0001
0100
0010
1000
0100
0010
0001
1000
0100
1000
0010
0100
0001
1000
0100
0010
0001
0100
0010
,
1000
0001
0100
0001
1000
0100
0010
0001
1000
0010
0100
0001
0010
0001
1000
0010
1000
0001
0100
0010
1000
0100
0010
0001
,
1000
0001
0100
0001
1000
0010
0100
0001
1000
0100
1000
0010
0100
0001
1000
0100
0010
0001
0100
0010
1000
0001
0100
0001
,
1000
0100
0010
0001
0100
0010
1000
0001
0010
0001
0100
0010
1000
0100
0010
0001
1000
0001
0100
0010
1000
0100
0010
0001
,
1000
0010
1000
0001
0100
0010
1000
0100
1000
0001
0100
0010
1000
0001
0100
0010
0100
0001
1000
0010
0100
0010
1000
0001
,
1000
0010
0100
0001
1000
0100
0010
0001
0010
0100
1000
0010
0100
0001
1000
0010
1000
0001
0100
0001
1000
0100
0010
0001
,
0100
0010
1000
0001
0010
0001
0100
0010
1000
0100
0010
0001
1000
0100
1000
0010
0100
0001
1000
0100
0010
0001
0100
0010
,
1000
0001
0100
0001
1000
0100
0010
0001
1000
0010
0100
0001
0010
0001
1000
0010
1000
0001
0100
0010
1000
0100
0010
0001
,
1000
0001
0100
0001
1000
0010
0100
0001
1000
0100
1000
0010
0100
0001
1000
0100
0010
0001
0100
0010
1000
0001
0100
0001
,
1000
0100
0010
0001
0100
0010
1000
0001
0010
0001
0100
0010
1000
0100
0010
0001
1000
0001
0100
0010
1000
0100
0010
0001
,
1000
0010
1000
0001
0100
0010
1000
0100
1000
0001
0100
0010
1000
0001
0100
0010
0100
0001
1000
0010
0100
0010
1000
0001
,
1000
0010
0100
0001
1000
0100
0010
0001
0010
0100
1000
0010
0100
0001
1000
0010
1000
0001
0100
0001
1000
0100
0010
0001
,
0100
0010
1000
0001
0010
0001
0100
0010
1000
0100
0010
0001
1000
0100
1000
0010
0100
0001
1000
0100
0010
0001
0100
0010
,
1000
0001
0100
0001
1000
0100
0010
0001
1000
0010
0100
0001
0010
0001
1000
0010
1000
0001
0100
0010
1000
0100
0010
0001
,
1000
0001
0100
0001
1000
0010
0100
0001
1000
0100
1000
0010
0100
0001
1000
0100
0010
0001
0100
0010
1000
0001
0100
0001
,
1000
0100
0010
0001
0100
0010
1000
0001
0010
0001
0100
0010
1000
0100
0010
0001
1000
0001
0100
0010
1000
0100
0010
0001
,
1000
0010
1000
0001
0100
0010
1000
0100
1000
0001
0100
0010
1000
0001
0100
0010
0100
0001
1000
0010
0100
0010
1000
0001
,
1000
0010
0100
0001
1000
0100
0010
0001
0010
0100
1000
0010
0100
0001
1000
0010
1000
0001
0100
0001
1000
0100
0010
0001
,
0100
0010
1000
0001
0010
0001
0100
0010
1000
0100
0010
0001
1000
0100
1000
0010
0100
0001
1000
0100
0010
0001
0100
0010
,
1000
0001
0100
0001
1000
0100
0010
0001
1000
0010
0100
0001
0010
0001
1000
0010
1000
0001
0100
0010
1000
0100
0010
0001
,
1000
0001
0100
0001
1000
0010
0100
0001
1000
0100
1000
0010
0100
0001
1000
0100
0010
0001
0100
0010
1000
0001
0100
0001
,
1000
0100
0010
0001
0100
0010
1000
0001
0010
0001
0100
0010
1000
0100
0010
0001
1000
0001
0100
0010
1000
0100
0010
0001
,
1000
0010
0100
0001
1000
0010
1000
0100
0010
0001
0100
0010
1000
0001
0100
0001
,
1000
0100
0010
0001
0100
0010
1000
0010
0100
0001
1000
0100
0010
0001
0100
0010
,
M100
0001
1000
0010
0100
0001
1000
0100
0010
0001
1000
0010
0100
0010
1000
0001
,
0100
0001
1000
0100
0010
0001
0100
0010
1000
0001
0010
0001
0100
0010
1000
0100
,
0010
0001
0010
0100
1000
0010
0100
0001
1000
0100
1000
0010
0100
0001
1000
0100
,
0010
0001
1000
0001
0100
0010
1000
0100
0010
0001
1000
0010
1000
0001
0100
0001
,
1000
0100
0010
0001
0100
0010
1000
0001
0010
0001
0100
0010
0100
0001
1000
0010
,
1000
0001
0100
0010
1000
0100
0010
0001
1000
0010
0100
0010
1000
0001
0100
0010
,
1000
0010
0100
0001
1000
0010
1000
0100
0010
0001
0100
0010
1000
0001
0100
0001
,
1000
0100
0010
0001
0100
0010
1000
0010
0100
0001
1000
0100
0010
0001
0100
0010
,
0100
0001
1000
0010
0100
0001
1000
0100
0010
0001
1000
0010
0100
0010
1000
0001
,
0100
0001
1000
0100
0010
0001
0100
0010
1000
0001
0010
0001
0100
0010
1000
0100
,
0010
0001
0010
0100
1000
0010
0100
0001
1000
0100
1000
0010
0100
0001
1000
0100
,
0010
0001
1000
0001
0100
0010
1000
0100
0010
0001
1000
0010
1000
0001
0100
0001
,
1000
0100
0010
0001
0100
0010
1000
0001
0010
0001
0100
0010
0100
0001
1000
0010
,
1000
0001
0100
0010
1000
0100
0010
0001
1000
0010
0100
0010
1000
0001
0100
0010
,
1000
0001
0010
0001
0100
0010
1000
0100
0010
0001
0010
0100
1000
0010
0100
0001
,
1000
0100
1000
0010
0100
0001
1000
0100
0010
0001
1000
0001
0200
0000
0000
0000
,
0320
0000
0000
0000
,
0000
0000
0000
0000
,
0000
0000
0000
0000
,
0000
0000
0000
0000
,
0000
0000
0000
0000
,
0000
0000
0000
0000
,
0000
0000
0030
0000
;
