#TITLE:Fairytale;
#SUBTITLE:Dream Remix;
#ARTIST:Ghost Ft. Misty Miller;
#TITLETRANSLIT:;
#SUBTITLETRANSLIT:;
#ARTISTTRANSLIT:;
#CREDIT:;
#BANNER:../Wubstream - ban.png;
#BACKGROUND:../Wubstream - bg.png;
#LYRICSPATH:;
#CDTITLE:;
#MUSIC:Ghost - FairyTale Ft. Misty Miller (Dream Remix).ogg;
#OFFSET:0.003;
#SAMPLESTART:50.196;
#SAMPLELENGTH:12.000;
#SELECTABLE:YES;
#BPMS:0.000=140.000;
#STOPS:;
#BGCHANGES:;
// cache tags:
#FIRSTBEAT:5.000;
#LASTBEAT:589.000;
#SONGFILENAME:Songs/Wubstream/Fairytale - [Rynker]/fairytale.sm;
#HASMUSIC:1;
#HASBANNER:1;
#MUSICLENGTH:254.489;
// end cache tags

//---------------dance-single - Rynker----------------
#NOTES:
     dance-single:
     Rynker:
     Challenge:
     18:
     1.000,1.000,0.079,0.055,1.000,2552.000,20.000,14.000,0.000,0.000:



0000
0000
0000
0000
,
0000
0000
0000
1000
0000
0000
0001
0100
0001
1000
0000
0000
,
0100
1000
0001
0010
0000
0000
0001
1000
0001
0100
0000
0000
,
0010
1000
0010
0100
0000
0000
0001
1000
0100
1000
0000
0000
,
0001
0010
0100
1000
0000
0000
0001
0100
0001
1000
0000
0010
,
0000
0100
0000
0001
0000
0000
1000
0100
0010
0001
0000
0000
,
1000
0001
0100
0010
0000
0000
0100
0001
1000
0100
0000
0000
,
0010
0001
1000
0100
0000
0000
1000
0001
0100
0010
0000
0000
,
0100
0001
1000
0100
0000
0000
1000
0001
0100
0010
0000
0100
,
0000
0001
0000
1000
0000
0000
0100
0010
0001
1000
0000
0000
,
0001
0010
0100
1000
0000
0000
0001
0100
0010
0100
0000
0000
,
0001
1000
0100
1000
0000
0000
0001
0010
0100
1000
0000
0000
,
0001
0100
0010
1000
0000
0000
0001
0010
0100
1000
0000
0001
,
0000
0000
0100
0000
0000
0000
0010
0000
0000
0100
0000
0000
0001
0000
0000
0010
0000
0000
0100
0000
0000
1000
0000
0000
,
0010
0100
0001
0010
0001
0100
0010
1000
,
0100
0000
0000
0000
0010
0000
0000
0000
0001
0000
0000
0100
0000
0000
0010
0000
1000
0000
0000
0001
0000
0000
0010
0000
0100
0000
0000
1000
0000
0000
0001
0000
,
0100
0000
0000
0010
0000
0000
1000
0000
0100
0000
0000
0000
0010
0000
0000
0000
0001
0000
0000
0000
0100
0000
0000
0000
0010
0000
0000
0000
1000
0000
0000
0000
,
0100
0000
0000
0010
0000
0000
0001
0100
0010
0100
0001
1000
0001
0100
0010
0100
0001
1000
0100
1000
0001
0100
0010
0100
,
0001
1000
0001
0100
0010
1000
0001
0010
0001
1000
0010
0100
0001
0100
0010
1000
0001
0010
0100
1000
0100
0010
0001
1000
,
0100
0010
0100
1000
0001
1000
0010
0100
0001
0100
0010
1000
0001
0100
0010
0100
0001
1000
0100
1000
0001
0100
0010
0100
,
0001
1000
0001
1000
0010
0100
0001
0010
0001
1000
0010
0100
0001
0100
0010
1000
0001
0010
0100
1000
0100
0010
0001
1000
,
0010
1000
0001
0010
0100
1000
0010
0100
0001
0010
0100
1000
0001
0010
0100
1000
0001
1000
0010
0100
0001
1000
0001
0010
,
0100
1000
0100
0010
0001
1000
0010
1000
0001
0010
0100
1000
0100
0010
0001
1000
0001
1000
0010
0100
0001
0100
0010
1000
,
0001
0100
0001
1000
0010
0100
0001
1000
0100
0010
0001
0010
0100
1000
0001
1000
0001
0100
0010
0100
0001
1000
0100
1000
,
0001
0010
0100
0010
0001
1000
0001
0100
0001
0100
0010
1000
0010
0100
0001
1000
0010
0100
0001
1000
0100
0010
0001
1000
,
0010
1000
0100
0010
0001
1000
0001
0100
0010
0100
0001
1000
0001
0100
0010
1000
0001
0010
0001
1000
0010
0100
0001
0100
,
0010
1000
0001
0100
0010
1000
0100
1000
0001
0100
0010
0100
0001
1000
0001
0100
0010
1000
0001
0010
0100
1000
0100
0010
,
0001
1000
0100
1000
0001
0010
0100
1000
0001
0100
0010
0100
0001
1000
0010
1000
0001
0010
0100
1000
0001
0100
0010
0100
,
0001
1000
0010
0100
0001
1000
0001
0010
0001
1000
0010
0100
0001
0100
0010
1000
0010
0100
0001
1000
0100
0010
0100
1000
,
0001
0010
0100
1000
0010
0100
0001
1000
0100
0010
0001
0010
0100
1000
0001
0010
0100
1000
0001
0100
0001
1000
0100
0010
,
0001
0010
0100
1000
0001
1000
0010
0100
0001
1000
0100
0010
0001
0010
0100
1000
0001
1000
0010
0100
0001
0100
0010
1000
,
0010
0100
0001
1000
0010
0100
0001
1000
0001
0010
0100
1000
0100
0010
0001
1000
0100
1000
0001
0100
0001
1000
0100
0010
,
0001
0010
0100
1000
0001
1000
0010
1000
0001
0010
0100
0010
0001
1000
0001
1000
0100
0010
0001
1000
0010
0100
0001
0100
,
0010
1000
0100
0010
0001
0100
0010
1000
0001
1000
0100
0010
0001
0010
0100
1000
0001
1000
0010
0100
0001
1000
0100
0010
,
0001
0010
0100
1000
0001
0100
0010
0100
0001
1000
0100
0010
0001
0010
0100
1000
0001
1000
0010
0100
0001
0100
0010
1000
,
0001
0100
0001
1000
0010
0100
0001
1000
0100
0010
0001
0010
0100
1000
0001
1000
0100
0010
0001
0100
0010
1000
0001
0100
,
0001
1000
0010
0100
0001
1000
0100
1000
0001
0100
0010
0100
0001
1000
0001
0100
0010
0100
0001
1000
0100
0010
0001
1000
,
0100
1000
0010
0100
0001
0010
0001
1000
0001
1000
0100
0010
0001
0010
0100
1000
0001
1000
0010
0100
0001
1000
0100
0010
,
0001
0010
0100
1000
0001
0100
0010
0100
0001
1000
0100
0010
0001
0010
0100
1000
0001
1000
0010
0100
0001
0100
0010
1000
,
0001
0100
0001
1000
0010
0100
0001
1000
0100
0010
0001
0010
0100
1000
0001
1000
0100
0010
0001
0100
0010
1000
0001
0100
,
0001
1000
0010
0100
0001
1000
0100
1000
0001
0100
0010
0100
0001
1000
0001
0100
0010
0100
0001
1000
0100
0010
0001
1000
,
0100
1000
0010
0100
0001
0010
0001
1000
0001
1000
0100
0010
0001
0010
0100
1000
0001
1000
0010
0100
0001
1000
0100
0010
,
0001
0010
0100
1000
0001
0100
0010
0100
0001
1000
0100
0010
0001
0010
0100
1000
0001
1000
0010
0100
0001
0100
0010
1000
,
0001
0100
0001
1000
0010
0100
0001
1000
0100
0010
0001
0010
0100
1000
0001
1000
0100
0010
0001
0100
0010
1000
0001
0100
,
0001
1000
0010
0100
0001
1000
0100
1000
0001
0100
0010
0100
0001
1000
0001
0100
0010
0100
0001
1000
0100
0010
0001
1000
,
0100
1000
0010
0100
0001
1000
0001
0100
0010
0100
0001
1000
0001
0100
0010
0100
0001
1000
0100
1000
0001
0100
0010
0100
,
0001
1000
0001
0100
0010
1000
0001
0010
0001
1000
0010
0100
0001
0100
0010
1000
0001
0010
0100
1000
0100
0010
0001
1000
,
0100
0010
0100
1000
0001
1000
0010
0100
0001
0100
0010
1000
0001
0100
0010
0100
0001
1000
0100
1000
0001
0100
0010
0100
,
0001
0000
1000
0000
0001
0000
1000
0000
0010
0000
0100
0000
0001
0000
0100
0000
0010
0000
1000
0000
0001
0000
0100
0000
0001
0000
1000
0000
0010
0000
1000
0000
0001
0000
0100
0000
0020
0000
0000
0030
0000
0000
0000
0000
0000
2000
0000
0000
,
3000
0100
0010
0000
0001
1000
1010
0000
,
0010
0000
0000
0000
1000
0000
0000
0000
0001
0000
0100
0000
0101
0000
0000
0001
,
0000
1000
0001
0000
1000
0100
1100
0000
,
1000
0000
0000
0000
0001
0000
0000
0000
0100
0000
0010
0000
1010
0000
0000
1000
,
0000
0001
0010
0000
0001
0100
0101
0000
,
0001
0000
0000
0000
0010
0000
0000
0000
0100
0000
1000
0000
1100
0000
0000
0100
,
0000
1000
0010
0000
0100
0001
0101
0000
,
0100
0000
0000
0000
0010
0000
0000
0000
1000
0000
0100
0000
1100
0000
0000
1000
,
0000
0100
0010
0000
0001
0000
0100
0000
,
0010
1000
0001
0100
,
0001
1000
0100
1000
,
0001
0010
0100
1000
,
0001
0200
0000
0000
,
0000
0000
0000
0302
,
0000
2003
0000
0000
,
0000
0000
0000
0000
3100
0000
0010
0000
0001
0000
1000
0000
0001
0100
0010
1000
,
0001
0000
0000
1000
0000
0000
0001
0000
0000
0000
0000
0000
1000
0000
0100
0000
0010
0000
0100
0000
1000
0000
0001
0000
1000
0000
0100
0000
0010
0000
0100
0000
1000
0000
0001
0000
0100
0000
0001
0000
1000
0000
0100
0000
0010
0000
0100
0000
,
1000
0001
1000
0100
0010
0001
1000
0010
1000
0001
0010
0100
1000
0100
0010
0001
1000
0010
0100
0001
0100
0010
1000
0001
,
0100
0010
0100
0001
1000
0001
0010
0100
1000
0100
0010
0001
1000
0100
0010
0100
1000
0001
0100
0001
1000
0100
0010
0100
,
1000
0001
1000
0001
0010
0100
1000
0010
1000
0001
0010
0100
1000
0100
0010
0001
1000
0010
0100
0001
0100
0010
1000
0001
,
0010
0001
1000
0010
0100
0001
0010
0100
1000
0010
0100
0001
1000
0010
0100
0001
1000
0001
0010
0100
1000
0001
1000
0010
,
0100
0001
0100
0010
1000
0001
0010
0001
1000
0010
0100
0001
0100
0010
1000
0001
1000
0001
0010
0100
1000
0100
0010
0001
,
1000
0100
1000
0001
0010
0100
1000
0001
0100
0010
1000
0010
0100
0001
1000
0001
1000
0100
0010
0100
1000
0001
0100
0001
,
1000
0010
0100
0010
1000
0001
1000
0100
1000
0100
0010
0001
0010
0100
1000
0001
0010
0100
1000
0001
0100
0010
1000
0001
,
0010
0001
0100
0010
1000
0001
1000
0100
0010
0100
1000
0001
1000
0100
0010
0001
1000
0010
1000
0001
0010
0100
1000
0100
,
0010
0001
1000
0100
0010
0001
0100
0001
1000
0100
0010
0100
1000
0001
1000
0100
0010
0001
1000
0010
0100
0001
0100
0010
,
1000
0001
0100
0001
1000
0010
0100
0001
1000
0100
0010
0100
1000
0001
0010
0001
1000
0010
0100
0001
1000
0100
0010
0100
,
1000
0001
0010
0100
1000
0001
1000
0010
1000
0001
0010
0100
1000
0100
0010
0001
0010
0100
1000
0001
0100
0010
0100
0001
,
1000
0010
0100
0001
0010
0100
1000
0001
0100
0010
1000
0010
0100
0001
1000
0010
0100
0001
1000
0100
1000
0001
0100
0010
,
1000
0010
0100
0001
1000
0001
0010
0100
1000
0001
0100
0010
1000
0010
0100
0001
1000
0001
0010
0100
1000
0100
0010
0001
,
0010
0100
1000
0001
0010
0100
1000
0001
1000
0010
0100
0001
0100
0010
1000
0001
0100
0001
1000
0100
1000
0001
0100
0010
,
1000
0010
0100
0001
1000
0001
0010
0001
1000
0010
0100
0010
1000
0001
1000
0001
0100
0010
1000
0001
0010
0100
1000
0100
,
0010
0001
0100
0010
1000
0100
0010
0001
1000
0001
0100
0010
1000
0010
0100
0001
1000
0001
0010
0100
1000
0001
0100
0010
,
1000
0010
0100
0001
1000
0100
0010
0100
1000
0001
0100
0010
1000
0010
0100
0001
1000
0001
0010
0100
1000
0100
0010
0001
,
1000
0010
1000
0001
0100
0010
1000
0001
0010
0100
1000
0100
0010
0001
1000
0001
0100
0010
1000
0100
0010
0001
1000
0100
,
1000
0001
0010
0100
1000
0001
0100
0001
1000
0100
0010
0100
1000
0001
1000
0100
0010
0100
1000
0001
0100
0010
1000
0001
,
0100
0001
0010
0100
1000
0010
1000
0001
1000
0001
0100
0010
1000
0010
0100
0001
1000
0001
0010
0100
1000
0001
0100
0010
,
1000
0010
0100
0001
1000
0100
0010
0100
1000
0001
0100
0010
1000
0010
0100
0001
1000
0001
0010
0100
1000
0100
0010
0001
,
1000
0100
1000
0001
0010
0100
1000
0001
0100
0010
1000
0010
0100
0001
1000
0001
0100
0010
1000
0100
0010
0001
1000
0100
,
1000
0001
0010
0100
1000
0001
0100
0001
1000
0100
0010
0100
1000
0001
1000
0100
0010
0100
1000
0001
0100
0010
1000
0001
,
0100
0001
0010
0100
1000
0010
1000
0001
1000
0001
0100
0010
1000
0010
0100
0001
1000
0001
0010
0100
1000
0001
0100
0010
,
1000
0010
0100
0001
1000
0100
0010
0100
1000
0001
0100
0010
1000
0010
0100
0001
1000
0001
0010
0100
1000
0100
0010
0001
,
1000
0100
1000
0001
0010
0100
1000
0001
0100
0010
1000
0010
0100
0001
1000
0001
0100
0010
1000
0100
0010
0001
1000
0100
,
1000
0001
0010
0100
1000
0001
0100
0001
1000
0100
0010
0100
1000
0001
1000
0100
0010
0100
1000
0001
0100
0010
1000
0001
,
0100
0001
0010
0100
1000
0001
1000
0100
0010
0100
1000
0001
1000
0100
0010
0100
1000
0001
0100
0001
1000
0100
0010
0100
,
1000
0001
1000
0100
0010
0001
1000
0010
1000
0001
0010
0100
1000
0100
0010
0001
1000
0010
0100
0001
0100
0010
1000
0001
,
0100
0010
0100
0001
1000
0001
0010
0100
1000
0100
0010
0001
1000
0100
0010
0100
1000
0001
0100
0001
1000
0100
0010
0100
,
1000
0000
0001
0000
1000
0000
0001
0000
0010
0000
0100
0000
1000
0000
0000
0000
0000
0000
0000
0000
0000
0100
0000
0000
0000
0000
0000
0000
0000
0000
0010
0000
0000
0000
0000
0000
0002
0000
0000
0000
0000
0000
0000
0000
0000
2003
0000
0000
,
0000
3020
0130
0000
0001
1000
1010
0000
,
0010
0000
0000
0000
1000
0000
0000
0000
0001
0000
0100
0000
0101
0000
0000
0001
,
0000
1000
0001
0000
1000
0100
1100
0000
,
1000
0000
0000
0000
0001
0000
0000
0000
0100
0000
0010
0000
1010
0000
0000
1000
,
0000
0001
0010
0000
0001
0010
0011
0000
,
0001
0000
0000
0000
0010
0000
0000
0000
0100
0000
1000
0000
1100
0000
0000
0100
,
0000
1000
0010
0000
0100
0001
0101
0000
,
0100
0000
0000
0000
0010
0000
0000
0000
1000
0000
0010
0000
1010
0000
0000
1000
,
0000
0100
0010
0000
0001
0100
0101
0000
,
0001
0000
0000
0000
1000
0000
0000
0000
0010
0000
1000
0000
1100
0000
0000
0100
,
0000
0010
0001
0000
1000
0001
0101
0000
,
0100
0000
0000
0000
0010
0000
0000
0000
1000
0000
0001
0000
1001
0000
0000
1000
,
0000
0001
0200
0000
0000
0000
0000
0000
,
0000
0000
0000
0302
,
0000
2003
0000
0000
,
0000
0000
0000
0000
3100
0000
0010
0000
0001
0000
1000
0000
0001
0100
0010
1000
,
0001
0000
0000
1000
0000
0000
0001
0000
0000
0000
0000
0000
1000
0000
0010
0000
0100
0000
0010
0000
1000
0000
0001
0000
1000
0000
0010
0000
0100
0000
0010
0000
1000
0000
0001
0000
0010
0000
0001
0000
1000
0000
0010
0000
0100
0000
0010
0000
,
1000
0001
1000
0010
0100
0001
1000
0100
1000
0001
0100
0010
1000
0010
0100
0001
1000
0100
0010
0001
0010
0100
1000
0001
,
0010
0100
0010
0001
1000
0001
0100
0010
1000
0010
0100
0001
1000
0010
0100
0010
1000
0001
0010
0001
1000
0010
0100
0010
,
1000
0001
1000
0001
0100
0010
1000
0100
1000
0001
0100
0010
1000
0010
0100
0001
1000
0100
0010
0001
0010
0100
1000
0001
,
0100
0001
1000
0100
0010
0001
0100
0010
1000
0100
0010
0001
1000
0100
0010
0001
1000
0001
0100
0010
1000
0001
1000
0100
,
0010
0001
0010
0100
1000
0001
0100
0001
1000
0100
0010
0001
0010
0100
1000
0001
1000
0001
0100
0010
1000
0010
0100
0001
,
1000
0010
1000
0001
0100
0010
1000
0001
0010
0100
1000
0100
0010
0001
1000
0001
1000
0010
0100
0010
1000
0001
0010
0001
,
1000
0100
0010
0100
1000
0001
1000
0010
1000
0010
0100
0001
0100
0010
1000
0001
0100
0010
1000
0001
0010
0100
1000
0001
,
0100
0001
0010
0100
1000
0001
1000
0010
0100
0010
1000
0001
1000
0010
0100
0001
1000
0100
1000
0001
0100
0010
1000
0010
,
0100
0001
1000
0010
0100
0001
0010
0001
1000
0010
0100
0010
1000
0001
1000
0010
0100
0001
1000
0100
0010
0001
0010
0100
,
1000
0001
0010
0001
1000
0100
0010
0001
1000
0010
0100
0010
1000
0001
0100
0001
1000
0100
0010
0001
1000
0010
0100
0010
,
1000
0001
0100
0010
1000
0001
1000
0100
1000
0001
0100
0010
1000
0010
0100
0001
0100
0010
1000
0001
0010
0100
0010
0001
,
1000
0100
0010
0001
0100
0010
1000
0001
0010
0100
1000
0100
0010
0001
1000
0100
0010
0001
1000
0010
1000
0001
0010
0100
,
1000
0100
0010
0001
1000
0001
0100
0010
1000
0001
0010
0100
1000
0100
0010
0001
1000
0001
0100
0010
1000
0010
0100
0001
,
0100
0010
1000
0001
0100
0010
1000
0001
1000
0100
0010
0001
0010
0100
1000
0001
0010
0001
1000
0010
1000
0001
0010
0100
,
1000
0100
0010
0001
1000
0001
0100
0001
1000
0100
0010
0100
1000
0001
1000
0001
0010
0100
1000
0001
0100
0010
1000
0010
,
0100
0001
0010
0100
1000
0010
0100
0001
1000
0001
0100
0010
1000
0010
0100
0001
1000
0001
0010
0100
1000
0001
0100
0010
,
1000
0010
0100
0001
1000
0100
0010
0100
1000
0001
0100
0010
1000
0010
0100
0001
1000
0001
0010
0100
1000
0100
0010
0001
,
1000
0100
1000
0001
0010
0100
1000
0001
0100
0010
1000
0010
0100
0001
1000
0001
0100
0010
1000
0100
0010
0001
1000
0100
,
1000
0001
0010
0100
1000
0001
0100
0001
1000
0100
0010
0100
1000
0001
1000
0100
0010
0100
1000
0001
0100
0010
1000
0001
,
0100
0001
0010
0100
1000
0010
0100
0001
1000
0001
0100
0010
1000
0010
0100
0001
1000
0001
0010
0100
1000
0001
0100
0010
,
1000
0010
0100
0001
1000
0100
0010
0100
1000
0001
0100
0010
1000
0010
0100
0001
1000
0001
0010
0100
1000
0100
0010
0001
,
1000
0100
1000
0001
0010
0100
1000
0001
0100
0010
1000
0010
0100
0001
1000
0001
0100
0010
1000
0100
0010
0001
1000
0100
,
1000
0001
0010
0100
1000
0001
0100
0001
1000
0100
0010
0100
1000
0001
1000
0100
0010
0100
1000
0001
0100
0010
1000
0001
,
0100
0001
0010
0100
1000
0001
0100
0001
0010
0100
1000
0001
1000
0010
0100
0001
1000
0001
0010
0100
1000
0001
0100
0010
,
1000
0010
0100
0001
1000
0100
0010
0100
1000
0001
0100
0010
1000
0010
0100
0001
1000
0001
0010
0100
1000
0100
0010
0001
,
1000
0100
1000
0001
0010
0100
1000
0001
0100
0010
1000
0010
0100
0001
1000
0001
0100
0010
1000
0100
0010
0001
1000
0100
,
1000
0001
0010
0100
1000
0001
0100
0001
1000
0100
0010
0100
1000
0001
1000
0100
0010
0100
1000
0001
0100
0010
1000
0001
,
0100
0001
0010
0100
1000
0001
1000
0100
0010
0100
1000
0001
1000
0100
0010
0100
1000
0001
0100
0001
1000
0100
0010
0100
,
1000
0001
1000
0100
0010
0001
1000
0010
1000
0001
0010
0100
1000
0100
0010
0001
1000
0010
0100
0001
0100
0010
1000
0001
,
0100
0010
0100
0001
1000
0001
0010
0100
1000
0100
0010
0001
1000
0100
0010
0100
1000
0001
0100
0001
1000
0100
0010
0100
,
1000
0000
0001
0000
1000
0000
0001
0000
0010
0000
0100
0000
1000
0000
0100
0000
0010
0000
0001
0000
1000
0000
0100
0000
1000
0000
0001
0000
0010
0000
0001
0000
1000
0000
0100
0000
0020
0000
0000
0030
0000
0000
0000
0000
0000
0002
0000
0000
,
0003
0000
0200
0300
0010
0000
0000
0000
0000
0000
0000
0000
0000
0000
0000
0000
;

//---------------dance-single - Rynker----------------
#NOTES:
     dance-single:
     Rynker:
     Hard:
     17:
     1.000,1.000,0.079,0.220,1.000,2336.000,20.000,56.000,1.000,0.000:












0000
0000
0000
0000
,
0000
0000
0000
1000
0000
0000
0001
0100
0001
1000
0000
0000
,
0100
1000
0001
0010
0000
0000
0001
1000
0001
0100
0000
0000
,
0010
1000
0010
0100
0000
0000
0001
1000
0100
1000
0000
0000
,
0001
0010
0100
1000
0000
0000
0001
0100
0001
1000
0000
0010
,
0000
0100
0000
0001
0000
0000
1000
0100
0010
0001
0000
0000
,
1000
0001
0100
0010
0000
0000
0100
0001
1000
0100
0000
0000
,
0010
0001
1000
0100
0000
0000
1000
0001
0100
0010
0000
0000
,
0100
0001
1000
0100
0000
0000
1000
0001
0100
0010
0000
0100
,
0000
0001
0000
1000
0000
0000
0100
0010
0001
1000
0000
0000
,
0001
0010
0100
1000
0000
0000
0001
0100
0010
0100
0000
0000
,
0001
1000
0100
1000
0000
0000
0001
0010
0100
1000
0000
0000
,
0001
0100
0010
1000
0000
0000
0001
0010
0100
1000
0000
0001
,
0000
0000
0100
0000
0000
0000
0010
0000
0000
0100
0000
0000
0001
0000
0000
0010
0000
0000
0100
0000
0000
1000
0000
0000
,
0010
0100
0001
0010
0001
0100
0010
1000
,
0100
0000
0000
0000
0010
0000
0000
0000
0001
0000
0000
0100
0000
0000
0010
0000
1000
0000
0000
0001
0000
0000
0010
0000
0100
0000
0000
1000
0000
0000
0001
0000
,
0100
0000
0000
0010
0000
0000
1000
0000
0100
0000
0000
0000
0010
0000
0000
0000
0001
0000
0000
0000
0100
0000
0000
0000
0010
0000
0000
0000
1000
0000
0000
0000
,
0100
0000
0000
0010
0000
0000
0001
0100
0010
0100
0001
1000
0001
0100
0010
0100
0001
1000
0100
1000
0001
0100
0010
0100
,
0001
1000
0001
0100
0010
1000
0001
0010
0001
1000
0010
0100
0001
0100
0010
1000
0001
0010
0100
1000
0100
0010
0001
1000
,
0100
0010
0100
1000
0001
1000
0010
0100
0001
0100
0010
1000
0001
0100
0010
0100
0001
1000
0100
1000
0001
0100
0010
0100
,
0001
0000
1000
0000
0001
0000
1000
0000
0010
0000
0100
0000
0001
0000
0010
0000
0001
0000
1000
0000
0010
0000
0100
0000
0001
0000
0100
0000
0010
0000
1000
0000
0001
0000
0010
0000
0002
0000
0000
0000
0000
0000
0000
0000
0000
2003
0000
0000
,
0000
0000
0000
3010
0000
0000
0100
0010
1000
0100
0010
0001
1000
0100
0010
0001
1000
0001
0100
0010
1000
0001
1000
0100
,
0010
0001
0010
0100
1000
0001
0100
0001
1000
0100
0010
0001
0010
0100
1000
0001
1000
0001
0100
0010
1000
0010
0100
0001
,
1000
0010
1000
0001
0100
0010
1000
0001
0010
0100
1000
0100
0010
0001
1000
0001
1000
0010
0100
0010
1000
0001
0010
0001
,
1000
0000
0100
0000
0010
0000
0100
0000
1000
0000
0001
0000
1000
0000
0010
0000
1000
0000
0010
0000
0100
0000
0001
0000
0100
0000
0010
0000
1000
0000
0001
0000
0100
0000
0010
0000
2000
0000
0000
0000
0000
0000
0000
0000
0000
3200
0000
0000
,
0000
0000
0000
0310
0000
0000
0001
0100
0010
0100
0001
1000
0001
0100
0010
1000
0001
0010
0001
1000
0010
0100
0001
0100
,
0010
1000
0001
0100
0010
1000
0100
1000
0001
0100
0010
0100
0001
1000
0001
0100
0010
1000
0001
0010
0100
1000
0100
0010
,
0001
1000
0100
1000
0001
0010
0100
1000
0001
0100
0010
0100
0001
1000
0010
1000
0001
0010
0100
1000
0001
0100
0010
0100
,
0001
0000
1000
0000
0010
0000
0100
0000
0001
0000
1000
0000
0001
0000
0010
0000
0001
0000
1000
0000
0010
0000
0100
0000
0001
0000
0100
0000
0010
0000
1000
0000
0010
0000
0100
0000
0002
0000
0000
0000
0000
0000
0000
0000
0000
0023
0000
0000
,
0000
0000
0000
0130
0000
0000
1000
0001
0010
0100
1000
0100
0010
0001
1000
0100
0010
0001
1000
0010
1000
0001
0010
0100
,
1000
0100
0010
0001
1000
0001
0100
0010
1000
0001
0010
0100
1000
0100
0010
0001
1000
0001
0100
0010
1000
0010
0100
0001
,
0100
0010
1000
0001
0100
0010
1000
0001
1000
0100
0010
0001
0010
0100
1000
0001
0010
0001
1000
0010
1000
0001
0010
0100
,
1000
0000
0100
0000
0010
0000
0001
0000
1000
0000
0001
0000
0100
0000
0001
0000
1000
0000
0100
0000
0010
0000
0100
0000
1000
0000
0001
0000
1000
0000
0001
0000
0010
0000
0100
0000
2000
0000
0000
0000
0000
0000
0000
0000
0000
3002
0000
0000
,
0000
0000
0000
0103
0000
0000
0010
1000
0001
1000
0100
0010
0001
0010
0100
1000
0001
1000
0010
0100
0001
1000
0100
0010
,
0001
0010
0100
1000
0001
0100
0010
0100
0001
1000
0100
0010
0001
0010
0100
1000
0001
1000
0010
0100
0001
0100
0010
1000
,
0001
0100
0001
1000
0010
0100
0001
1000
0100
0010
0001
0010
0100
1000
0001
1000
0100
0010
0001
0100
0010
1000
0001
0100
,
0001
0000
1000
0000
0010
0000
0100
0000
0001
0000
1000
0000
0100
0000
1000
0000
0001
0000
0100
0000
0010
0000
0100
0000
0001
0000
1000
0000
0001
0000
0100
0000
0010
0000
0100
0000
0002
0000
0000
0000
0000
0000
0000
0000
0000
2003
0000
0000
,
0000
0000
0000
3100
0000
0000
1000
0001
1000
0001
0010
0100
1000
0100
0010
0001
1000
0001
0100
0010
1000
0001
0010
0100
,
1000
0100
0010
0001
1000
0010
0100
0010
1000
0001
0010
0100
1000
0100
0010
0001
1000
0001
0100
0010
1000
0010
0100
0001
,
1000
0010
1000
0001
0100
0010
1000
0001
0010
0100
1000
0100
0010
0001
1000
0001
0010
0100
1000
0010
0100
0001
1000
0010
,
1000
0000
0001
0000
0100
0000
0010
0000
1000
0000
0001
0000
0010
0000
0001
0000
1000
0000
0010
0000
0100
0000
0010
0000
1000
0000
0001
0000
1000
0000
0010
0000
0100
0000
0010
0000
2000
0000
0000
0000
0000
0000
0000
0000
0000
3002
0000
0000
,
0000
0000
0000
0103
0000
0000
0001
1000
0001
1000
0100
0010
0001
0010
0100
1000
0001
1000
0010
0100
0001
1000
0100
0010
,
0001
0010
0100
1000
0001
0100
0010
0100
0001
1000
0100
0010
0001
0010
0100
1000
0001
1000
0010
0100
0001
0100
0010
1000
,
0001
0100
0001
1000
0010
0100
0001
1000
0100
0010
0001
0010
0100
1000
0001
1000
0100
0010
0001
0100
0010
1000
0001
0100
,
0001
0000
1000
0000
0010
0000
0100
0000
0001
0000
1000
0000
0100
0000
1000
0000
0001
0000
0100
0000
0010
0000
0100
0000
0001
0000
1000
0000
0001
0000
0100
0000
0010
0000
0100
0000
0002
0000
0000
0000
0000
0000
0000
0000
0000
2003
0000
0000
,
0000
0000
0000
3100
0000
0000
1000
0010
0100
0010
1000
0001
1000
0010
0100
0010
1000
0001
0010
0001
1000
0010
0100
0010
,
1000
0001
1000
0010
0100
0001
1000
0100
1000
0001
0100
0010
1000
0010
0100
0001
1000
0100
0010
0001
0010
0100
1000
0001
,
0010
0100
0010
0001
1000
0001
0100
0010
1000
0010
0100
0001
1000
0010
0100
0010
1000
0001
0010
0001
1000
0010
0100
0010
,
1000
0000
0001
0000
1000
0000
0001
0000
0100
0000
0010
0000
1000
0000
0010
0000
0100
0000
0001
0000
1000
0000
0010
0000
1000
0000
0001
0000
0100
0000
0001
0000
1000
0000
0010
0000
0200
0000
0000
0300
0000
0000
0000
0000
0000
0002
0000
0000
,
0003
0010
0100
0000
1000
0001
0101
0000
,
0100
0000
0000
0000
0001
0000
0000
0000
1000
0000
0010
0000
1010
0000
0000
1000
,
0000
0001
1000
0000
0001
0010
0011
0000
,
0001
0000
0000
0000
1000
0000
0000
0000
0010
0000
0100
0000
0101
0000
0000
0001
,
0000
1000
0100
0000
1000
0010
1010
0000
,
1000
0000
0000
0000
0100
0000
0000
0000
0010
0000
0001
0000
0011
0000
0000
0010
,
0000
0001
0100
0000
0010
1000
1010
0000
,
0010
0000
0000
0000
0100
0000
0000
0000
0001
0000
0010
0000
0011
0000
0000
0001
,
0000
0010
0100
0000
1000
0000
0010
0000
,
0100
0001
1000
0010
,
1000
0001
0010
0001
,
1000
0100
0010
0001
,
1000
0020
0000
0000
,
0000
0000
0000
2030
,
0000
3002
0000
0000
,
0000
0000
0000
0000
0013
0000
0100
0000
1000
0000
0001
0000
1000
0010
0100
0001
,
1000
0000
0000
0001
0000
0000
1000
0000
0000
0000
0000
0000
0001
0000
0010
0000
0100
0000
0010
0000
0001
0000
1000
0000
0001
0000
0010
0000
0100
0000
0010
0000
0001
0000
1000
0000
0010
0000
1000
0000
0001
0000
0010
0000
0100
0000
0010
0000
,
0001
1000
0001
0010
0100
1000
0001
0100
0001
1000
0100
0010
0001
0010
0100
1000
0001
0100
0010
1000
0010
0100
0001
1000
,
0010
0100
0010
1000
0001
1000
0100
0010
0001
0010
0100
1000
0001
0010
0100
0010
0001
1000
0010
1000
0001
0010
0100
0010
,
0001
0000
1000
0000
0001
0000
1000
0000
0100
0000
0010
0000
0001
0000
0100
0000
0001
0000
1000
0000
0100
0000
0010
0000
0001
0000
0010
0000
0100
0000
1000
0000
0001
0000
0100
0000
0002
0000
0000
0000
0000
0000
0000
0000
0000
2003
0000
0000
,
0000
0000
0000
3000
0000
0000
0100
0000
0000
0000
0000
0000
0010
0000
0100
0000
1000
0000
0010
0000
0100
0000
0001
0000
1000
0000
0010
0000
0100
0000
0001
0000
1000
0000
0001
0000
0010
0000
0100
0000
1000
0000
0001
0000
1000
0000
0010
0000
,
0100
0001
0100
0010
1000
0001
0010
0001
1000
0010
0100
0001
0100
0010
1000
0001
1000
0001
0010
0100
1000
0100
0010
0001
,
1000
0100
1000
0001
0010
0100
1000
0001
0100
0010
1000
0010
0100
0001
1000
0001
1000
0100
0010
0001
1000
0010
0100
0001
,
1000
0000
0010
0000
0100
0000
0010
0000
1000
0000
0001
0000
1000
0000
0000
0000
0000
0000
0000
0000
0000
1000
0000
0000
0000
0000
0000
0000
0000
0000
1000
0000
0000
0000
0000
0000
0002
0000
0000
0000
0000
0000
0000
0000
0000
0023
0000
0000
,
0000
0000
0000
0130
0000
0000
1000
0100
0010
0100
1000
0001
1000
0100
0010
0001
1000
0010
1000
0001
0010
0100
1000
0100
,
0010
0001
1000
0100
0010
0001
0100
0001
1000
0100
0010
0100
1000
0001
1000
0100
0010
0001
1000
0010
0100
0001
0100
0010
,
1000
0001
0100
0001
1000
0010
0100
0001
1000
0100
0010
0100
1000
0001
0010
0001
1000
0010
0100
0001
1000
0100
0010
0100
,
1000
0000
0001
0000
0010
0000
0100
0000
1000
0000
0001
0000
1000
0000
0010
0000
1000
0000
0001
0000
0010
0000
0100
0000
1000
0000
0100
0000
0010
0000
0001
0000
0010
0000
0100
0000
2000
0000
0000
0000
0000
0000
0000
0000
0000
3200
0000
0000
,
0000
0000
0000
0310
0000
0000
0001
1000
0010
0100
0001
0100
0010
1000
0001
0100
0010
1000
0001
0010
0001
1000
0010
0100
,
0001
0100
0010
1000
0001
1000
0100
0010
0001
1000
0010
0100
0001
0100
0010
1000
0001
1000
0100
0010
0001
0010
0100
1000
,
0100
0010
0001
1000
0100
0010
0001
1000
0001
0100
0010
1000
0010
0100
0001
1000
0010
1000
0001
0010
0001
1000
0010
0100
,
0001
0000
0100
0000
0010
0000
1000
0000
0001
0000
1000
0000
0001
0000
0000
0000
0000
0000
0000
0000
0000
0001
0000
0000
0000
0000
0000
0000
0000
0000
0001
0000
0000
0000
0000
0000
2000
0000
0000
0000
0000
0000
0000
0000
0000
3200
0000
0000
,
0000
0000
0000
0310
0000
0000
0100
1000
0001
1000
0010
0100
0001
0100
0010
1000
0001
1000
0100
0010
0001
1000
0010
0100
,
0001
0100
0010
1000
0001
0010
0100
0010
0001
1000
0010
0100
0001
0100
0010
1000
0001
1000
0100
0010
0001
0010
0100
1000
,
0001
0100
0001
1000
0010
0100
0001
1000
0100
0010
0001
0010
0100
1000
0001
1000
0010
0100
0001
0010
0100
1000
0001
0010
,
0001
0000
1000
0000
0100
0000
0010
0000
0001
0000
1000
0000
0010
0000
1000
0000
0001
0000
0010
0000
0100
0000
0010
0000
0001
0000
1000
0000
0001
0000
0010
0000
0100
0000
0010
0000
0002
0000
0000
0000
0000
0000
0000
0000
0000
0023
0000
0000
,
0000
0000
0000
0130
0000
0000
1000
0001
1000
0001
0100
0010
1000
0010
0100
0001
1000
0001
0010
0100
1000
0001
0100
0010
,
1000
0010
0100
0001
1000
0100
0010
0100
1000
0001
0100
0010
1000
0010
0100
0001
1000
0001
0010
0100
1000
0100
0010
0001
,
1000
0100
1000
0001
0010
0100
1000
0001
0100
0010
1000
0010
0100
0001
1000
0001
0100
0010
1000
0100
0010
0001
1000
0100
,
1000
0000
0001
0000
0010
0000
0100
0000
1000
0000
0001
0000
1000
0000
0000
0000
0000
0000
0000
0000
0000
1000
0000
0000
0000
0000
0000
0000
0000
0000
1000
0000
0000
0000
0000
0000
0002
0000
0000
0000
0000
0000
0000
0000
0000
0023
0000
0000
,
0000
0000
0000
0130
0000
0000
1000
0001
1000
0001
0100
0010
1000
0010
0100
0001
1000
0001
0010
0100
1000
0001
0100
0010
,
1000
0010
0100
0001
1000
0100
0010
0100
1000
0001
0100
0010
1000
0010
0100
0001
1000
0001
0010
0100
1000
0100
0010
0001
,
1000
0100
1000
0001
0010
0100
1000
0001
0100
0010
1000
0010
0100
0001
1000
0001
0100
0010
1000
0100
0010
0001
1000
0100
,
1000
0000
0001
0000
0010
0000
0100
0000
1000
0000
0001
0000
0100
0000
0001
0000
1000
0000
0100
0000
0010
0000
0100
0000
1000
0000
0001
0000
1000
0000
0100
0000
0010
0000
0100
0000
2000
0000
0000
0000
0000
0000
0000
0000
0000
3002
0000
0000
,
0000
0000
0000
0103
0000
0000
0001
0010
0100
0010
0001
1000
0001
0010
0100
0010
0001
1000
0010
1000
0001
0010
0100
0010
,
0001
1000
0001
0010
0100
1000
0001
0100
0001
1000
0100
0010
0001
0010
0100
1000
0001
0100
0010
1000
0010
0100
0001
1000
,
0010
0100
0010
1000
0001
1000
0100
0010
0001
0010
0100
1000
0001
0010
0100
0010
0001
1000
0010
1000
0001
0010
0100
0010
,
0001
0000
1000
0000
0001
0000
1000
0000
0100
0000
0010
0000
0001
0000
0000
0000
0000
0000
0000
0000
0000
0010
0000
0000
0000
0000
0000
0000
0000
0000
0100
0000
0000
0000
0000
0000
2000
0000
0000
0000
0000
0000
0000
0000
0000
3002
0000
0000
,
0000
0203
0310
0000
1000
0001
0101
0000
,
0100
0000
0000
0000
0001
0000
0000
0000
1000
0000
0010
0000
1010
0000
0000
1000
,
0000
0001
1000
0000
0001
0010
0011
0000
,
0001
0000
0000
0000
1000
0000
0000
0000
0010
0000
0100
0000
0101
0000
0000
0001
,
0000
1000
0100
0000
1000
0100
1100
0000
,
1000
0000
0000
0000
0100
0000
0000
0000
0010
0000
0001
0000
0011
0000
0000
0010
,
0000
0001
0100
0000
0010
1000
1010
0000
,
0010
0000
0000
0000
0100
0000
0000
0000
0001
0000
0100
0000
0101
0000
0000
0001
,
0000
0010
0100
0000
1000
0010
1010
0000
,
1000
0000
0000
0000
0001
0000
0000
0000
0100
0000
0001
0000
0011
0000
0000
0010
,
0000
0100
1000
0000
0001
1000
1010
0000
,
0010
0000
0000
0000
0100
0000
0000
0000
0001
0000
1000
0000
1001
0000
0000
0001
,
0000
1000
0020
0000
0000
0000
0000
0000
,
0000
0000
0000
2030
,
0000
3002
0000
0000
,
0000
0000
0000
0000
0013
0000
0100
0000
1000
0000
0001
0000
1000
0010
0100
0001
,
1000
0000
0000
0001
0000
0000
1000
0000
0000
0000
0000
0000
0001
0000
0100
0000
0010
0000
0100
0000
0001
0000
1000
0000
0001
0000
0100
0000
0010
0000
0100
0000
0001
0000
1000
0000
0100
0000
1000
0000
0001
0000
0100
0000
0010
0000
0100
0000
,
0001
1000
0001
0100
0010
1000
0001
0010
0001
1000
0010
0100
0001
0100
0010
1000
0001
0010
0100
1000
0100
0010
0001
1000
,
0100
0010
0100
1000
0001
1000
0010
0100
0001
0100
0010
1000
0001
0100
0010
0100
0001
1000
0100
1000
0001
0100
0010
0100
,
0001
0000
1000
0000
0001
0000
1000
0000
0010
0000
0100
0000
0001
0000
0010
0000
0001
0000
1000
0000
0010
0000
0100
0000
0001
0000
0100
0000
0010
0000
1000
0000
0001
0000
0010
0000
0002
0000
0000
0000
0000
0000
0000
0000
0000
0203
0000
0000
,
0000
0000
0000
0310
0000
0000
0100
0010
1000
0100
0010
0001
1000
0100
0010
0001
1000
0001
0100
0010
1000
0001
1000
0100
,
0010
0001
0010
0100
1000
0001
0100
0001
1000
0100
0010
0001
0010
0100
1000
0001
1000
0001
0100
0010
1000
0010
0100
0001
,
1000
0010
1000
0001
0100
0010
1000
0001
0010
0100
1000
0100
0010
0001
1000
0001
1000
0010
0100
0010
1000
0001
0010
0001
,
1000
0000
0100
0000
0010
0000
0100
0000
1000
0000
0001
0000
1000
0000
0010
0000
1000
0000
0010
0000
0100
0000
0001
0000
0100
0000
0010
0000
1000
0000
0001
0000
0100
0000
0010
0000
2000
0000
0000
0000
0000
0000
0000
0000
0000
3002
0000
0000
,
0000
0000
0000
0103
0000
0000
0001
0100
0010
0100
0001
1000
0001
0100
0010
1000
0001
0010
0001
1000
0010
0100
0001
0100
,
0010
1000
0001
0100
0010
1000
0100
1000
0001
0100
0010
0100
0001
1000
0001
0100
0010
1000
0001
0010
0100
1000
0100
0010
,
0001
1000
0100
1000
0001
0010
0100
1000
0001
0100
0010
0100
0001
1000
0010
1000
0001
0010
0100
1000
0001
0100
0010
0100
,
0001
0000
1000
0000
0010
0000
0100
0000
0001
0000
1000
0000
0001
0000
0010
0000
0001
0000
1000
0000
0010
0000
0100
0000
0001
0000
0100
0000
0010
0000
1000
0000
0010
0000
0100
0000
0002
0000
0000
0000
0000
0000
0000
0000
0000
2003
0000
0000
,
0000
0000
0000
3010
0000
0000
1000
0001
0010
0100
1000
0100
0010
0001
1000
0100
0010
0001
1000
0010
1000
0001
0010
0100
,
1000
0100
0010
0001
1000
0001
0100
0010
1000
0001
0010
0100
1000
0100
0010
0001
1000
0001
0100
0010
1000
0010
0100
0001
,
0100
0010
1000
0001
0100
0010
1000
0001
1000
0100
0010
0001
0010
0100
1000
0001
0010
0001
1000
0010
1000
0001
0010
0100
,
1000
0000
0100
0000
0010
0000
0001
0000
1000
0000
0001
0000
0100
0000
0001
0000
1000
0000
0100
0000
0010
0000
0100
0000
1000
0000
0001
0000
1000
0000
0001
0000
0010
0000
0100
0000
2000
0000
0000
0000
0000
0000
0000
0000
0000
3002
0000
0000
,
0000
0000
0000
0103
0000
0000
0010
1000
0001
1000
0010
0100
0001
0100
0010
1000
0001
1000
0100
0010
0001
1000
0010
0100
,
0001
0100
0010
1000
0001
0010
0100
0010
0001
1000
0010
0100
0001
0100
0010
1000
0001
1000
0100
0010
0001
0010
0100
1000
,
0001
0010
0001
1000
0100
0010
0001
1000
0010
0100
0001
0100
0010
1000
0001
0100
0001
0010
0100
1000
0001
1000
0100
0010
,
0001
0000
1000
0000
0100
0000
0010
0000
0001
0000
1000
0000
0010
0000
1000
0000
0001
0000
0010
0000
0100
0000
0010
0000
0001
0000
1000
0000
0001
0000
0010
0000
0100
0000
0010
0000
0002
0000
0000
0000
0000
0000
0000
0000
0000
2003
0000
0000
,
0000
0000
0000
3010
0000
0000
0100
0001
1000
0001
0100
0010
1000
0010
0100
0001
1000
0001
0010
0100
1000
0001
0100
0010
,
1000
0010
0100
0001
1000
0100
0010
0100
1000
0001
0100
0010
1000
0010
0100
0001
1000
0001
0010
0100
1000
0100
0010
0001
,
1000
0100
1000
0001
0010
0100
1000
0001
0100
0010
1000
0010
0100
0001
1000
0001
0100
0001
0010
0100
1000
0001
0010
0100
,
0010
0000
0001
0000
1000
0000
0100
0000
1000
0000
0001
0000
0100
0000
0001
0000
1000
0000
0100
0000
0010
0000
0100
0000
1000
0000
0001
0000
1000
0000
0100
0000
0010
0000
0100
0000
2000
0000
0000
0000
0000
0000
0000
0000
0000
3200
0000
0000
,
0000
0000
0000
0310
0000
0000
0001
1000
0100
0010
0001
1000
0001
0100
0010
1000
0001
1000
0100
0010
0001
1000
0010
0100
,
0001
0100
0010
1000
0001
0010
0100
0010
0001
1000
0010
0100
0001
0100
0010
1000
0001
1000
0100
0010
0001
0010
0100
1000
,
0001
0010
0001
1000
0100
0010
0001
1000
0010
0100
0001
0100
0010
1000
0001
1000
0010
0100
0001
0010
0100
1000
0001
0010
,
0001
0000
1000
0000
0100
0000
0010
0000
0001
0000
1000
0000
0010
0000
1000
0000
0001
0000
0010
0000
0100
0000
0010
0000
0001
0000
1000
0000
0001
0000
0010
0000
0100
0000
0010
0000
0002
0000
0000
0000
0000
0000
0000
0000
0000
0023
0000
0000
,
0000
0000
0000
0130
0000
0000
1000
0100
0010
0100
1000
0001
1000
0100
0010
0100
1000
0001
0100
0001
1000
0100
0010
0100
,
1000
0001
1000
0100
0010
0001
1000
0010
1000
0001
0010
0100
1000
0100
0010
0001
1000
0010
0100
0001
0100
0010
1000
0001
,
0100
0010
0100
0001
1000
0001
0010
0100
1000
0100
0010
0001
1000
0100
0010
0100
1000
0001
0100
0001
1000
0100
0010
0100
,
1000
0000
0001
0000
1000
0000
0001
0000
0010
0000
0100
0000
1000
0000
0100
0000
0010
0000
0001
0000
1000
0000
0100
0000
1000
0000
0001
0000
0010
0000
0001
0000
1000
0000
0100
0000
0020
0000
0000
0030
0000
0000
0000
0000
0000
0002
0000
0000
,
0003
0000
0200
0300
0010
0000
0000
0000
0000
0000
0000
0000
0000
0000
0000
0000
,
0000
0000
0000
0000
,
0000
M000
0000
0000
;

//---------------dance-single - Rynker----------------
#NOTES:
     dance-single:
     Rynker:
     Medium:
     13:
     0.996,0.955,0.079,0.212,1.000,1700.000,20.000,54.000,1.000,0.000:




0000
0000
0000
0000
,
0000
0000
0000
1000
0000
0000
0001
0100
0001
1000
0000
0000
,
0100
1000
0001
0010
0000
0000
0001
1000
0001
0100
0000
0000
,
0010
1000
0010
0100
0000
0000
0001
1000
0100
1000
0000
0000
,
0001
0010
0100
1000
0000
0000
0001
0100
0001
1000
0000
0010
,
0000
0100
0000
0001
0000
0000
1000
0100
0010
0001
0000
0000
,
1000
0001
0100
0010
0000
0000
0100
0001
1000
0100
0000
0000
,
0010
0001
1000
0100
0000
0000
1000
0001
0100
0010
0000
0000
,
0100
0001
1000
0100
0000
0000
1000
0001
0100
0010
0000
0100
,
0000
0001
0000
1000
0000
0000
0100
0010
0001
1000
0000
0000
,
0001
0010
0100
1000
0000
0000
0001
0100
0010
0100
0000
0000
,
0001
1000
0100
1000
0000
0000
0001
0010
0100
1000
0000
0000
,
0001
0100
0010
1000
0000
0000
0001
0010
0100
1000
0000
0001
,
0000
0000
0100
0000
0000
0000
0010
0000
0000
0100
0000
0000
0001
0000
0000
0010
0000
0000
0100
0000
0000
1000
0000
0000
,
0010
0100
0001
0010
0001
0100
0010
1000
,
0100
0000
0000
0000
0010
0000
0000
0000
0001
0000
0000
0100
0000
0000
0010
0000
1000
0000
0000
0001
0000
0000
0010
0000
0100
0000
0000
1000
0000
0000
0001
0000
,
0100
0000
0000
0010
0000
0000
1000
0000
0100
0000
0000
0000
0010
0000
0000
0000
0001
0000
0000
0000
0100
0000
0000
0000
0010
0000
0000
0000
1000
0000
0000
0000
,
0100
0000
0010
0000
0001
1000
0001
0100
0010
0100
0001
1000
0100
0010
0001
0010
,
0100
1000
0001
0100
0010
0100
0001
1000
0100
0010
0001
0010
0100
1000
0001
0100
,
0001
1000
0010
0100
0010
1000
0100
0010
0001
0010
0100
1000
0010
0100
0001
1000
,
0010
0100
0001
1000
0100
1000
0001
0010
0100
1000
0001
0100
0002
0000
0000
2003
,
0000
0000
3010
0000
0100
0001
1000
0100
1000
0001
0010
0100
1000
0010
0100
0001
,
0100
0010
1000
0100
0010
0001
0010
0100
1000
0001
0100
0010
1000
0100
0010
0001
,
1000
0010
0100
0001
1000
0100
0010
0001
1000
0001
0100
0010
1000
0010
0100
0001
,
1000
0100
0010
0001
1000
0001
0100
0010
1000
0010
0100
0001
2000
0000
0000
3200
,
0000
0000
0310
0000
0001
0010
0100
1000
0001
0100
0010
0100
0001
1000
0100
0010
,
0001
0010
0100
1000
0001
0100
0010
0100
0001
1000
0010
0100
0001
1000
0100
1000
,
0001
0010
0100
1000
0001
0100
0010
1000
0001
0010
0001
1000
0010
0100
0010
1000
,
0100
0010
0001
0010
0100
1000
0001
0100
0010
0100
0001
1000
0002
0000
0000
0023
,
0000
0000
0130
0000
1000
0100
0010
0001
0010
0100
1000
0001
0100
0001
1000
0010
,
0100
0001
1000
0100
1000
0001
0010
0100
0010
0001
1000
0001
0100
0010
0100
0001
,
1000
0100
1000
0010
0100
0001
0010
0001
0100
0010
1000
0001
0010
0001
0100
0010
,
1000
0100
1000
0010
0100
0001
0100
0010
1000
0001
0010
0100
2000
0000
0000
3002
,
0000
0000
0103
0000
0010
1000
0010
0100
0001
0010
0001
1000
0010
0100
0001
0100
,
0010
1000
0001
0010
0001
1000
0100
1000
0010
0100
0001
0100
0010
1000
0100
1000
,
0001
0010
0100
0010
0001
1000
0001
0100
0010
0100
0001
1000
0100
0010
0100
1000
,
0010
0100
0010
1000
0001
0100
0010
0100
0001
1000
0100
0010
0002
0000
0000
2003
,
0000
0000
3100
0000
0010
0001
0010
0100
1000
0010
0100
0001
0100
0010
1000
0001
,
0010
0100
0010
0001
1000
0100
1000
0001
0100
0010
0100
0001
1000
0010
0100
0010
,
1000
0001
0100
0001
1000
0100
0010
0001
0010
0100
1000
0001
1000
0100
0010
0001
,
0100
0010
0100
0001
1000
0010
0100
0001
0100
0010
1000
0001
2000
0000
0000
3002
,
0000
0000
0103
0000
0010
1000
0010
0100
0001
1000
0100
1000
0001
0010
0100
0010
,
0001
1000
0001
0100
0010
0100
0001
1000
0100
0010
0100
1000
0010
0100
0001
0100
,
0010
1000
0001
0010
0100
0010
0001
1000
0100
1000
0001
0010
0100
0010
0001
1000
,
0001
0100
0010
0100
0001
1000
0100
1000
0001
0010
0100
1000
0002
0000
0000
2003
,
0000
0000
3100
0000
0010
0001
0010
0100
1000
0001
0100
0010
0100
0001
1000
0100
,
1000
0001
0010
0100
0010
0001
1000
0001
0100
0010
0100
0001
1000
0100
0010
0001
,
0010
0100
1000
0001
0100
0010
1000
0100
1000
0010
0100
0001
0100
0010
1000
0001
,
0010
0100
0010
0001
0100
0010
1000
0010
0100
0001
0010
0001
0200
0300
0000
0002
,
0003
0010
0100
0000
1000
0001
0101
0000
,
0100
0000
0000
0000
0001
0000
0000
0000
1000
0000
0010
0000
1010
0000
0000
1000
,
0000
0001
1000
0000
0001
0010
0011
0000
,
0001
0000
0000
0000
1000
0000
0000
0000
0010
0000
0100
0000
0101
0000
0000
0001
,
0000
1000
0100
0000
1000
0010
1010
0000
,
1000
0000
0000
0000
0100
0000
0000
0000
0010
0000
0001
0000
0011
0000
0000
0010
,
0000
0001
0100
0000
0010
1000
1010
0000
,
0010
0000
0000
0000
0100
0000
0000
0000
0001
0000
0010
0000
0011
0000
0000
0001
,
0000
0010
0100
0000
1000
0000
0010
0000
,
0100
0001
1000
0010
,
1000
0001
0010
0001
,
1000
0100
0010
0001
,
1000
0020
0000
0000
,
0000
0000
0000
2030
,
0000
3002
0000
0000
,
0000
0000
0000
0000
0013
0000
0100
0000
1000
0000
0001
0000
1000
0010
0100
0001
,
1000
0001
1000
0000
0001
1000
0001
0100
0010
0100
0001
1000
0100
0010
0001
0010
,
0100
1000
0001
0100
0010
0100
0001
1000
0100
0010
0001
0010
0100
1000
0001
0100
,
0001
1000
0010
0100
0010
1000
0100
0010
0001
0010
0100
1000
0010
0100
0001
1000
,
0010
0100
0001
1000
0100
1000
0001
0010
0100
1000
0001
0100
0002
0000
0000
2003
,
0000
0000
3010
0000
0100
0001
1000
0100
1000
0001
0010
0100
1000
0010
0100
0001
,
0100
0010
1000
0100
0010
0001
0010
0100
1000
0001
0100
0010
1000
0100
0010
0001
,
1000
0010
0100
0001
1000
0100
0010
0001
1000
0001
0100
0010
1000
0010
0100
0001
,
1000
0100
0010
0001
1000
0001
0100
0010
1000
0010
0100
0001
2000
0000
0000
3200
,
0000
0000
0310
0000
0001
0010
0100
1000
0001
0100
0010
0100
0001
1000
0100
0010
,
0001
0010
0100
1000
0001
0100
0010
0100
0001
1000
0010
0100
0001
1000
0100
1000
,
0001
0010
0100
1000
0001
0100
0010
1000
0001
0010
0001
1000
0010
0100
0010
1000
,
0100
0010
0001
0010
0100
1000
0001
0100
0010
0100
0001
1000
0002
0000
0000
0023
,
0000
0000
0130
0000
1000
0100
0010
0001
0010
0100
1000
0001
0100
0001
1000
0010
,
0100
0001
1000
0100
1000
0001
0010
0100
0010
0001
1000
0001
0100
0010
0100
0001
,
1000
0100
1000
0010
0100
0001
0010
0001
0100
0010
1000
0001
0010
0001
0100
0010
,
1000
0100
1000
0010
0100
0001
0100
0010
1000
0001
0010
0100
2000
0000
0000
3002
,
0000
0000
0103
0000
0010
1000
0010
0100
0001
0010
0001
1000
0010
0100
0001
0100
,
0010
1000
0001
0010
0001
1000
0100
1000
0010
0100
0001
0100
0010
1000
0100
1000
,
0001
0010
0100
0010
0001
1000
0001
0100
0010
0100
0001
1000
0100
0010
0100
1000
,
0010
0100
0010
1000
0001
0100
0010
0100
0001
1000
0100
0010
0002
0000
0000
2003
,
0000
0000
3100
0000
0010
0001
0010
0100
1000
0010
0100
0001
0100
0010
1000
0001
,
0010
0100
0010
0001
1000
0100
1000
0001
0100
0010
0100
0001
1000
0010
0100
0010
,
1000
0001
0100
0001
1000
0100
0010
0001
0010
0100
1000
0001
1000
0100
0010
0001
,
0100
0010
0100
0001
1000
0010
0100
0001
0100
0010
1000
0001
2000
0000
0000
3002
,
0000
0000
0103
0000
0010
1000
0010
0100
0001
1000
0100
1000
0001
0010
0100
0010
,
0001
1000
0001
0100
0010
0100
0001
1000
0100
0010
0100
1000
0010
0100
0001
0100
,
0010
1000
0001
0010
0100
0010
0001
1000
0100
1000
0001
0010
0100
0010
0001
1000
,
0001
0100
0010
0100
0001
1000
0100
1000
0001
0010
0100
1000
0002
0000
0000
2003
,
0000
0000
3100
0000
0010
0001
0010
0100
1000
0001
0100
0010
0100
0001
1000
0100
,
1000
0001
0010
0100
0010
0001
1000
0001
0100
0010
0100
0001
1000
0100
0010
0001
,
0010
0100
1000
0001
0100
0010
1000
0100
1000
0010
0100
0001
0100
0010
1000
0001
,
0010
0100
0010
0001
0100
0010
1000
0010
0100
0001
0010
0001
0200
0300
0000
0002
,
0003
0010
0100
0000
1000
0010
1010
0000
,
0100
0000
0000
0000
0001
0000
0000
0000
1000
0000
0010
0000
1010
0000
0000
1000
,
0000
0001
1000
0000
0001
0010
0011
0000
,
0001
0000
0000
0000
1000
0000
0000
0000
0010
0000
0100
0000
0101
0000
0000
0001
,
0000
1000
0100
0000
1000
0100
1100
0000
,
1000
0000
0000
0000
0100
0000
0000
0000
0010
0000
0001
0000
0011
0000
0000
0010
,
0000
0001
0100
0000
0010
1000
1010
0000
,
0010
0000
0000
0000
0100
0000
0000
0000
0001
0000
0100
0000
0101
0000
0000
0001
,
0000
0010
0100
0000
1000
0010
1010
0000
,
1000
0000
0000
0000
0001
0000
0000
0000
0100
0000
0001
0000
0011
0000
0000
0010
,
0000
0100
1000
0000
0001
1000
1010
0000
,
0010
0000
0000
0000
0100
0000
0000
0000
0001
0000
1000
0000
1001
0000
0000
0001
,
0000
1000
0020
0000
0000
0000
0000
0000
,
0000
0000
0000
2030
,
0000
3002
0000
0000
,
0000
0000
0000
0000
0013
0000
0100
0000
1000
0000
0001
0000
1000
0010
0100
0001
,
1000
0001
1000
0000
0001
1000
0001
0100
0010
0100
0001
1000
0100
0010
0001
0010
,
0100
1000
0001
0100
0010
0100
0001
1000
0100
0010
0001
0010
0100
1000
0001
0100
,
0001
1000
0010
0100
0010
1000
0100
0010
0001
0010
0100
1000
0010
0100
0001
1000
,
0010
0100
0001
1000
0100
1000
0001
0010
0100
1000
0001
0100
0002
0000
0000
2003
,
0000
0000
3010
0000
0100
0001
1000
0100
1000
0001
0010
0100
1000
0010
0100
0001
,
0100
0010
1000
0100
0010
0001
0010
0100
1000
0001
0100
0010
1000
0100
0010
0001
,
1000
0010
0100
0001
1000
0100
0010
0001
1000
0001
0100
0010
1000
0010
0100
0001
,
1000
0100
0010
0001
1000
0001
0100
0010
1000
0010
0100
0001
2000
0000
0000
3200
,
0000
0000
0310
0000
0001
0010
0100
1000
0001
0100
0010
0100
0001
1000
0100
0010
,
0001
0010
0100
1000
0001
0100
0010
0100
0001
1000
0010
0100
0001
1000
0100
1000
,
0001
0010
0100
1000
0001
0100
0010
1000
0001
0010
0001
1000
0010
0100
0010
1000
,
0100
0010
0001
0010
0100
1000
0001
0100
0010
0100
0001
1000
0002
0000
0000
0023
,
0000
0000
0130
0000
1000
0100
0010
0001
0010
0100
1000
0001
0100
0001
1000
0010
,
0100
0001
1000
0100
1000
0001
0010
0100
0010
0001
1000
0001
0100
0010
0100
0001
,
1000
0100
1000
0010
0100
0001
0010
0001
0100
0010
1000
0001
0010
0001
0100
0010
,
1000
0100
1000
0010
0100
0001
0100
0010
1000
0001
0010
0100
2000
0000
0000
3002
,
0000
0000
0103
0000
0010
1000
0010
0100
0001
0010
0001
1000
0010
0100
0001
0100
,
0010
1000
0001
0010
0001
1000
0100
1000
0010
0100
0001
0100
0010
1000
0100
1000
,
0001
0010
0100
0010
0001
1000
0001
0100
0010
0100
0001
1000
0100
0010
0100
1000
,
0010
0100
0010
1000
0001
0100
0010
0100
0001
1000
0100
0010
0002
0000
0000
2003
,
0000
0000
3100
0000
0010
0001
0010
0100
1000
0010
0100
0001
0100
0010
1000
0001
,
0010
0100
0010
0001
1000
0100
1000
0001
0100
0010
0100
0001
1000
0010
0100
0010
,
1000
0001
0100
0001
1000
0100
0010
0001
0010
0100
1000
0001
1000
0100
0010
0001
,
0100
0010
0100
0001
1000
0010
0100
0001
0100
0010
1000
0001
2000
0000
0000
3002
,
0000
0000
0103
0000
0010
1000
0010
0100
0001
1000
0100
1000
0001
0010
0100
0010
,
0001
1000
0001
0100
0010
0100
0001
1000
0100
0010
0100
1000
0010
0100
0001
0100
,
0010
1000
0001
0010
0100
0010
0001
1000
0100
1000
0001
0010
0100
0010
0001
1000
,
0001
0100
0010
0100
0001
1000
0100
1000
0001
0010
0100
1000
0002
0000
0000
2003
,
0000
0000
3100
0000
0010
0001
0010
0100
1000
0001
0100
0010
0100
0001
1000
0100
,
1000
0001
0010
0100
0010
0001
1000
0001
0100
0010
0100
0001
1000
0100
0010
0001
,
0010
0100
1000
0001
0100
0010
1000
0100
1000
0010
0100
0001
0100
0010
1000
0001
,
0010
0100
0010
0001
0100
0010
1000
0010
0100
0001
0010
0001
0200
0300
0000
0002
,
0003
0010
0100
0000
0000
0000
0000
0000
,
0000
0000
0000
0000
,
0000
M000
0000
0000
;

//---------------dance-single - Rynker----------------
#NOTES:
     dance-single:
     Rynker:
     Easy:
     9:
     0.545,0.571,0.079,0.589,0.236,800.000,20.000,150.000,0.000,0.000:

0000
0000
0000
0000
,
0000
0000
0000
1000
0000
0000
0001
0100
0001
1000
0000
0000
,
0100
1000
0001
0010
0000
0000
0001
1000
0001
0100
0000
0000
,
0010
1000
0010
0100
0000
0000
0001
1000
0100
1000
0000
0000
,
0001
0010
0100
1000
0000
0000
0001
0100
0001
1000
0000
0010
,
0000
0100
0000
0001
0000
0000
1000
0100
0010
0001
0000
0000
,
1000
0001
0100
0010
0000
0000
0100
0001
1000
0100
0000
0000
,
0010
0001
1000
0100
0000
0000
1000
0001
0100
0010
0000
0000
,
0100
0001
1000
0100
0000
0000
1000
0001
0100
0010
0000
0100
,
0000
0001
0000
1000
0000
0000
0100
0010
0001
1000
0000
0000
,
0001
0010
0100
1000
0000
0000
0001
0100
0010
0100
0000
0000
,
0001
1000
0100
1000
0000
0000
0001
0010
0100
1000
0000
0000
,
0001
0100
0010
1000
0000
0000
0001
0010
0100
1000
0000
0001
,
0000
0000
0100
0000
0000
0000
0010
0000
0000
0100
0000
0000
0001
0000
0000
0010
0000
0000
0100
0000
0000
1000
0000
0000
,
0010
0100
0001
0010
0001
0100
0010
1000
,
0100
0000
0000
0000
0010
0000
0000
0000
0001
0000
0000
0100
0000
0000
0010
0000
1000
0000
0000
0001
0000
0000
0010
0000
0100
0000
0000
1000
0000
0000
0001
0000
,
0100
0000
0000
0010
0000
0000
1000
0000
0100
0000
0000
0000
0010
0000
0000
0000
0001
0000
0000
0000
0100
0000
0000
0000
0010
0000
0000
0000
1000
0000
0000
0000
,
0100
0010
0002
0000
1000
1000
0010
0000
,
0100
0000
0000
0000
1000
0000
0000
0000
0010
0000
0010
0003
2000
0000
0000
0001
,
0000
0001
3002
0000
0010
0010
1000
0000
,
0100
0000
0000
0000
1000
0000
0000
0000
0100
0003
0100
0000
0200
0000
0000
0302
,
0000
2003
3200
0000
0010
0010
1000
0000
,
1000
0000
0000
0000
0010
0000
0000
0000
1000
0000
1000
0300
2000
0000
0000
0001
,
0000
0001
3002
0000
0010
0010
0100
0000
,
0100
0000
0000
0000
1000
0000
0000
0000
0010
0000
0010
0000
2003
0000
0000
3020
,
0000
0000
0230
0000
0002
0300
0000
0000
1000
0000
1000
0000
0010
0000
0000
0000
,
1000
0000
0000
0000
0100
0000
0000
0000
0010
0000
0010
0000
2003
0000
0000
0001
,
0000
0001
3002
0000
0010
0010
1000
0000
,
0100
0000
0000
0000
1000
0000
0000
0000
0100
0003
0100
0000
0200
0000
0000
0302
,
0000
2003
3200
0000
0010
0010
1000
0000
,
1000
0000
0000
0000
0010
0000
0000
0000
1000
0000
1000
0300
2000
0000
0000
0001
,
0000
0001
3002
0000
0010
0010
0100
0000
,
0100
0000
0000
0000
1000
0000
0000
0000
0010
0000
0010
0000
2003
0000
0000
3020
,
0000
0000
0230
0000
0002
0300
0000
0000
1000
0000
1000
0000
0010
0000
0000
0000
,
1000
0000
0000
0000
0100
0000
0000
0000
0010
0000
0010
0000
2003
0000
0000
0001
,
0000
0001
3002
0000
0010
0010
1000
0000
,
0100
0000
0000
0000
1000
0000
0000
0000
0100
0003
0100
0000
0200
0000
0000
0302
,
0000
2003
3200
0000
0010
0010
1000
0000
,
1000
0000
0000
0000
0010
0000
0000
0000
1000
0000
1000
0300
2000
0000
0000
0001
,
0000
0001
3002
0000
0010
0010
0100
0000
,
0100
0000
0000
0000
1000
0000
0000
0000
0010
0000
0010
0000
2003
0000
0000
3020
,
0000
0000
0230
0000
0002
0300
0000
0000
1000
0000
1000
0000
0010
0000
0000
0000
,
1000
0000
0000
0000
0100
0000
0000
0000
0010
0000
0010
0000
2003
0000
0000
0001
,
0000
0001
3002
0000
0010
0010
1000
0000
,
0100
0000
0000
0000
1000
0000
0000
0000
0100
0003
0100
0000
0200
0000
0000
0302
,
0000
2003
3200
0000
0010
0010
1000
0000
,
1000
0000
0000
0000
0010
0000
0000
0000
1000
0000
1000
0300
2000
0000
0000
0001
,
0000
0001
3002
0000
0010
0010
1000
0000
,
0000
0000
0000
0000
0000
0000
0000
0000
0000
0000
0003
0000
2000
0000
0000
3020
,
0000
0230
0301
0000
1000
0100
1100
0000
,
0001
0000
0000
0000
0100
0000
0000
0000
0001
0000
0010
0000
0011
0000
0000
0001
,
0000
1000
0001
0000
0001
0010
0011
0000
,
0001
0000
0000
0000
1000
0000
0000
0000
0010
0000
0100
0000
0101
0000
0000
0001
,
0000
1000
0100
0000
1000
0010
1010
0000
,
1000
0000
0000
0000
0100
0000
0000
0000
0010
0000
0001
0000
0011
0000
0000
0010
,
0000
0001
0100
0000
0010
1000
1010
0000
,
0010
0000
0000
0000
0100
0000
0000
0000
0001
0000
0010
0000
0011
0000
0000
0001
,
0000
0010
0100
0000
1000
0000
0010
0000
,
0100
0001
1000
0010
,
1000
0001
0010
0001
,
1000
0100
0010
0001
,
1000
0020
0000
0000
,
0000
0000
0000
2030
,
0000
3002
0000
0000
,
0000
0000
0000
0000
0013
0000
0100
0000
1000
0000
0001
0000
1000
0010
0100
0001
,
1000
0001
1000
0000
0002
0000
0000
0000
1000
0000
1000
0000
0010
0000
0000
0000
,
0100
0000
0000
0000
1000
0000
0000
0000
0010
0000
0010
0003
2000
0000
0000
0001
,
0000
0001
3002
0000
0010
0010
1000
0000
,
0100
0000
0000
0000
1000
0000
0000
0000
0100
0003
0100
0000
0200
0000
0000
0302
,
0000
2003
3200
0000
0010
0010
1000
0000
,
1000
0000
0000
0000
0010
0000
0000
0000
1000
0000
1000
0300
2000
0000
0000
0001
,
0000
0001
3002
0000
0010
0010
0100
0000
,
0100
0000
0000
0000
1000
0000
0000
0000
0010
0000
0010
0000
2003
0000
0000
3020
,
0000
0000
0230
0000
0002
0300
0000
0000
1000
0000
1000
0000
0010
0000
0000
0000
,
1000
0000
0000
0000
0100
0000
0000
0000
0010
0000
0010
0000
2003
0000
0000
0001
,
0000
0001
3002
0000
0010
0010
1000
0000
,
0100
0000
0000
0000
1000
0000
0000
0000
0100
0003
0100
0000
0200
0000
0000
0302
,
0000
2003
3200
0000
0010
0010
1000
0000
,
1000
0000
0000
0000
0010
0000
0000
0000
1000
0000
1000
0300
2000
0000
0000
0001
,
0000
0001
3002
0000
0010
0010
0100
0000
,
0100
0000
0000
0000
1000
0000
0000
0000
0010
0000
0010
0000
2003
0000
0000
3020
,
0000
0000
0230
0000
0002
0300
0000
0000
1000
0000
1000
0000
0010
0000
0000
0000
,
1000
0000
0000
0000
0100
0000
0000
0000
0010
0000
0010
0000
2003
0000
0000
0001
,
0000
0001
3002
0000
0010
0010
1000
0000
,
0100
0000
0000
0000
1000
0000
0000
0000
0100
0003
0100
0000
0200
0000
0000
0302
,
0000
2003
3200
0000
0010
0010
1000
0000
,
1000
0000
0000
0000
0010
0000
0000
0000
1000
0000
1000
0300
2000
0000
0000
0001
,
0000
0001
3002
0000
0010
0010
0100
0000
,
0100
0000
0000
0000
1000
0000
0000
0000
0010
0000
0010
0000
2003
0000
0000
3020
,
0000
0000
0230
0000
0002
0300
0000
0000
1000
0000
1000
0000
0010
0000
0000
0000
,
1000
0000
0000
0000
0100
0000
0000
0000
0010
0000
0010
0000
2003
0000
0000
0001
,
0000
0001
3002
0000
0010
0010
1000
0000
,
0100
0000
0000
0000
1000
0000
0000
0000
0100
0003
0100
0000
0200
0000
0000
0302
,
0000
2003
3200
0000
0010
0010
1000
0000
,
1000
0000
0000
0000
0010
0000
0000
0000
1000
0000
1000
0300
2000
0000
0000
0001
,
0000
0001
3002
0000
0010
0010
1000
0000
,
0000
0000
0000
0000
0000
0000
0000
0000
0000
0000
0003
0000
2000
0000
0000
3020
,
0000
0230
0301
0000
0001
1000
1010
0000
,
0010
0000
0000
0000
1000
0000
0000
0000
0001
0000
0100
0000
0101
0000
0000
0001
,
0000
1000
0001
0000
1000
0100
1100
0000
,
1000
0000
0000
0000
0001
0000
0000
0000
0100
0000
0010
0000
1010
0000
0000
1000
,
0000
0001
0010
0000
0001
0010
0011
0000
,
0001
0000
0000
0000
0010
0000
0000
0000
0100
0000
1000
0000
1100
0000
0000
0100
,
0000
1000
0010
0000
0100
0001
0101
0000
,
0100
0000
0000
0000
0010
0000
0000
0000
1000
0000
0010
0000
1010
0000
0000
1000
,
0000
0100
0010
0000
0001
0100
0101
0000
,
0001
0000
0000
0000
1000
0000
0000
0000
0010
0000
1000
0000
1100
0000
0000
0100
,
0000
0010
0001
0000
1000
0001
0101
0000
,
0100
0000
0000
0000
0010
0000
0000
0000
1000
0000
0001
0000
1001
0000
0000
1000
,
0000
0001
0200
0000
0000
0000
0000
0000
,
0000
0000
0000
0302
,
0000
2003
0000
0000
,
0000
0000
0000
0000
3100
0000
0010
0000
0001
0000
1000
0000
0001
0100
0010
1000
,
0001
1000
0001
0000
2000
0000
0000
0000
0001
0000
0001
0000
0100
0000
0000
0000
,
0010
0000
0000
0000
0001
0000
0000
0000
0100
0000
0100
3000
0002
0000
0000
1000
,
0000
1000
2003
0000
0100
0100
0001
0000
,
0010
0000
0000
0000
0001
0000
0000
0000
0010
3000
0010
0000
0020
0000
0000
2030
,
0000
3002
0023
0000
0100
0100
0001
0000
,
0001
0000
0000
0000
0100
0000
0000
0000
0001
0000
0001
0030
0002
0000
0000
1000
,
0000
1000
2003
0000
0100
0100
0010
0000
,
0010
0000
0000
0000
0001
0000
0000
0000
0100
0000
0100
0000
3002
0000
0000
0203
,
0000
0000
0320
0000
2000
0030
0000
0000
0001
0000
0001
0000
0100
0000
0000
0000
,
0001
0000
0000
0000
0010
0000
0000
0000
0100
0000
0100
0000
3002
0000
0000
1000
,
0000
1000
2003
0000
0100
0100
0001
0000
,
0010
0000
0000
0000
0001
0000
0000
0000
0010
3000
0010
0000
0020
0000
0000
2030
,
0000
3002
0023
0000
0100
0100
0001
0000
,
0001
0000
0000
0000
0100
0000
0000
0000
0001
0000
0001
0030
0002
0000
0000
1000
,
0000
1000
2003
0000
0100
0100
0010
0000
,
0010
0000
0000
0000
0001
0000
0000
0000
0100
0000
0100
0000
3002
0000
0000
0203
,
0000
0000
0320
0000
2000
0030
0000
0000
0001
0000
0001
0000
0100
0000
0000
0000
,
0001
0000
0000
0000
0010
0000
0000
0000
0100
0000
0100
0000
3002
0000
0000
1000
,
0000
1000
2003
0000
0100
0100
0001
0000
,
0010
0000
0000
0000
0001
0000
0000
0000
0010
3000
0010
0000
0020
0000
0000
2030
,
0000
3002
0023
0000
0100
0100
0001
0000
,
0001
0000
0000
0000
0100
0000
0000
0000
0001
0000
0001
0030
0002
0000
0000
1000
,
0000
1000
2003
0000
0100
0100
0010
0000
,
0010
0000
0000
0000
0001
0000
0000
0000
0100
0000
0100
0000
3002
0000
0000
0203
,
0000
0000
0320
0000
2000
0030
0000
0000
0001
0000
0001
0000
0100
0000
0000
0000
,
0001
0000
0000
0000
0010
0000
0000
0000
0100
0000
0100
0000
3002
0000
0000
1000
,
0000
1000
2003
0000
0100
0100
0001
0000
,
0010
0000
0000
0000
0001
0000
0000
0000
0010
3000
0010
0000
0020
0000
0000
2030
,
0000
3002
0023
0000
0100
0100
0001
0000
,
0001
0000
0000
0000
0100
0000
0000
0000
0001
0000
0001
0030
0002
0000
0000
1000
,
0000
1000
2003
0000
0100
0100
0001
0000
,
0000
0000
0000
0000
0000
0000
0000
0000
0000
0000
3000
0000
0002
0000
0000
0203
,
0000
0320
1030
0000
0000
0000
0000
0000
;
