#TITLE:Florescence;
#SUBTITLE:(Epic Mix);
#ARTIST:Andy Blueman;
#TITLETRANSLIT:;
#SUBTITLETRANSLIT:;
#ARTISTTRANSLIT:;
#CREDIT:owenviau1;
#BANNER:../owenviau1 Simfiles 5-bn.png;
#BACKGROUND:../owenviau1 Simfiles 5-bg.png;
#LYRICSPATH:;
#CDTITLE:../ov1_title.png;
#MUSIC:Andy Blueman - Florescence (Epic Mix).mp3;
#OFFSET:-5.422;
#SAMPLESTART:307.711;
#SAMPLELENGTH:29.999;
#SELECTABLE:YES;
#DISPLAYBPM:138.010;
#BPMS:0.000=138.021,4.000=138.028,5.000=138.021,14.000=138.014,15.000=138.021,16.000=138.014,17.000=138.021,18.000=138.014,42.000=138.007,43.000=138.014,44.000=138.007,45.000=138.014,46.000=138.007,47.000=138.014,48.000=138.007,49.000=138.014,50.000=138.007,51.000=138.014,52.000=138.007,53.000=138.014,54.000=138.007,55.000=138.014,56.000=138.007,57.000=138.014,58.000=138.007,59.000=138.014,60.000=138.007,61.000=138.014,62.000=138.007,63.000=138.014,64.000=138.007,65.000=138.014,66.000=138.007,67.000=138.014,68.000=138.007,69.000=138.014,70.000=138.007,71.000=138.014,72.000=138.007,73.000=138.014,74.000=138.007,75.000=138.014,76.000=138.007,77.000=138.014,78.000=138.007,79.000=138.014,80.000=138.007,81.000=138.014,82.000=138.007,83.000=138.014,84.000=138.007,85.000=138.014,86.000=138.007,87.000=138.014,88.000=138.007,89.000=138.014,90.000=138.007,91.000=138.014,92.000=138.007,93.000=138.014,94.000=138.007,95.000=138.014,96.000=138.007,97.000=138.014,98.000=138.007,99.000=138.014,100.000=138.007,101.000=138.014,102.000=138.007,103.000=138.014,104.000=138.007,105.000=138.014,106.000=138.007,107.000=138.014,108.000=138.007,109.000=138.014,110.000=138.007,111.000=138.014,112.000=138.007,113.000=138.014,114.000=138.007,115.000=138.014,116.000=138.007,117.000=138.014,118.000=138.007,119.000=138.014,120.000=138.007,121.000=138.014,122.000=138.007,123.000=138.014,124.000=138.007,125.000=138.014,126.000=138.007,127.000=138.014,128.000=138.007,129.000=138.014,130.000=138.007,131.000=138.014,132.000=138.007,133.000=138.014,134.000=138.007,135.000=138.014,136.000=138.007,137.000=138.014,138.000=138.007,139.000=138.014,140.000=138.007,141.000=138.014,142.000=138.007,143.000=138.014,144.000=138.007,145.000=138.014,146.000=138.007,147.000=138.014,148.000=138.007,149.000=138.014,150.000=138.007,151.000=138.014,152.000=138.007,153.000=138.014,154.000=138.007,155.000=138.014,156.000=138.007,157.000=138.014,158.000=138.007,159.000=138.014,160.000=138.007,161.000=138.014,162.000=138.007,163.000=138.014,164.000=138.007,165.000=138.014,166.000=138.007,167.000=138.014,168.000=138.007,169.000=138.014,170.000=138.007,171.000=138.014,172.000=138.007,173.000=138.014,174.000=138.007,175.000=138.014,176.000=138.007,177.000=138.014,178.000=138.007,179.000=138.014,180.000=138.007,181.000=138.014,182.000=138.007,183.000=138.014,184.000=138.007,185.000=138.014,186.000=138.007,187.000=138.014,188.000=138.007,189.000=138.014,190.000=138.007,191.000=138.014,192.000=138.007,193.000=138.014,194.000=138.007,195.000=138.014,196.000=138.007,197.000=138.014,198.000=138.007,199.000=138.014,200.000=138.007,201.000=138.014,202.000=138.007,203.000=138.014,204.000=138.007,205.000=138.014,206.000=138.007,208.000=138.014,209.000=138.007,210.000=138.014,211.000=138.007,212.000=138.014,213.000=138.007,214.000=138.014,215.000=138.007,216.000=138.014,217.000=138.007,218.000=138.014,219.000=138.007,220.000=138.014,221.000=138.007,222.000=138.014,223.000=138.007,224.000=138.014,225.000=138.007,226.000=138.014,227.000=138.007,228.000=138.014,229.000=138.007,230.000=138.014,231.000=138.007,232.000=138.014,233.000=138.007,234.000=138.014,235.000=138.007,236.000=138.014,237.000=138.007,238.000=138.014,239.000=138.007,240.000=138.014,241.000=138.007,242.000=138.014,243.000=138.007,244.000=138.014,245.000=138.007,246.000=138.014,247.000=138.007,248.000=138.014,249.000=138.007,250.000=138.014,251.000=138.007,252.000=138.014,253.000=138.007,254.000=138.014,255.000=138.007,256.000=138.014,257.000=138.007,258.000=138.014,259.000=138.007,260.000=138.014,261.000=138.007,262.000=138.014,263.000=138.007,264.000=138.014,265.000=138.007,266.000=138.014,267.000=138.007,268.000=138.014,269.000=138.007,270.000=138.014,271.000=138.007,272.000=138.014,273.000=138.007,274.000=138.014,275.000=138.007,276.000=138.014,277.000=138.007,278.000=138.014,279.000=138.007,280.000=138.014,281.000=138.007,282.000=138.014,283.000=138.007,284.000=138.014,285.000=138.007,286.000=138.014,287.000=138.007,288.000=138.014,289.000=138.007,290.000=138.014,291.000=138.007,292.000=138.014,293.000=138.007,294.000=138.014,295.000=138.007,296.000=138.014,297.000=138.007,298.000=138.014,299.000=138.007,300.000=138.014,301.000=138.007,302.000=138.014,303.000=138.007,304.000=138.014,305.000=138.007,306.000=138.014,307.000=138.007,308.000=138.014,309.000=138.007,310.000=138.014,311.000=138.007,312.000=138.014,313.000=138.007,314.000=138.014,315.000=138.007,316.000=138.014,317.000=138.007,318.000=138.014,319.000=138.007,320.000=138.014,321.000=138.007,322.000=138.014,323.000=138.007,324.000=138.014,325.000=138.007,326.000=138.014,327.000=138.007,328.000=138.014,329.000=138.007,330.000=138.014,331.000=138.007,332.000=138.014,333.000=138.007,334.000=138.014,335.000=138.007,336.000=138.014,337.000=138.007,338.000=138.014,339.000=138.007,340.000=138.014,341.000=138.007,342.000=138.014,343.000=138.007,344.000=138.014,345.000=138.007,346.000=138.014,347.000=138.007,348.000=138.014,349.000=138.007,350.000=138.014,351.000=138.007,352.000=138.014,353.000=138.007,354.000=138.014,355.000=138.007,356.000=138.014,357.000=138.007,358.000=138.014,359.000=138.007,360.000=138.014,361.000=138.007,362.000=138.014,363.000=138.007,364.000=138.014,365.000=138.007,366.000=138.014,367.000=138.007,368.000=138.014,368.500=69.007,369.000=69.005,373.000=69.003,374.000=69.005,375.000=69.007,376.000=69.003,377.000=69.005,392.000=69.003,393.000=69.005,397.000=69.003,400.000=69.002,401.000=69.003,406.000=69.002,407.000=69.003,412.000=69.002,413.000=69.003,418.000=69.002,419.000=69.003,425.000=69.002,426.000=69.003,431.000=69.002,432.000=69.003,438.000=69.002,439.000=69.003,443.000=69.002,444.000=69.003,451.000=69.002,452.000=69.003,456.000=69.002,457.000=69.003,461.000=69.002,461.750=138.014,462.000=138.007,464.000=138.014,465.000=138.007,473.000=138.014,474.000=138.007,482.000=138.014,483.000=138.007,489.000=138.014,490.000=138.007,498.000=138.014,499.000=138.007,506.000=138.014,507.000=138.007,515.000=138.014,516.000=138.007,523.000=138.014,524.000=138.007,532.000=138.014,533.000=138.007,538.000=138.014,539.000=137.999,540.000=138.014,541.000=138.007,549.000=138.014,550.000=138.007,555.000=138.014,556.000=137.999,557.000=138.014,558.000=138.007,566.000=138.014,567.000=138.007,572.000=138.014,573.000=137.999,574.000=138.014,575.000=138.007,583.000=138.014,584.000=138.007,585.000=125.748,586.000=129.903,587.000=138.007,588.000=143.851,589.000=153.998,590.000=134.828,591.000=138.007,597.000=138.014,598.000=138.007,606.000=138.014,607.000=138.007,614.000=138.014,615.000=138.007,623.000=138.014,624.000=138.007,631.000=138.014,632.000=138.007,640.000=138.014,641.000=138.007,646.000=138.014,647.000=137.999,648.000=138.014,649.000=138.007,657.000=138.014,658.000=138.007,663.000=138.014,664.000=138.007,672.000=138.014,673.000=138.007,680.000=138.014,681.000=138.007,689.000=138.014,690.000=138.007,697.000=138.014,698.000=137.999,699.000=138.014,700.000=138.007,708.000=138.014,709.000=138.007,712.000=138.014,713.000=137.999,714.000=138.014,715.000=138.007,723.000=138.014,724.000=138.007,729.000=138.014,730.000=137.999,731.000=138.014,732.000=138.007,740.000=138.014,741.000=138.007,744.000=138.014,745.000=137.999,746.000=138.014,747.000=137.999,748.000=138.014,749.000=138.007,757.000=138.014,758.000=138.007,761.000=138.014,762.000=137.999,763.000=138.014,764.000=137.999,765.000=138.014,769.000=138.021,770.000=138.014,795.000=138.028,796.000=138.014,828.000=138.028,829.000=138.014,849.000=124.858,850.000=151.235,851.000=138.014,881.000=138.028,882.000=138.014,883.000=138.028,884.000=138.014,914.000=138.028,915.000=138.014,944.000=138.028,945.000=138.014,975.000=138.028,976.000=138.014,1008.000=138.028,1009.000=138.014,1014.000=138.028,1015.000=138.014,1045.000=138.028,1046.000=138.014,1069.000=138.028,1070.000=138.014,1100.000=138.028,1101.000=138.014;
#STOPS:;
#BGCHANGES:;
// cache tags:
#FIRSTBEAT:0.000;
#LASTBEAT:1116.000;
#SONGFILENAME:Songs/owenviau1 Simfiles 5/Florescence (Epic Mix) - [owenviau1] v1.4/Florescence.sm;
#HASMUSIC:1;
#HASBANNER:1;
#MUSICLENGTH:537.764;
// end cache tags

//---------------dance-single - ----------------
#NOTES:
     dance-single:
     :
     Hard:
     9:
     0.580,0.960,0.100,0.089,0.065,2081.000,54.000,48.000,2.000,1.000:
0010
0001
1000
0100
1000
0001
0100
0010
,
1000
0100
0010
0001
0100
0010
1000
0100
,
1000
0001
0100
0001
1000
0010
1000
0001
,
0100
0010
1000
0001
0100
0001
0010
0100
,
1000
0010
1000
0001
0010
0100
1000
0010
,
0100
0001
1000
0001
0010
0001
0100
0010
,
1000
0100
1000
0010
0100
0001
1000
0001
,
0010
0001
0100
0010
1000
0100
0010
0001
,
0100
0001
1000
0010
1000
0100
1000
0010
,
0100
0001
0010
0100
1000
0010
0100
0001
,
1000
0001
0010
0001
1000
0010
0100
0001
,
0010
0100
1000
0010
0100
0001
1000
0001
,
0010
0001
1000
0010
0100
0001
0010
0100
,
1000
0010
0100
0001
1000
0001
0100
0010
,
1000
0010
0100
0001
0010
0100
1000
0001
,
0100
0010
1000
0100
0010
0001
0100
0010
,
1000
0100
1000
0010
0100
0001
0010
0001
,
1000
0010
0100
0001
0010
0100
1000
0010
,
0100
0001
1000
0001
0010
0001
0100
0010
,
1000
0100
0010
0001
0010
0100
1000
0010
,
0100
0001
1000
0001
0010
0001
1000
0010
,
0100
0001
0010
0100
1000
0010
0100
0001
,
1000
0001
0010
0001
0100
0010
1000
0100
,
1000
0010
1000
0001
0010
0001
1000
0010
,
0100
0001
0010
0100
1000
0010
0100
0001
,
1000
0001
0010
0001
1000
0010
0100
0001
,
0010
0100
1000
0001
0100
0010
1000
0100
,
1000
0010
0100
0001
1000
0001
0010
0001
,
1000
0010
0100
0001
0010
0100
1000
0010
,
0100
0001
1000
0001
0010
0001
0100
0010
,
1000
0100
1000
0001
0100
0010
1000
0100
,
0010
0000
0001
0000
0100
0000
0010
0000
1000
0100
0010
0001
1000
0010
1000
0001
,
0100
0001
1000
0100
1000
0001
0100
0010
,
1000
0100
0010
0001
0100
0010
1000
0100
,
1000
0001
0100
0001
1000
0010
1000
0001
,
0100
0010
1000
0001
0100
0001
0010
0100
,
1000
0010
1000
0001
0010
0100
1000
0010
,
0100
0001
1000
0001
0010
0001
0100
0010
,
1000
0100
1000
0010
0100
0001
1000
0001
,
0010
0001
0100
0010
1000
0100
0010
0001
,
0100
0001
1000
0010
1000
0100
1000
0010
,
0100
0001
0010
0100
1000
0010
0100
0001
,
1000
0001
0010
0001
1000
0010
0100
0001
,
0010
0100
1000
0010
0100
0001
1000
0001
,
0010
0001
1000
0010
0100
0001
0010
0100
,
1000
0010
0100
0001
1000
0001
0100
0010
,
1000
0010
0100
0001
0010
0100
1000
0001
,
0100
0010
1000
0100
0010
0001
0100
0010
,
1000
0100
1000
0010
0100
0001
0010
0001
,
1000
0010
0100
0001
0010
0100
1000
0010
,
0100
0001
1000
0001
0010
0001
0100
0010
,
1000
0100
0010
0001
0010
0100
1000
0010
,
0100
0001
1000
0001
0010
0001
1000
0010
,
0100
0001
0010
0100
1000
0010
0100
0001
,
1000
0001
0010
0001
0100
0010
1000
0100
,
1000
0010
1000
0001
0010
0001
1000
0010
,
0100
0001
0010
0100
1000
0010
0100
0001
,
1000
0001
0010
0001
1000
0010
0100
0001
,
0010
0100
1000
0001
0100
0010
1000
0100
,
1000
0010
0100
0001
1000
0001
0010
0001
,
1000
0010
0100
0001
0010
0100
1000
0010
,
0100
0001
1000
0001
0010
0001
0100
0010
,
1000
0100
1000
0001
0100
0010
1000
0100
,
0010
0001
0100
0010
1000
0001
1000
0010
,
0100
0001
0010
0001
1000
0001
0100
0010
,
1000
0100
0010
0001
0100
0010
1000
0100
,
1000
0001
1000
0010
0100
0001
0010
0001
,
1000
0001
0100
0010
1000
0100
0010
0001
,
0100
0010
1000
0100
1000
0001
1000
0010
,
0100
0001
0010
0001
1000
0001
0100
0010
,
1000
0100
0010
0001
0100
0010
1000
0001
,
0010
0001
1000
0001
0100
0010
1000
0100
,
1000
0001
1000
0010
0100
0001
0010
0001
,
1000
0001
0100
0010
1000
0100
0010
0001
,
0100
0010
1000
0100
1000
0001
1000
0010
,
0100
0001
0010
0001
1000
0001
0100
0010
,
1000
0100
0010
0001
0100
0010
1000
0001
,
0010
0001
1000
0001
0100
0010
1000
0100
,
0010
0001
0100
0010
1000
0001
0010
0001
,
1000
0001
0100
0010
1000
0100
0010
0001
,
1000
1010
0000
0110
0000
1001
0000
0110
,
0000
0101
0000
0011
0000
1100
0000
0110
,
0000
1001
0000
1010
0000
0110
0000
0011
,
0000
1001
0000
0110
0000
1010
0000
1100
,
0000
0011
0000
0110
0000
1001
0000
1010
,
0000
1100
0000
0110
0000
0011
0000
1001
,
0000
0110
0000
1010
0000
1100
0000
0011
,
0000
0110
0000
1001
0000
0101
0000
1010
,
0000
1100
0000
0011
0000
1010
0000
0110
,
0000
0011
0000
1001
0000
1001
0000
0110
,
0000
1010
0000
0110
0000
0011
0000
0110
,
0000
1001
0000
1010
0000
0110
0000
0011
,
0000
2000
0000
0000
0000
0000
0000
0000
,
0000
3200
0000
0000
0000
0320
0000
0000
,
0000
0000
2032
0000
0000
0000
3000
0000
0000
0000
0000
2000
0000
0000
0000
3000
,
0000
0000
0000
0000
2000
0000
0000
0000
3000
0000
0000
0000
0000
2000
0000
0000
,
0000
3000
0000
0000
0000
0000
0023
0000
0000
0000
0000
0000
0000
0000
0000
0000
,
0000
0230
0000
0000
,
0000
0000
0000
0000
0000
2300
0000
0000
0000
0000
0000
0000
0000
0000
0000
0000
,
0000
0000
0000
3020
0000
0000
0000
0000
,
0000
0000
0032
0000
,
2003
0000
0000
0000
0000
3020
0000
0000
,
0000
0230
0000
0000
0000
0302
0000
0000
,
0000
0000
0000
2003
,
0000
3000
0020
0000
0230
0000
0302
0000
,
2003
0000
0000
0000
0000
0000
0000
0000
0000
3020
0000
0000
0000
0000
0230
0000
,
0000
0000
0000
0302
,
2003
3020
0000
0000
0000
0000
0230
0000
,
0302
2003
0000
3020
,
M00M
0230
0000
0000
0000
0000
0302
0000
0000
0000
0000
0000
0000
0000
2003
0000
,
0000
0000
3020
0000
0000
0000
0000
0230
0000
0000
0000
0000
0302
0000
0000
0000
,
0000
2003
0000
0000
,
0000
3020
0000
0000
0000
0030
0200
0000
0000
0000
0000
0000
0000
0300
0002
0000
,
0000
0000
2003
0000
0000
0000
0000
3020
0000
0000
0000
0000
0000
0000
0000
0000
,
0200
0000
0000
0000
0000
0000
0000
0000
0300
0000
0000
0000
0000
0000
0000
0000
0000
0200
0000
0000
0000
0000
0000
0000
0000
0300
0000
0000
0000
0000
0000
0000
,
0000
0000
0200
0000
0000
0000
0300
0100
1030
0000
0001
0000
0010
0000
0100
0000
,
1000
0001
0100
0010
1000
0100
0010
0001
,
0100
0010
1000
0100
1000
0001
0100
0001
,
1000
0010
1000
0001
0100
0010
1000
0001
,
0100
0001
0010
0100
1000
0010
1000
0001
,
0010
0100
1000
0010
0100
0001
1000
0001
,
0010
0001
0100
0010
1000
0100
1000
0010
,
0100
0001
1000
0001
0010
0001
0100
0010
,
1000
0100
0010
0001
0100
0001
1000
0010
,
1000
0100
1000
0010
0100
0001
0010
0100
,
1000
0010
0100
0001
1000
0001
0010
0001
,
1000
0010
0100
0001
0010
0100
1000
0010
,
0100
0001
1000
0001
0010
0001
1000
0010
,
0100
0001
0010
0100
1000
0010
0100
0001
,
1000
0001
0100
0010
1000
0010
0100
0001
,
0010
0100
1000
0001
0100
0010
1000
0100
,
0010
0001
0100
0010
1000
0100
1000
0010
,
0100
0001
0010
0001
1000
0010
0100
0001
,
0010
0100
1000
0010
0100
0001
1000
0001
,
0010
0001
0100
0010
1000
0100
0010
0001
,
0010
0100
1000
0010
0100
0001
1000
0001
,
0010
0001
1000
0010
0100
0001
0010
0100
,
1000
0010
0100
0001
1000
0001
0010
0001
,
0100
0010
1000
0100
1000
0010
1000
0001
,
0010
0001
1000
0010
0100
0001
0010
0100
,
1000
0010
0100
0001
1000
0001
0010
0001
,
1000
0000
0010
0000
0100
0000
0001
0000
1000
0001
1000
0001
1000
0001
1000
0001
,
1000
0001
1000
0001
1000
0001
1000
0001
1000
0001
1000
0001
1000
0001
1000
0001
,
1000
0001
1000
0001
1000
0001
1000
0001
1000
0001
1000
0001
1000
0001
1000
0001
,
1000
0001
1000
0001
1000
0001
1000
0001
1000
0001
1000
0001
1000
0001
1000
0001
,
1000
0000
0000
0001
0000
0000
1000
0000
0000
0001
0000
0000
1000
0000
0000
0001
0000
0000
1000
0000
0000
0001
0000
0000
1000
0000
0001
0000
1000
0000
0001
0000
1000
0000
0001
0000
1000
0000
0001
0000
1000
0000
0001
0000
1000
0000
0001
0000
,
1000
0000
0001
0000
1000
0000
0001
0000
1000
0000
0001
0000
1000
0000
0001
0000
1000
0000
0001
0000
1000
0000
0001
0000
1000
0000
0000
0000
0000
0000
0000
0000
0000
1000
0000
0000
0000
0000
0000
0000
0000
0000
1000
0000
0000
0000
0000
0000
,
0000
0001
0000
1000
1010
0010
1000
0001
,
1000
0010
0100
0010
1000
0100
0010
0001
,
0100
0010
1000
0100
1000
0001
0100
0001
,
1000
0010
1000
0001
0100
0010
1000
0001
,
0100
0001
0010
0100
1000
0010
1000
0001
,
0010
0100
1000
0010
0100
0001
1000
0001
,
0010
0001
0100
0010
1000
0100
1000
0010
,
0100
0001
1000
0001
0010
0001
0100
0010
,
1000
0100
0010
0001
0100
0001
1000
0010
,
1000
0100
1000
0010
0100
0001
0010
0100
,
1000
0010
0100
0001
1000
0001
0010
0001
,
1000
0010
0100
0001
0010
0100
1000
0010
,
0100
0001
1000
0001
0010
0001
1000
0010
,
0100
0001
0010
0100
1000
0010
0100
0001
,
1000
0001
0100
0010
1000
0010
0100
0001
,
0010
0100
1000
0001
0100
0010
1000
0100
,
0010
0001
0100
0010
1000
0100
1000
0010
,
0100
0001
0010
0001
1000
0010
0100
0001
,
0010
0100
1000
0010
0100
0001
1000
0001
,
0010
0001
0100
0010
1000
0100
0010
0001
,
0010
0100
1000
0010
0100
0001
1000
0001
,
0010
0001
1000
0010
0100
0001
0010
0100
,
1000
0010
0100
0001
1000
0001
0010
0001
,
0100
0010
1000
0100
1000
0010
1000
0001
,
0010
0001
1000
0010
0100
0001
0010
0100
,
1000
0010
0100
0001
1000
0001
0010
0001
,
1000
0010
0100
0001
0010
0100
1000
0001
,
0100
0010
1000
0100
1000
0010
0100
0001
,
1000
0001
0010
0001
1000
0010
0100
0001
,
0010
0100
1000
0010
0100
0001
1000
0001
,
0010
0001
0100
0010
1000
0100
1000
0001
,
0100
0010
1000
0100
0010
0001
0100
0010
,
1000
0001
1000
0010
0100
0001
0010
0001
,
1000
0001
0100
0010
1000
0100
0010
0001
,
0100
0010
1000
0100
1000
0001
1000
0010
,
0100
0001
0010
0001
1000
0001
0100
0010
,
1000
0100
0010
0001
0100
0010
1000
0100
,
1000
0001
1000
0010
0100
0001
0010
0001
,
1000
0001
0100
0010
1000
0100
0010
0001
,
0100
0010
1000
0001
0010
0001
1000
0001
,
0100
0010
1000
0100
1000
0001
1000
0010
,
0100
0001
0010
0001
1000
0001
0100
0010
,
1000
0100
0010
0001
0100
0010
1000
0100
,
1000
0001
1000
0010
0100
0001
0010
0001
,
1000
0001
0100
0010
1000
0100
0010
0001
,
0100
0010
1000
0001
0010
0001
1000
0001
,
0100
0010
1000
0100
0010
0001
0100
0010
,
1000
0001
0010
0001
1000
0001
0100
0010
,
1000
0100
0010
0001
0100
1001
1000
0100
,
1000
0001
0100
0010
1000
0100
0010
0001
,
0100
0010
1000
0100
1000
0001
0100
0001
,
1000
0010
1000
0001
0100
0010
1000
0001
,
0100
0001
0010
0100
1000
0010
1000
0001
,
0010
0100
1000
0010
0100
0001
1000
0001
,
0010
0001
0100
0010
1000
0100
1000
0010
,
0100
0001
1000
0001
0010
0001
0100
0010
,
1000
0100
0010
0001
0100
0001
1000
0010
,
1000
0100
1000
0010
0100
0001
0010
0100
,
1000
0010
0100
0001
1000
0001
0010
0001
,
1000
0010
0100
0001
0010
0100
1000
0010
,
0100
0001
1000
0001
0010
0001
1000
0010
,
0100
0001
0010
0100
1000
0010
0100
0001
,
1000
0001
0100
0010
1000
0010
0100
0001
,
0010
0100
1000
0001
0100
0010
1000
0100
,
0010
0000
0001
0000
0100
0000
0010
0000
1000
0000
0001
1000
0001
0000
0100
0010
,
0100
0000
1000
0100
1000
0000
0001
0100
0001
0000
1000
0100
1000
0000
0010
0100
,
0010
0000
0001
0010
0001
0000
1000
0000
1001
0000
0001
0000
1000
0000
0001
0000
,
0010
0001
0100
0010
1000
0100
0010
0001
,
0010
0100
1000
0010
0100
0001
1000
0001
,
0010
0001
1000
0010
0100
0001
0010
0100
,
1000
0010
0100
0001
1000
0001
0010
0001
,
0100
0010
1000
0100
1000
0010
1000
0001
,
0010
0001
1000
0010
0100
0001
0010
0100
,
1000
0010
0100
0001
1000
0001
0010
0001
,
1000
0010
0100
0001
0010
0100
1000
0001
,
0100
0010
1000
0100
1000
0010
0100
0001
,
1000
0001
0010
0001
1000
0010
0100
0001
,
0010
0100
1000
0010
0100
0001
1000
0001
,
0010
0001
0100
0010
1000
0100
1000
0001
,
0100
0010
1000
0100
0010
0001
0100
0010
,
1000
0001
1000
0010
0100
0001
0010
0001
,
1000
0001
0100
0010
1000
0100
0010
0001
,
0100
0010
1000
0100
1000
0001
1000
0010
,
0100
0001
0010
0001
1000
0001
0100
0010
,
1000
0100
0010
0001
0100
0010
1000
0100
,
1000
0001
1000
0010
0100
0001
0010
0001
,
1000
0001
0100
0010
1000
0100
0010
0001
,
0100
0010
1000
0001
0010
0001
1000
0001
,
0100
0010
1000
0100
1000
0001
1000
0010
,
0100
0001
0010
0001
1000
0001
0100
0010
,
1000
0100
0010
0001
0100
0010
1000
0100
,
1000
0001
1000
0010
0100
0001
0010
0001
,
1000
0001
0100
0010
1000
0100
0010
0001
,
0100
0010
1000
0001
0010
0001
1000
0001
,
0100
0010
1000
0100
0010
0001
0100
0010
,
1000
0001
0010
0001
1000
0001
0100
0010
,
1000
0100
0010
0001
1000
0010
1000
0100
,
1000
0001
0100
0010
1000
0100
0010
0001
,
0100
0010
1000
0100
0110
0001
0100
0001
,
1000
0010
1000
0001
0100
0010
1000
0001
,
0100
0001
0010
0100
1000
0010
1000
0001
,
0010
0100
1000
0010
0100
0001
1000
0001
,
0010
0001
0100
0010
1000
0100
1000
0010
,
0100
0001
1000
0001
0010
0001
0100
0010
,
1000
0100
0010
0001
0100
0001
1000
0010
,
1000
0100
1000
0010
0100
0001
0010
0100
,
1000
0010
0100
0001
1000
0001
0010
0001
,
1000
0010
0100
0001
0010
0100
1000
0010
,
0100
0001
1000
0001
0010
0001
1000
0010
,
0100
0001
0010
0100
1000
0010
0100
0001
,
1000
0001
0100
0010
1000
0010
0100
0001
,
0010
0100
1000
0001
0100
0010
1000
0100
,
0010
0001
0100
0010
1000
0100
1000
0010
,
0100
0001
0010
0001
1000
0010
0100
0001
,
0010
0100
1000
0010
0101
0001
1000
0001
,
0010
0001
0100
0010
1000
0100
0010
0001
,
0010
0100
1000
0010
0100
0001
1000
0001
,
0010
0001
1000
0010
0100
0001
0010
0100
,
1000
0010
0100
0001
1000
0001
0010
0001
,
0100
0010
1000
0100
1000
0010
1000
0001
,
0010
0001
1000
0010
0100
0001
0010
0100
,
1000
0010
0100
0001
1000
0001
0010
0001
,
1000
0010
0100
0001
0010
0100
1000
0001
,
0100
0010
1000
0100
1000
0010
0100
0001
,
1000
0001
0010
0001
1000
0010
0100
0001
,
0010
0100
1000
0010
0100
0001
1000
0001
,
0010
0001
0100
0010
1000
0100
1000
0001
,
0100
0010
1000
0100
0010
0001
0100
0010
,
1000
0001
1000
0010
0100
0001
0010
0001
,
1000
0001
0100
0010
2000
0000
0000
0000
,
0000
0000
3002
0000
,
0000
0000
0000
0000
,
0003
0000
0000
0000
,
0000
0000
0000
0000
,
0000
0000
0000
0000
,
0000
0000
0000
0000
,
0000
0000
0000
0000
;

//---------------dance-single - ----------------
#NOTES:
     dance-single:
     :
     Challenge:
     11:
     0.829,0.960,1.000,0.091,0.178,2201.000,870.000,49.000,5.000,2.000:
1001
0010
0110
1000
0011
0100
1001
0010
,
0110
0001
0101
0010
1100
0001
0110
1000
,
0011
0001
0110
0001
1010
0100
1001
0010
,
0110
1000
0011
1000
0110
0100
1001
0100
,
1010
0001
1100
0001
0110
0010
1001
0010
,
0101
1000
0011
0100
1001
0010
0110
1000
,
0101
0001
1010
0100
0011
1000
1100
0001
,
0011
0100
1001
0010
0110
0001
1010
0010
,
0101
0001
1010
0010
0101
0010
1100
0001
,
1010
0100
0011
0100
1010
0100
1001
0001
,
0110
1000
0011
0010
1100
0001
1010
0100
,
1001
0010
0101
1000
0011
0001
1100
0010
,
0101
0100
1010
0001
0110
1000
0011
0100
,
1001
0010
0110
0001
1001
0100
0011
0010
,
1001
1000
0110
0001
1010
0001
1100
0001
,
0110
1000
0101
0010
1001
0010
0101
1000
,
0110
0001
1010
0001
1100
0001
0110
0100
,
0011
1000
0101
0010
1001
0100
0110
1000
,
0101
0010
1100
0001
0011
1000
0110
0001
,
1010
0100
1001
0010
0110
1000
0011
0100
,
1010
0001
1100
0100
0011
1000
0110
0001
,
1010
0100
1001
0010
0110
1000
0011
0100
,
1100
0001
0110
0001
1010
0010
0101
1000
,
0011
0001
1100
0001
0110
0010
1001
0010
,
0101
1000
1001
0010
0110
0001
1010
0001
,
0110
1000
0011
0100
1001
0010
0110
0001
,
1010
0001
0110
0001
1100
0100
0011
0100
,
1001
0010
0110
0001
1010
0001
1100
0010
,
0011
1000
0101
0010
1001
0001
0110
0100
,
1010
0001
0110
1000
0011
1000
0110
0001
,
1000
0100
0010
0001
0100
0010
1000
0010
0100
0001
0010
0100
1000
0001
1000
0010
,
0100
0000
0000
0001
0000
0000
0010
0000
0000
0001
0000
0000
1000
0000
0000
0010
0000
0000
0100
0000
0000
0001
0000
0000
1000
0000
0100
0000
0010
0000
0001
0000
0100
0000
0001
0000
1000
0000
0010
0000
1000
0000
0100
0000
0010
0000
0001
0000
,
1000
0001
0110
1000
0011
0100
1001
0100
,
1010
0001
0110
1000
0101
0001
1010
0100
,
0101
0010
0011
1000
0110
0100
1001
0100
,
1010
0001
0110
1000
0101
1000
0011
1000
,
1100
0001
1010
0001
0110
1000
1001
0010
,
0101
0010
1001
0010
0110
1000
0011
0100
,
1010
0100
0101
0010
1100
0001
0011
0100
,
1001
0100
1010
0001
0110
0001
0101
1000
,
0011
1000
1100
0001
0011
0100
1001
0100
,
1010
0001
0110
1000
0101
0010
1010
0001
,
0101
1000
0011
1000
0110
0001
1001
0100
,
1010
0001
0110
1000
0101
1000
0011
1000
,
1100
0001
1010
0001
0110
1000
1001
0010
,
0101
0010
1001
0010
0110
0001
0011
1000
,
1010
0100
0101
0010
1100
0001
0011
0100
,
1001
0100
1010
0001
0110
1000
0101
0010
,
1001
0010
0110
1000
0011
0100
1001
0100
,
1010
0001
0110
1000
0101
0010
1010
0100
,
0101
1000
0011
1000
0110
0001
1001
0100
,
1010
0001
0110
0001
0101
1000
0011
1000
,
1100
0001
1010
0001
0110
1000
1001
0010
,
0101
0010
1001
0010
0110
1000
0011
0100
,
1010
0100
0101
0010
1100
0001
0011
0100
,
1001
0100
1010
0001
0110
1000
0101
0010
,
1001
0010
0110
1000
0011
0100
1001
0100
,
1010
0001
0110
1000
0101
0010
1010
0001
,
0101
1000
0011
1000
0110
0001
1001
0100
,
1010
0001
0110
1000
0101
1000
0011
1000
,
1100
0001
1010
0001
0110
1000
1001
0010
,
0101
0010
1001
0010
0110
1000
0011
1000
,
1010
0100
0101
0010
1100
0001
0011
0100
,
1001
0100
1010
0001
0110
0001
0101
1000
,
0011
1000
1100
0001
1010
0010
0101
1000
,
0110
0001
1001
0100
0011
1000
0110
0001
,
1010
0001
0110
0100
1001
0010
0101
1000
,
0011
1000
0110
0001
1100
0001
1010
0001
,
0110
1000
1001
0010
0101
0010
1001
0001
,
0110
0100
1001
0010
1100
0001
0011
1000
,
1100
0001
0110
1000
0011
0100
1001
0010
,
0110
1000
0101
0010
1010
0001
1100
0001
,
0011
0100
1001
0100
1010
0100
0110
0001
,
0101
1000
0011
1000
1100
0001
0110
0001
,
1010
0100
1001
0010
0110
0001
0101
1000
,
0011
1000
1100
0010
1001
0100
0110
0001
,
1010
0001
0101
1000
0011
0100
1001
0010
,
0110
0001
1010
0001
0110
1000
0011
0100
,
1001
0010
0110
0001
1010
0100
1001
0010
,
0110
1000
0101
0010
1100
0001
0110
1000
,
1001
1010
0000
0110
0000
1001
0000
0110
,
0000
0101
0000
0011
0000
1100
0000
0110
,
0000
1001
0000
1010
0000
0110
0000
0011
,
0000
1001
0000
0110
0000
1010
0000
1100
,
0000
0011
0000
0110
0000
1001
0000
1010
,
0000
1100
0000
0110
0000
0011
0000
1001
,
0000
0110
0000
1010
0000
1100
0000
0011
,
0000
0110
0000
1001
0000
0101
0000
1010
,
0000
1100
0000
0011
0000
1010
0000
0110
,
0000
0011
0000
1001
0000
1001
0000
0110
,
0000
1010
0000
0110
0000
0011
0000
0110
,
0000
1001
0000
1010
0000
0110
0000
0011
,
0000
2000
0000
0000
0000
0000
0000
0000
,
0000
3200
0000
0000
0000
0320
0000
0000
,
0000
0000
2032
0000
0000
0000
3000
0000
0000
0000
0000
2000
0000
0000
0000
3000
,
0000
0000
0000
0000
2000
0000
0000
0000
3000
0000
0000
0000
0000
2000
0000
0000
,
0000
3000
0000
0000
0000
0000
0023
0000
0000
0000
0000
0000
0000
0000
0000
0000
,
0000
0230
0000
0000
,
0000
0000
0000
0000
0000
2300
0000
0000
0000
0000
0000
0000
0000
0000
0000
0000
,
0000
0000
0000
3020
0000
0000
0000
0000
,
0000
0000
0032
0000
,
2003
0000
0000
0000
0000
3020
0000
0000
,
0000
0230
0000
0000
0000
0302
0000
0000
,
0000
0000
0000
2003
,
0000
3000
0020
0000
0230
0000
0302
0000
,
2003
0000
0000
0000
0000
0000
0000
0000
0000
3020
0000
0000
0000
0000
0230
0000
,
0000
0000
0000
0302
,
2003
3020
0000
0000
0000
0000
0230
0000
,
0302
2003
0000
3020
,
M00M
0230
0000
0000
0000
0000
0302
0000
0000
0000
0000
0000
0000
0000
2003
0000
,
0000
0000
3020
0000
0000
0000
0000
0230
0000
0000
0000
0000
0302
0000
0000
0000
,
0000
2003
0000
0000
,
0000
3020
0000
0000
0000
0030
0200
0000
0000
0000
0000
0000
0000
0300
0002
0000
,
0000
0000
2003
0000
0000
0000
0000
3020
0000
0000
0000
0000
0000
0000
0000
0000
,
0200
0000
0000
0000
0000
0000
0000
0000
0300
0000
0000
0000
0000
0000
0000
0000
0000
0200
0000
0000
0000
0000
0000
0000
0000
0300
0000
0000
0000
0000
0000
0000
,
0000
0000
0200
0000
0000
0000
0300
0100
1030
0000
0001
1000
0010
0000
1000
0100
,
0010
0000
0001
1000
0010
0000
0100
0001
1000
0000
0100
0010
0001
0000
0010
0100
,
1000
0000
0001
0100
0010
0000
1000
0001
0100
0000
1000
0100
0010
0000
0001
1000
,
0010
0000
0100
0001
1000
0000
0010
0100
0001
0000
1000
0010
0100
0000
0001
1000
,
0100
0000
0010
0001
1000
0000
0010
0100
0001
0000
1000
0100
0010
0000
0001
1000
,
0010
0000
0100
0001
1000
0000
0001
0010
0100
0000
1000
0001
0100
0000
0010
1000
,
0001
0000
0001
0010
0100
0000
1000
0001
0100
0000
0010
0001
1000
0000
0100
0010
,
0001
0000
1000
0010
0100
0000
0001
1000
0100
0000
0010
0001
1000
0000
0010
0100
,
0001
0000
1000
0010
0100
0000
0001
0100
0010
0000
1000
0001
0100
0000
0010
1000
,
0001
0000
0010
0100
1000
0000
0100
0010
0001
0000
0010
0100
1000
0000
0010
0100
,
0001
0000
0100
0010
1000
0000
0001
0010
0100
0000
1000
0001
0100
0000
0010
1000
,
0001
0000
1000
0100
0010
0000
0010
0001
0100
0000
0100
0010
1000
0000
0001
0010
,
0100
0000
0010
1000
0001
0000
0010
0001
1000
0000
0100
0010
0001
0000
0100
0010
,
1000
0000
0001
0100
0010
0000
1000
0001
0010
0000
0100
1000
0010
0000
0100
0001
,
0010
0000
0100
0010
1000
0000
0001
1000
0010
0000
0100
0001
1000
0000
0100
0010
,
0001
0000
0010
0100
1000
0000
0100
0010
0001
0000
1000
0100
1000
0000
0010
0100
,
0010
0000
0001
0010
0001
0000
1000
0010
0100
0000
0001
0100
0010
0000
1000
0100
,
0010
0000
0001
0100
0010
0000
1000
0100
0010
0000
0001
1000
0010
0000
0100
0001
,
1000
0000
0010
1000
0001
0000
0100
0010
1000
0000
0001
0100
0010
0000
1000
0100
,
0010
0000
0001
0100
0010
0000
1000
0001
0010
0000
0100
1000
0001
0000
0100
0010
,
1000
0000
0001
0010
0100
0000
1000
0010
0100
0000
0001
0100
0010
0000
1000
0100
,
0010
0000
0001
1000
0010
0000
1000
0001
0010
0000
0001
1000
0010
0000
0100
0001
,
1000
0000
0100
0010
0001
0000
0010
0100
1000
0000
0100
0010
0001
0000
0100
0001
,
0100
0000
0010
1000
0010
0000
0100
0010
0100
0000
0001
0100
0001
0000
1000
0100
,
1000
0000
0100
0010
1000
0000
0100
0010
0001
0000
0100
0010
1000
0000
0010
0100
,
0001
0000
0100
0010
1000
0000
0100
0010
0001
0000
0100
0010
1000
0000
0001
0010
,
0100
0000
0001
1000
0010
0000
0100
0001
1000
0100
0010
0001
1000
0010
0100
0001
,
0010
0100
1000
0100
0010
0001
1000
0010
0100
0001
0010
0100
1000
0100
0010
0001
,
1000
0010
0100
0010
1000
0001
0100
0010
0100
0001
1000
0001
0100
0010
1000
0100
,
0010
0001
0100
0010
1000
0001
0100
0001
1000
0010
1000
0100
0010
0001
0010
0100
,
1000
0000
0000
0001
0000
0000
0100
0000
0000
0001
0000
0000
1000
0000
0000
0010
0000
0000
0100
0000
0000
0001
0000
0000
1000
0000
0100
0000
0010
0000
0001
0000
1000
0000
0010
0000
0100
0000
0001
0000
0010
0000
0001
0000
1000
0000
0010
0000
,
0100
0000
0010
0000
1000
0000
0001
0000
0100
0000
0010
0000
0100
0000
0001
0000
1000
0000
0001
0000
0100
0000
0010
0000
1000
0000
0000
0000
0000
0000
0000
0000
0000
1000
0000
0000
0000
0000
0000
0000
0000
0000
1000
0000
0000
0000
0000
0000
,
0000
0001
0000
1000
1001
0010
0110
1000
,
0011
0100
1001
0010
0110
0001
0101
0010
,
1100
0001
0110
1000
0011
0001
0110
0001
,
1010
0100
1001
0010
0110
1000
0011
1000
,
0110
0100
1001
0100
1010
0001
1100
0001
,
0110
0010
1001
0010
0101
1000
0011
0100
,
1001
0010
0110
1000
0101
0001
1010
0100
,
0011
1000
1100
0001
0011
0100
1001
0010
,
0110
0001
1010
0010
0101
0001
1010
0010
,
0101
0010
1100
0001
1010
0100
0011
0100
,
1010
0100
1001
0001
0110
1000
0011
0010
,
1100
0001
1010
0100
1001
0010
0101
1000
,
0011
0001
1100
0010
0101
0100
1010
0001
,
0110
1000
0011
0100
1001
0010
0110
0001
,
1001
0100
0011
0010
1001
1000
0110
0001
,
1010
0001
1100
0001
0110
1000
0101
0010
,
1001
0010
0101
1000
0110
0001
1010
0001
,
1100
0001
0110
0100
0011
1000
0101
0010
,
1001
0100
0110
1000
0101
0010
1100
0001
,
0011
1000
0110
0001
1010
0100
1001
0010
,
0110
1000
0011
0100
1010
0001
1100
0100
,
0011
1000
0110
0001
1010
0100
1001
0010
,
0110
1000
0011
0100
1100
0001
0110
0001
,
1010
0010
0101
1000
0011
0001
1100
0001
,
0110
0010
1001
0010
0101
1000
1001
0010
,
0110
0001
1010
0001
0110
1000
0011
0100
,
1001
0010
0110
0001
1010
0001
0110
0001
,
1100
0100
0011
0100
1001
0010
0110
0001
,
1010
0001
1100
0010
0011
1000
0101
0010
,
1001
0001
0110
0100
1010
0001
0110
1000
,
0011
1000
0110
0001
1001
0010
0110
1000
,
0011
0100
1001
0010
0110
0001
0101
0010
,
1100
0001
0110
1000
0011
0001
0110
0001
,
1010
0100
1001
0010
0110
1000
0011
1000
,
0110
0100
1001
0100
1010
0001
1100
0001
,
0110
0010
1001
0010
0101
1000
0011
0100
,
1001
0010
0110
1000
0101
0001
1010
0100
,
0011
1000
1100
0001
0011
0100
1001
0010
,
0110
0001
1010
0010
0101
0001
1010
0010
,
0101
0010
1100
0001
1010
0100
0011
0100
,
1010
0100
1001
0001
0110
1000
0011
0010
,
1100
0001
1010
0100
1001
0010
0101
1000
,
0011
0001
1100
0010
0101
0100
1010
0001
,
0110
1000
0011
0100
1001
0010
0110
0001
,
1001
0100
0011
0010
1001
1000
0110
0001
,
1010
0001
1100
0001
0110
1000
0101
0010
,
1001
0010
0101
1000
0110
0001
1010
0001
,
1100
0001
0110
1000
0011
1000
0101
0010
,
1001
0010
0110
1000
0101
1001
0010
0110
,
1000
0101
0010
1100
0001
0011
1000
1010
,
0100
1001
0100
0110
0001
1010
0001
0110
,
0001
0011
1000
0110
0010
1001
1000
0101
,
0010
1001
0100
1010
0100
1001
0100
0110
,
0001
0101
1000
0110
0001
1100
0001
0110
,
0001
1001
0100
0011
1000
0101
0010
1001
,
0010
0110
0001
1010
0100
1001
0010
0110
,
0001
0011
1000
0110
0001
1001
0100
1010
,
0001
1100
0001
0011
0100
1001
0100
0110
,
0001
1010
0001
0101
0010
1001
0010
0110
,
0001
1010
0001
0110
1000
0011
1000
0110
,
0001
1001
0100
1010
0001
0101
1000
1010
,
0001
1100
0010
0011
0100
1010
0001
0110
,
1000
0101
0010
1001
0010
0110
1000
1010
,
0001
0110
0010
0101
1000
1001
0010
0110
,
0100
0000
1010
0000
0001
0000
0110
0000
M1MM
0000
1000
0100
0010
0000
0001
1000
,
0010
0000
0100
0001
1000
0000
0010
1000
0001
0000
1000
0100
0010
0000
0001
0100
,
0010
0000
1000
0001
0100
0000
0010
1000
1001
0000
0010
0000
0110
0000
1000
0000
,
0011
0100
1001
0010
0110
0001
0101
0010
,
1100
0001
0110
1000
0011
0001
0110
0001
,
1010
0100
1001
0010
0110
1000
0011
1000
,
0110
0100
1001
0100
1010
0001
1100
0001
,
0110
0010
1001
0010
0101
1000
0011
0100
,
1001
0010
0110
1000
0101
0001
1010
0100
,
0011
1000
1100
0001
0011
0100
1001
0010
,
0110
0001
1010
0010
0101
0001
1010
0010
,
0101
0010
1100
0001
1010
0100
0011
0100
,
1010
0100
1001
0001
0110
1000
0011
0010
,
1100
0001
1010
0100
1001
0010
0101
1000
,
0011
0001
1100
0010
0101
0100
1010
0001
,
0110
1000
0011
0100
1001
0010
0110
0001
,
1001
0100
0011
0010
1001
1000
0110
0001
,
1010
0001
1100
0001
0110
1000
0101
0010
,
1001
0010
0101
1000
0110
0001
1010
0001
,
1100
0001
0110
0100
0011
1000
0101
0010
,
1001
0100
0110
1000
0101
0010
1100
0001
,
0011
1000
0110
0001
1010
0100
1001
0010
,
0110
1000
0011
0100
1010
0001
1100
0100
,
0011
1000
0110
0001
1010
0100
1001
0010
,
0110
1000
0011
0100
1100
0001
0110
0001
,
1010
0001
1100
0001
0110
1000
0101
0010
,
1001
0010
0101
1000
0110
0001
1010
0001
,
1100
0001
0110
0100
0011
1000
0101
0010
,
1001
0100
0110
1000
0101
0010
1100
0001
,
0011
1000
0110
0001
1010
0100
1001
0010
,
0110
1000
0011
0100
1010
0001
1100
0100
,
0011
1000
0110
0001
1010
0100
1001
0010
,
0110
1000
0011
0100
1100
0010
1001
0010
,
1100
0001
0110
0100
1001
1010
0100
1001
,
0001
0110
1000
0101
1001
0010
0110
1000
,
0011
0100
1010
0001
1100
0100
0011
1000
,
0110
0001
1010
0100
1001
0010
0110
1000
,
0011
0100
1100
0001
0110
0001
1010
0001
,
1100
0001
0110
1000
0101
0010
1001
0010
,
0101
1000
0110
0001
1010
0001
1100
0001
,
0110
0100
0011
1000
0101
0010
1001
0100
,
0110
1000
0101
0010
1100
0001
0011
1000
,
0110
0001
1010
0100
1001
0010
0110
1000
,
0011
0100
1010
0001
1100
0100
0011
1000
,
0110
0001
1010
0100
1001
0010
0110
1000
,
0011
0100
1100
0010
1001
0010
1100
0001
,
0110
0100
1001
0010
1100
0001
0110
1000
,
0101
1000
0110
0001
1001
0100
1010
0100
,
1001
0010
0101
1000
0110
0001
1100
0001
,
0011
1000
0101
0001
1010
0100
1001
0100
,
1010
0001
0200
0000
1301
0010
1010
0100
,
0011
1000
0101
0100
1010
0001
1100
0001
,
0110
1000
1001
0100
0011
0100
1001
0001
,
0110
0010
1001
0010
0101
0100
1010
0001
,
1100
0001
0110
1000
0011
0100
1001
0010
,
0110
0001
1010
0001
1100
0010
0011
0100
,
1001
0010
0110
1000
0101
0010
1001
0100
,
0110
0001
1010
0001
0110
0010
1001
0100
,
1010
0001
1100
0001
0110
1000
0011
0100
,
1001
0001
0110
1000
0101
0010
1001
0001
,
0110
0001
1100
0010
0011
0100
1001
0010
,
0110
0001
1010
0100
1001
0010
0110
1000
,
0011
0100
1001
0010
0110
0001
1010
0100
,
1001
0010
0110
0001
1010
0001
0110
1000
,
0011
0100
1001
0001
0110
1000
0101
0010
,
1001
0100
0110
0001
2000
0000
0000
0000
,
0000
0000
3002
0000
,
0000
0000
0000
0000
,
0003
0000
0000
0000
,
0000
0000
0000
0000
,
0000
0000
0000
0000
,
0000
0000
0000
0000
,
0000
0000
0000
0000
;
