#TITLE:Blue Planet;
#SUBTITLE:(pad edit};
#ARTIST:Izayoi Sak;
#TITLETRANSLIT:;
#SUBTITLETRANSLIT:;
#ARTISTTRANSLIT:;
#CREDIT:Patashu;
#BANNER:brueplanet-bn.png;
#BACKGROUND:bruepranet-bg.png;
#LYRICSPATH:;
#CDTITLE:cdtitle.png;
#MUSIC:blue planet.ogg;
#OFFSET:0.860;
#SAMPLESTART:117.500;
#SAMPLELENGTH:14.000;
#SELECTABLE:YES;
#BPMS:0.000=147.000;
#STOPS:;
#BGCHANGES:;
// cache tags:
#FIRSTBEAT:4.000;
#LASTBEAT:368.000;
#SONGFILENAME:Songs/SSSC Pack 2/Blue Planet - [Patashu]/blue planet.sm;
#HASMUSIC:1;
#HASBANNER:1;
#MUSICLENGTH:149.420;
// end cache tags

//---------------dance-single - oh man thirty-second----------------
#NOTES:
     dance-single:
     oh man thirty-second:
     Challenge:
     16:
     1.000,1.000,0.087,0.502,1.000,1587.000,13.000,75.000,44.000,0.000:
0000
0000
0000
0000
,
10M1
0000
0000
0000
0001
1000
0001
1000
0001
0000
0000
0000
1000
0001
1000
0001
1000
0000
0000
0000
0010
1000
0010
1000
0010
0000
0000
0000
1000
0010
1000
0010
,
1000
0000
0000
0000
0001
0010
0001
0010
0001
0000
0000
0000
0010
0001
0010
0001
0010
0000
0000
0000
0100
0010
0100
0010
0100
0000
0000
0000
0100
0000
0000
0000
,
0100
0000
0000
0000
1000
0100
1000
0100
1000
0000
0000
0000
0100
1000
0100
1000
0100
0000
0000
0000
1000
0001
1000
0001
1000
0000
0000
0000
0001
1000
0001
1000
,
0001
0000
0000
0000
0010
0001
0010
0001
0010
0000
0000
0000
0001
0010
0001
0010
0001
0000
0000
0000
1000
0010
1000
0010
1000
0000
0000
0000
1000
0000
0000
0000
,
1000
0000
0000
0000
0001
0100
0001
0100
0001
0000
0000
0000
1000
0100
1000
0100
1000
0000
0000
0000
0001
1000
0001
1000
0001
0000
0000
0000
0010
0100
0010
0100
,
0010
0000
0000
0000
0001
0010
0001
0010
0001
0000
0000
0000
1000
0100
1000
0100
1000
0000
0000
0000
0001
1000
0001
1000
0001
0000
0000
0000
0001
0000
0000
0000
,
0001
0000
0000
0000
0010
0001
0010
0001
0010
0000
0000
0000
0100
0010
0100
0010
0100
0000
0000
0000
1000
0100
1000
0100
1000
0000
0000
0000
0001
0100
0001
0100
,
0001
0010
0000
0010
0100
0000
0100
1000
0000
1000
0001
0100
0010
0000
0010
1000
,
001M
0000
0100
0000
0001
0100
0001
0100
0001
0000
1000
0000
0001
1000
0001
1000
0001
0000
1000
0000
0010
1000
0010
1000
0010
0000
0100
0000
0010
0100
0010
0100
,
0010
0000
1000
0000
0100
1000
0100
1000
0100
0000
0010
0000
0100
0010
0100
0010
0100
0000
0010
0000
0001
0010
0001
0010
0001
0000
0000
0000
0001
0000
0000
0000
,
0001
0000
0100
0000
0001
0100
0001
0100
0001
0000
0100
0000
0010
0100
0010
0100
0010
0000
1000
0000
0001
1000
0001
1000
0001
0000
0100
0000
0001
0100
0001
0100
,
0001
0000
1000
0000
0001
1000
0001
1000
0001
0000
0010
0000
0001
0010
0001
0010
0001
0000
1000
0000
0010
1000
0010
1000
0010
0000
0000
0000
0010
0000
0000
0000
,
0010
0000
0100
0000
0001
0100
0001
0100
0001
0000
1000
0000
0100
1000
0100
1000
0100
0000
0010
0000
0001
0010
0001
0010
0001
0000
0010
0000
0100
0010
0100
0010
,
0100
0000
1000
0000
0001
1000
0001
1000
0001
0000
0100
0000
0010
0100
0010
0100
0010
0000
1000
0000
0100
1000
0100
1000
0100
0000
0000
0000
0100
0000
0000
0000
,
0100
0000
0010
0000
0100
0010
0100
0010
0100
0000
0010
0000
0001
0010
0001
0010
0001
0000
0100
0000
0010
0100
0010
0100
0010
0000
1000
0000
0001
1000
0001
1000
,
0001
0010
0000
0010
0100
0000
0100
1000
0000
1000
0001
0100
0010
0000
0010
1000
,
0M10
0000
1000
0000
0001
0100
0001
0100
0001
0000
1000
0000
0010
0100
0010
0100
0010
0000
1000
0000
0100
1000
0100
1000
0100
0000
0010
0000
0001
1000
0001
1000
,
0001
0000
0100
0000
0001
1000
0001
1000
0001
0000
0010
0000
0100
1000
0100
1000
0100
0000
0010
0000
0001
1000
0001
1000
0001
0000
0000
0000
0001
0000
0000
0000
,
00M1
0000
1000
0000
0100
1000
0100
1000
0100
0000
0010
0000
0001
0010
0001
0010
0001
0000
0100
0000
0010
1000
0010
1000
0010
0000
0100
0000
0001
1000
0001
1000
,
0001
0000
0100
0000
0010
0100
0010
0100
0010
0000
1000
0000
0001
0010
0001
0010
0001
0000
1000
0000
0001
1000
0001
1000
0001
0000
0000
0000
0001
0000
0000
0000
,
0M01
0000
0010
0000
0001
0010
0001
0010
0001
0000
0010
0000
0100
1000
0100
1000
0100
0000
0010
0000
0100
0010
0100
0010
0100
0000
0010
0000
0001
1000
0001
1000
,
0M01
0000
0010
0000
0001
1000
0001
1000
0001
0000
0100
0000
0010
1000
0010
1000
0010
0000
0100
0000
0010
1000
0010
1000
0010
0000
0000
0000
0010
0000
0000
0000
,
0M10
0000
1000
0000
0001
1000
0001
0100
0001
0000
1000
0000
0010
0100
0010
1000
001M
0000
1000
0000
0100
0010
0100
1000
0100
0000
0010
0000
0001
0010
0001
1000
,
0M01
0010
0000
0010
010M
0000
0100
1000
00M0
1000
0001
0100
M010
0000
0010
1000
,
2002
0000
0003
0002
0000
0003
0002
0003
0002
0000
3003
0010
0010
0000
0010
0000
,
M001
0010
0200
0310
0001
0010
0200
0310
0001
0010
0200
0310
0001
0010
0200
0310
,
0001
0000
1000
0000
0020
0000
1030
0000
0001
0000
1000
0000
0020
0000
1030
0000
0001
0000
1000
0000
0100
1000
0100
1000
0100
0000
1000
0000
0001
1000
0001
1000
,
0001
0100
0020
0130
0001
0100
0020
0130
0001
0100
0020
0130
0001
0100
0020
0130
,
0001
0000
0010
0000
0200
0000
0310
0000
0001
0000
0010
0000
0200
0000
0310
0000
0001
0000
0100
0000
0010
1000
0010
1000
0010
0000
0100
0000
0001
0010
0001
0010
,
0M01
1000
0200
1300
0001
1000
0200
1300
0001
1000
0200
1300
0001
1000
0200
1300
,
0010
0000
0100
0000
0002
0000
0103
0000
0010
0000
0100
0000
0002
0000
0103
0000
0010
0000
1000
0000
0100
0010
0100
0010
0100
0000
0010
0000
0001
0010
0001
0010
,
0001
1000
0020
1030
0001
1000
0020
1030
0001
1000
0020
1030
0001
1000
0020
1030
,
0001
0010
0000
0010
0100
0000
0100
1000
0000
1000
0001
0000
0100
0000
0100
0000
,
01M0
0001
2000
3001
0100
0001
2000
3001
0100
0001
2000
3001
0100
0001
2000
3001
,
0010
0000
0100
0000
2000
0000
3100
0000
0010
0000
0100
0000
2000
0000
3100
0000
0010
0000
0001
0000
1000
0010
1000
0010
1000
0000
0001
0000
0100
0001
0100
0001
,
0100
0010
2000
3010
0100
0010
2000
3010
0100
0010
2000
3010
0100
0010
2000
3010
,
0100
0000
0001
0000
0020
0000
0031
0000
0100
0000
0001
0000
0020
0000
0031
0000
0100
0000
0010
0000
1000
0001
1000
0001
1000
0000
0100
0000
0010
0001
0010
0001
,
M010
0100
2000
3100
0010
0100
2000
3100
0010
0100
2000
3100
0010
0100
2000
3100
,
0010
0000
0001
0000
2000
0000
3001
0000
0010
0000
0001
0000
2000
0000
3001
0000
0010
0000
0100
0000
0010
0001
0010
0001
0010
0000
0100
0000
1000
0100
1000
0100
,
1000
0001
0020
0031
1000
0001
0020
0031
1000
0001
0020
0031
1000
0001
0020
0031
,
1000
0100
0000
0100
0010
0000
0010
0001
0000
0001
1000
0000
0010
0000
0010
0000
,
M010
0100
0010
0100
0010
0100
0010
0100
0010
0100
0010
0100
0010
0100
0010
0100
,
0001
0000
0100
0000
0001
0000
0100
0000
0001
0000
0100
0000
0001
0000
0100
0000
0001
0000
1000
0000
0001
1000
0001
1000
0001
0000
1000
0000
0001
1000
0001
1000
,
0001
0010
0001
0010
0001
0010
0001
0010
0001
0010
0001
0010
0001
0010
0001
0010
,
0100
0000
0010
0000
0100
0000
0010
0000
0100
0000
0010
0000
0100
0000
0010
0000
0100
0000
1000
0000
0100
1000
0100
1000
0100
0000
1000
0000
0100
1000
0100
1000
,
010M
0010
0100
0010
0100
0010
0100
0010
0100
0010
0100
0010
0100
0010
0100
0010
,
0001
0000
0100
0000
0001
0000
0100
0000
0001
0000
0100
0000
0001
0000
0100
0000
0010
0000
1000
0000
0010
1000
0010
1000
0010
0000
1000
0000
0010
1000
0010
1000
,
0010
0100
0010
0100
0010
0100
0010
0100
0010
0100
0010
0100
0010
0100
0010
0100
,
0001
0010
0000
0010
0100
0000
0100
1000
0000
1000
0001
0000
1000
0000
1000
0000
,
10M0
0100
1000
0100
1000
0100
1000
0100
1000
0100
1000
0100
1000
0100
1000
0100
,
0010
0000
0100
0000
0010
0000
0100
0000
0010
0000
0100
0000
0010
0000
0100
0000
0010
0000
0001
0000
0010
0001
0010
0001
0010
0000
0001
0000
0010
0001
0010
0001
,
0010
0100
0010
0100
0010
0100
0010
0100
0010
0100
0010
0100
0010
0100
0010
0100
,
1000
0000
0010
0000
1000
0000
0010
0000
1000
0000
0010
0000
1000
0000
0010
0000
0100
0000
0001
0000
0100
0001
0100
0001
0100
0000
0001
0000
0100
0001
0100
0001
,
M100
0010
0100
0010
0100
0010
0100
0010
0100
0010
0100
0010
0100
0010
0100
0010
,
1000
0000
0001
0000
1000
0000
0001
0000
1000
0000
0001
0000
1000
0000
0001
0000
1000
0000
0010
0000
1000
0010
1000
0010
1000
0000
0010
0000
1000
0010
1000
0010
,
1000
0001
1000
0001
1000
0001
1000
0001
1000
0001
1000
0001
1000
0001
1000
0001
,
1000
0100
0000
0100
0010
0000
0010
0001
0000
0001
1000
0000
0010
0000
0010
0000
,
1M02
0000
0003
0200
0000
0300
0020
0000
,
1030
0200
0000
0300
0020
0030
0002
1003
,
1M20
0000
0000
0000
0030
0000
0200
0000
0000
0000
0300
0000
0002
1000
0000
0000
,
1003
0000
0000
0000
0000
0000
0000
0000
0200
0000
0000
0000
0000
0000
0000
0000
0000
0000
0000
0000
0000
0000
0000
0000
0300
0000
0000
0000
0000
0000
0000
0000
0020
0000
0000
0000
0000
0000
0000
0000
0030
0000
0000
0000
0000
0000
0000
0000
0002
0000
0000
0000
0000
0000
0000
0000
0023
0000
0000
0000
0000
0000
0000
0030
,
120M
0000
0300
2000
0010
3000
0002
0100
,
01M3
0000
2000
0000
0000
0100
3000
0000
0120
0000
0030
0000
0002
0000
1003
0000
,
102M
0000
1030
0200
100M
0300
1002
0000
,
1M03
0000
0000
0000
1020
0000
0000
0000
1M00
0000
0000
0000
1030
0000
0000
0000
00M1
1000
0001
0000
0100
0000
0010
0000
1M00
0001
1000
0000
010M
0000
0010
0000
,
M001
0000
0010
0000
0001
0010
0001
0010
0001
0000
0010
0000
0100
0010
0100
0010
0100
0000
1000
0000
0100
1000
0100
1000
0100
0000
1000
0000
0001
1000
0001
1000
,
0001
0000
0100
0000
0001
0100
0001
0100
0001
0000
1000
0000
0100
1000
0100
1000
0100
0000
0010
0000
0001
0010
0001
0010
0001
0000
0000
0000
0001
0000
0000
0000
,
0001
0000
0100
0000
0001
0100
0001
0100
0001
0000
1000
0000
0100
1000
0100
1000
0100
0000
1000
0000
0001
1000
0001
1000
0001
0000
0010
0000
0001
0010
0001
0010
,
0001
0000
1000
0000
0010
1000
0010
1000
0010
0000
0100
0000
0010
0100
0010
0100
0010
0000
0100
0000
0001
0100
0001
0100
0001
0000
0000
0000
0001
0000
0000
0000
,
0001
0000
1000
0000
0100
1000
0100
1000
0100
0000
0010
0000
0001
0010
0001
0010
0001
0000
0010
0000
0100
0010
0100
0010
0100
0000
1000
0000
0001
1000
0001
1000
,
0001
0000
0100
0000
0010
0100
0010
0100
0010
0000
0100
0000
0001
0100
0001
0100
0001
0000
1000
0000
0100
1000
0100
1000
0100
0000
0000
0000
0100
0000
0000
0000
,
0100
0000
1000
0000
0100
1000
0100
1000
0100
0000
0010
0000
0001
0010
0001
0010
0001
0000
1000
0000
0001
1000
0001
1000
0001
0000
1000
0000
0001
0100
0001
0100
,
0001
0010
0000
0010
0100
0000
0100
1000
0000
1000
0001
0100
0010
0000
0010
1000
,
0020
0000
0000
0000
0030
0000
0000
0000
100M
0000
0100
0000
0010
0001
0010
0001
0010
0000
0100
0000
1000
0001
1000
0001
1000
0000
0010
0000
0100
0001
0100
0001
,
0100
0000
0010
0000
1000
0100
1000
0100
1000
0000
0001
0000
0010
0100
0010
0100
0010
0000
0001
0000
1000
0001
1000
0001
1000
0000
0000
0000
1000
0000
0000
0000
,
1000
0000
0100
0000
0010
0001
0010
0001
0010
0000
0100
0000
1000
0001
1000
0001
1000
0000
0010
0000
0100
0001
0100
0001
0100
0000
0010
0000
1000
0010
1000
0010
,
1000
0000
0100
0000
1000
0100
1000
0100
1000
0000
0001
0000
0010
0001
0010
0001
0010
0000
0100
0000
0010
0001
0010
0001
0010
0000
0000
0000
0010
0000
0000
0000
,
0010
0000
0100
0000
1000
0100
1000
0100
1000
0000
0001
0000
0100
0010
0100
0010
0100
0000
0001
0000
1000
0010
1000
0010
1000
0000
0010
0000
0100
0001
0100
0001
,
0100
0000
0010
0000
1000
0010
1000
0010
1000
0000
0001
0000
0010
0001
0010
0001
0010
0000
0100
0000
0010
0100
0010
0100
0010
0000
0000
0000
0010
0000
0000
0000
,
0010
0000
0100
0000
1000
0001
1000
0001
1000
0000
0010
0000
0100
0001
0100
0001
0100
0000
0001
0000
1000
0100
1000
0100
1000
0000
0010
0000
1000
0001
1000
0001
,
1000
0100
0000
0100
0010
0000
0010
0001
0000
0001
1000
0010
0100
0000
0100
0001
,
M100
0000
0010
0000
0100
0010
0100
0010
0100
0000
0001
0000
1000
0010
1000
0010
1000
0000
0001
0000
0010
0001
0010
0001
0010
0000
0100
0000
1000
0100
1000
0100
,
1000
0000
0001
0000
0100
0010
0100
0010
0100
0000
0001
0000
1000
0010
1000
0010
1000
0000
0100
0000
0010
0100
0010
0100
0010
0000
0000
0000
0010
0000
0000
0000
,
M010
0000
0100
0000
0010
0001
0010
0001
0010
0000
0100
0000
0010
0100
0010
0100
0010
0000
0100
0000
1000
0001
1000
0001
1000
0000
0100
0000
1000
0010
1000
0010
,
1000
0000
0001
0000
0100
0010
0100
0010
0100
0000
0001
0000
0010
0100
0010
0100
0010
0000
0001
0000
1000
0010
1000
0010
1000
0000
0000
0000
1000
0000
0000
0000
,
100M
0000
0100
0000
1000
0100
1000
0100
1000
0000
0100
0000
0010
0100
0010
0100
0010
0000
0001
0000
0010
0001
0010
0001
0010
0000
0001
0000
1000
0001
1000
0001
,
10M0
0000
0010
0000
1000
0010
1000
0010
1000
0000
0010
0000
0100
0010
0100
0010
0100
0000
0001
0000
0100
0001
0100
0001
0100
0000
0000
0000
0100
0000
0000
0000
,
01M0
0000
0001
0000
0100
0001
0100
0010
0100
0000
0001
0000
1000
0100
1000
0001
10M0
0000
0100
0000
0010
0001
0010
0100
0010
0000
0001
0000
0010
0100
1000
0100
,
001M
0001
0000
0001
01M0
0000
0100
0010
M000
0010
0100
0001
10M0
0000
1000
0001
,
1M02
1000
1000
1000
1000
1000
1000
1003
,
1001
0000
0000
0000
0001
0000
1001
0000
0000
0000
0001
0000
1001
0000
0000
0000
1000
0002
1000
0000
1000
0000
1000
0000
1000
0000
0000
0000
0000
0000
0000
0000
,
0003
0000
0000
0000
;

//---------------dance-single - twenty-fourth trills----------------
#NOTES:
     dance-single:
     twenty-fourth trills:
     Hard:
     14:
     1.000,1.000,0.080,0.502,1.000,1414.000,12.000,75.000,44.000,0.000:
0000
0000
0000
0000
,
10M0
0000
0000
0001
1000
0001
1000
0000
0000
0001
1000
0001
1000
0000
0000
0010
1000
0010
1000
0000
0000
0010
1000
0010
,
1000
0000
0000
0010
0100
0010
0100
0000
0000
0010
0100
0010
0100
0000
0000
0001
0100
0001
0100
0000
0000
0100
0000
0000
,
0100
0000
0000
0001
0010
0001
0010
0000
0000
0001
0010
0001
0010
0000
0000
0100
1000
0100
1000
0000
0000
0100
1000
0100
,
1000
0000
0000
0100
0010
0100
0010
0000
0000
0100
0010
0100
0010
0000
0000
0001
1000
0001
1000
0000
0000
1000
0000
0000
,
1000
0000
0000
0100
1000
0100
1000
0000
0000
0100
0010
0100
0010
0000
0000
0001
0010
0001
0010
0000
0000
0001
1000
0001
,
1000
0000
0000
0010
1000
0010
1000
0000
0000
0001
0100
0001
0100
0000
0000
0010
0100
0010
0100
0000
0000
0100
0000
0000
,
0100
0000
0000
0001
0010
0001
0010
0000
0000
0001
1000
0001
1000
0000
0000
0100
1000
0100
1000
0000
0000
0001
1000
0001
,
1000
0100
0000
0100
0010
0000
0010
0001
0000
0001
1000
0010
0100
0000
0100
0001
,
M100
0000
0000
0010
0000
0000
0100
0000
0010
0000
0100
0000
0010
0000
0000
1000
0000
0000
0010
0000
1000
0000
0010
0000
1000
0000
0000
0001
0000
0000
1000
0000
0001
0000
1000
0000
0001
0000
0000
1000
0000
0000
0010
0000
1000
0000
0010
0000
,
1000
0000
0000
0100
0000
0000
1000
0000
0100
0000
1000
0000
0100
0000
0000
0010
0000
0000
0100
0000
0010
0000
0100
0000
0010
0000
0000
0001
0000
0000
0100
0000
0001
0000
0100
0000
0001
0000
0000
0000
0000
0000
0001
0000
0000
0000
0000
0000
,
0001
0000
0000
1000
0000
0000
0100
0000
1000
0000
0100
0000
1000
0000
0000
0001
0000
0000
0100
0000
0001
0000
0100
0000
0001
0000
0000
1000
0000
0000
0010
0000
1000
0000
0010
0000
1000
0000
0000
0001
0000
0000
0010
0000
0001
0000
0010
0000
,
0001
0000
0000
0100
0000
0000
0010
0000
0100
0000
0010
0000
0100
0000
0000
0010
0000
0000
1000
0000
0010
0000
1000
0000
0010
0000
0000
1000
0000
0000
0001
0000
1000
0000
0001
0000
1000
0000
0000
0000
0000
0000
1000
0000
0000
0000
0000
0000
,
1000
0000
0000
0100
0000
0000
0010
0000
0100
0000
0010
0000
0100
0000
0000
0010
0000
0000
0001
0000
0010
0000
0001
0000
0010
0000
0000
0001
0000
0000
0100
0000
0001
0000
0100
0000
0001
0000
0000
1000
0000
0000
0010
0000
1000
0000
0010
0000
,
1000
0000
0000
0001
0000
0000
0100
0000
0001
0000
0100
0000
0001
0000
0000
0010
0000
0000
0001
0000
0010
0000
0001
0000
0010
0000
0000
0100
0000
0000
1000
0000
0100
0000
1000
0000
0100
0000
0000
0000
0000
0000
0100
0000
0000
0000
0000
0000
,
0100
0000
0000
0010
0000
0000
0001
0000
0010
0000
0001
0000
0010
0000
0000
0100
0000
0000
0010
0000
0100
0000
0010
0000
0100
0000
0000
1000
0000
0000
0001
0000
1000
0000
0001
0000
1000
0000
0000
0001
0000
0000
1000
0000
0001
0000
1000
0000
,
0001
0010
0000
0010
0100
0000
0100
1000
0000
1000
0001
0100
0010
0000
0010
0100
,
M010
0000
0000
0100
0000
0000
0001
0000
1000
0000
0001
0000
1000
0000
0000
0010
0000
0000
1000
0000
0001
0000
1000
0000
0001
0000
0000
0010
0000
0000
0100
0000
1000
0000
0100
0000
1000
0000
0000
0010
0000
0000
0100
0000
0001
0000
0100
0000
,
0001
0000
0000
0010
0000
0000
0100
0000
1000
0000
0100
0000
1000
0000
0000
0010
0000
0000
0100
0000
0001
0000
0100
0000
0001
0000
0000
1000
0000
0000
0001
0000
0100
0000
0001
0000
0100
0000
0000
0000
0000
0000
0100
0000
0000
0000
0000
0000
,
01M0
0000
0000
0001
0000
0000
0010
0000
0100
0000
0010
0000
0100
0000
0000
1000
0000
0000
0100
0000
0010
0000
0100
0000
0010
0000
0000
0001
0000
0000
1000
0000
0010
0000
1000
0000
0010
0000
0000
1000
0000
0000
0001
0000
0010
0000
0001
0000
,
0010
0000
0000
0100
0000
0000
1000
0000
0010
0000
1000
0000
0010
0000
0000
0100
0000
0000
0001
0000
0010
0000
0001
0000
0010
0000
0000
0100
0000
0000
1000
0000
0010
0000
1000
0000
0010
0000
0000
0000
0000
0000
0010
0000
0000
0000
0000
0000
,
M010
0000
0000
0100
0000
0000
0001
0000
0010
0000
0001
0000
0010
0000
0000
0100
0000
0000
1000
0000
0001
0000
1000
0000
0001
0000
0000
0100
0000
0000
0001
0000
1000
0000
0001
0000
1000
0000
0000
0010
0000
0000
0100
0000
0001
0000
0100
0000
,
M001
0000
0000
0010
0000
0000
0100
0000
1000
0000
0100
0000
1000
0000
0000
0100
0000
0000
0010
0000
0001
0000
0010
0000
0001
0000
0000
1000
0000
0000
0010
0000
0100
0000
0010
0000
0100
0000
0000
0000
0000
0000
0100
0000
0000
0000
0000
0000
,
M100
0000
0000
0001
0000
0000
0100
0000
0010
0000
0100
0000
0001
0000
0000
1000
0000
0000
0100
0000
1000
0000
0001
0000
10M0
0000
0000
0100
0000
0000
0010
0000
0001
0000
0010
0000
0100
0000
0000
1000
0000
0000
0100
0000
0010
0000
0001
0000
,
10M0
0100
0000
0100
M010
0000
0010
0001
0M00
0001
1000
0100
001M
0000
0010
0001
,
2002
0000
0003
0002
0000
0003
0002
0003
0002
0000
3003
0010
0010
0000
0010
0000
,
M001
0010
0200
0310
0001
0010
0200
0310
0001
0010
0200
0310
0001
0010
0200
0310
,
0001
0000
0000
1000
0000
0000
0020
0000
0000
1030
0000
0000
0001
0000
0000
1000
0000
0000
0020
0000
0000
1030
0000
0000
0001
0000
0000
1000
0000
0000
0100
0000
1000
0000
0100
0000
1000
0000
0000
0001
0000
0000
1000
0000
0001
0000
1000
0000
,
0001
0100
0020
0130
0001
0100
0020
0130
0001
0100
0020
0130
0001
0100
0020
0130
,
0001
0000
0000
0010
0000
0000
0200
0000
0000
0310
0000
0000
0001
0000
0000
0010
0000
0000
0200
0000
0000
0310
0000
0000
0001
0000
0000
0100
0000
0000
0010
0000
1000
0000
0010
0000
1000
0000
0000
0100
0000
0000
0010
0000
0001
0000
0010
0000
,
0M01
1000
0200
1300
0001
1000
0200
1300
0001
1000
0200
1300
0001
1000
0200
1300
,
0010
0000
0000
0100
0000
0000
0002
0000
0000
0103
0000
0000
0010
0000
0000
0100
0000
0000
0002
0000
0000
0103
0000
0000
0010
0000
0000
1000
0000
0000
0100
0000
0010
0000
0100
0000
0010
0000
0000
0100
0000
0000
0010
0000
0001
0000
0010
0000
,
0001
1000
0020
1030
0001
1000
0020
1030
0001
1000
0020
1030
0001
1000
0020
1030
,
0001
0010
0000
0010
0100
0000
0100
1000
0000
1000
0001
0000
0100
0000
0100
0000
,
01M0
0001
2000
3001
0100
0001
2000
3001
0100
0001
2000
3001
0100
0001
2000
3001
,
0010
0000
0000
0100
0000
0000
2000
0000
0000
3100
0000
0000
0010
0000
0000
0100
0000
0000
2000
0000
0000
3100
0000
0000
0010
0000
0000
0001
0000
0000
1000
0000
0010
0000
1000
0000
0010
0000
0000
1000
0000
0000
0001
0000
0100
0000
0001
0000
,
0100
0010
2000
3010
0100
0010
2000
3010
0100
0010
2000
3010
0100
0010
2000
3010
,
0100
0000
0000
0001
0000
0000
0020
0000
0000
0031
0000
0000
0100
0000
0000
0001
0000
0000
0020
0000
0000
0031
0000
0000
0100
0000
0000
0010
0000
0000
1000
0000
0001
0000
1000
0000
0001
0000
0000
0100
0000
0000
0001
0000
0010
0000
0001
0000
,
M010
0100
2000
3100
0010
0100
2000
3100
0010
0100
2000
3100
0010
0100
2000
3100
,
0010
0000
0000
0001
0000
0000
2000
0000
0000
3001
0000
0000
0010
0000
0000
0001
0000
0000
2000
0000
0000
3001
0000
0000
0010
0000
0000
0100
0000
0000
0010
0000
0001
0000
0010
0000
0001
0000
0000
0010
0000
0000
0100
0000
1000
0000
0100
0000
,
1000
0001
0020
0031
1000
0001
0020
0031
1000
0001
0020
0031
1000
0001
0020
0031
,
1000
0100
0000
0100
0010
0000
0010
0001
0000
0001
1000
0000
0010
0000
0010
0000
,
M010
0100
0010
0100
0010
0100
0010
0100
0010
0100
0010
0100
0010
0100
0010
0100
,
0001
0000
0000
0100
0000
0000
0001
0000
0000
0100
0000
0000
0001
0000
0000
0100
0000
0000
0001
0000
0000
0100
0000
0000
0001
0000
0000
1000
0000
0000
0001
0000
1000
0000
0001
0000
1000
0000
0000
0001
0000
0000
1000
0000
0001
0000
1000
0000
,
0001
0010
0001
0010
0001
0010
0001
0010
0001
0010
0001
0010
0001
0010
0001
0010
,
0100
0000
0000
0010
0000
0000
0100
0000
0000
0010
0000
0000
0100
0000
0000
0010
0000
0000
0100
0000
0000
0010
0000
0000
0100
0000
0000
1000
0000
0000
0100
0000
1000
0000
0100
0000
1000
0000
0000
0100
0000
0000
1000
0000
0100
0000
1000
0000
,
010M
0010
0100
0010
0100
0010
0100
0010
0100
0010
0100
0010
0100
0010
0100
0010
,
0001
0000
0000
0100
0000
0000
0001
0000
0000
0100
0000
0000
0001
0000
0000
0100
0000
0000
0001
0000
0000
0100
0000
0000
0010
0000
0000
1000
0000
0000
0010
0000
1000
0000
0010
0000
1000
0000
0000
0010
0000
0000
1000
0000
0010
0000
1000
0000
,
0010
0100
0010
0100
0010
0100
0010
0100
0010
0100
0010
0100
0010
0100
0010
0100
,
0001
0010
0000
0010
0100
0000
0100
1000
0000
1000
0001
0000
1000
0000
1000
0000
,
10M0
0100
1000
0100
1000
0100
1000
0100
1000
0100
1000
0100
1000
0100
1000
0100
,
0010
0000
0000
0100
0000
0000
0010
0000
0000
0100
0000
0000
0010
0000
0000
0100
0000
0000
0010
0000
0000
0100
0000
0000
0010
0000
0000
0001
0000
0000
0010
0000
0001
0000
0010
0000
0001
0000
0000
0010
0000
0000
0001
0000
0010
0000
0001
0000
,
0010
0100
0010
0100
0010
0100
0010
0100
0010
0100
0010
0100
0010
0100
0010
0100
,
1000
0000
0000
0010
0000
0000
1000
0000
0000
0010
0000
0000
1000
0000
0000
0010
0000
0000
1000
0000
0000
0010
0000
0000
0100
0000
0000
0001
0000
0000
0100
0000
0001
0000
0100
0000
0001
0000
0000
0100
0000
0000
0001
0000
0100
0000
0001
0000
,
M100
0010
0100
0010
0100
0010
0100
0010
0100
0010
0100
0010
0100
0010
0100
0010
,
1000
0000
0000
0001
0000
0000
1000
0000
0000
0001
0000
0000
1000
0000
0000
0001
0000
0000
1000
0000
0000
0001
0000
0000
1000
0000
0000
0010
0000
0000
1000
0000
0010
0000
1000
0000
0010
0000
0000
1000
0000
0000
0010
0000
1000
0000
0010
0000
,
1000
0001
1000
0001
1000
0001
1000
0001
1000
0001
1000
0001
1000
0001
1000
0001
,
1000
0100
0000
0100
0010
0000
0010
0001
0000
0001
1000
0000
0010
0000
0010
0000
,
1M02
0000
0003
0200
0000
0300
0020
0000
,
1030
0200
0000
0300
0020
0030
0002
1003
,
1M20
0000
0000
0000
0030
0000
0200
0000
0000
0000
0300
0000
0002
1000
0000
0000
,
1003
0000
0000
0000
0000
0000
0000
0000
0200
0000
0000
0000
0000
0000
0000
0000
0000
0000
0000
0000
0000
0000
0000
0000
0300
0000
0000
0000
0000
0000
0000
0000
0020
0000
0000
0000
0000
0000
0000
0000
0030
0000
0000
0000
0000
0000
0000
0000
0002
0000
0000
0000
0000
0000
0000
0000
0023
0000
0000
0000
0000
0000
0000
0030
,
120M
0000
0300
2000
0010
3000
0002
0100
,
01M3
0000
2000
0000
0000
0100
3000
0000
0120
0000
0030
0000
0002
0000
1003
0000
,
102M
0000
1030
0200
100M
0300
1002
0000
,
1M03
0000
0000
0000
1020
0000
0000
0000
1M00
0000
0000
0000
1030
0000
0000
0000
00M1
1000
0001
0000
1000
0000
0001
0000
1M00
0001
1000
0000
00M1
0000
1000
0000
,
0M01
0000
0000
0010
0000
0000
0001
0000
0010
0000
0001
0000
0010
0000
0000
0100
0000
0000
0010
0000
0100
0000
0010
0000
0100
0000
0000
1000
0000
0000
0100
0000
1000
0000
0100
0000
1000
0000
0000
0010
0000
0000
1000
0000
0010
0000
1000
0000
,
0010
0000
0000
0100
0000
0000
0001
0000
0100
0000
0001
0000
0100
0000
0000
0001
0000
0000
0010
0000
0001
0000
0010
0000
0001
0000
0000
1000
0000
0000
0100
0000
1000
0000
0100
0000
1000
0000
0000
0000
0000
0000
1000
0000
0000
0000
0000
0000
,
1000
0000
0000
0010
0000
0000
1000
0000
0010
0000
1000
0000
0010
0000
0000
1000
0000
0000
0001
0000
1000
0000
0001
0000
1000
0000
0000
0010
0000
0000
0100
0000
0010
0000
0100
0000
0010
0000
0000
1000
0000
0000
0001
0000
1000
0000
0001
0000
,
1000
0000
0000
0100
0000
0000
0010
0000
0100
0000
0010
0000
0100
0000
0000
1000
0000
0000
0010
0000
1000
0000
0010
0000
1000
0000
0000
0001
0000
0000
0010
0000
0001
0000
0010
0000
0001
0000
0000
0000
0000
0000
0001
0000
0000
0000
0000
0000
,
0001
0000
0000
0100
0000
0000
0010
0000
0100
0000
0010
0000
0100
0000
0000
0001
0000
0000
0100
0000
0001
0000
0100
0000
0001
0000
0000
1000
0000
0000
0010
0000
1000
0000
0010
0000
1000
0000
0000
0100
0000
0000
1000
0000
0100
0000
1000
0000
,
0100
0000
0000
0010
0000
0000
0100
0000
0010
0000
0100
0000
0010
0000
0000
0001
0000
0000
0100
0000
0001
0000
0100
0000
0001
0000
0000
1000
0000
0000
0010
0000
1000
0000
0010
0000
1000
0000
0000
0000
0000
0000
1000
0000
0000
0000
0000
0000
,
1000
0000
0000
0001
0000
0000
0100
0000
0001
0000
0100
0000
0001
0000
0000
1000
0000
0000
0010
0000
1000
0000
0010
0000
1000
0000
0000
0001
0000
0000
0010
0000
0001
0000
0010
0000
0001
0000
0000
1000
0000
0000
0010
0000
1000
0000
0010
0000
,
1000
0100
0000
0100
0010
0000
0010
0001
0000
0001
0100
0010
1000
0000
1000
0100
,
2000
0000
0000
0000
0000
0000
3000
0000
0000
0000
0000
0000
M001
0000
0000
0100
0000
0000
0010
0000
1000
0000
0010
0000
1000
0000
0000
0100
0000
0000
0010
0000
0001
0000
0010
0000
0001
0000
0000
1000
0000
0000
0100
0000
0010
0000
0100
0000
,
0010
0000
0000
0001
0000
0000
0010
0000
0100
0000
0010
0000
0100
0000
0000
1000
0000
0000
0001
0000
0100
0000
0001
0000
0100
0000
0000
0010
0000
0000
1000
0000
0100
0000
1000
0000
0100
0000
0000
0000
0000
0000
0100
0000
0000
0000
0000
0000
,
0100
0000
0000
0010
0000
0000
0001
0000
1000
0000
0001
0000
1000
0000
0000
0100
0000
0000
1000
0000
0001
0000
1000
0000
0001
0000
0000
0010
0000
0000
0100
0000
1000
0000
0100
0000
1000
0000
0000
0001
0000
0000
0100
0000
0010
0000
0100
0000
,
0010
0000
0000
1000
0000
0000
0001
0000
0100
0000
0001
0000
0100
0000
0000
0010
0000
0000
1000
0000
0001
0000
1000
0000
0001
0000
0000
0100
0000
0000
0010
0000
1000
0000
0010
0000
1000
0000
0000
0000
0000
0000
1000
0000
0000
0000
0000
0000
,
1000
0000
0000
0100
0000
0000
0010
0000
0001
0000
0010
0000
0001
0000
0000
0100
0000
0000
0010
0000
1000
0000
0010
0000
1000
0000
0000
0001
0000
0000
1000
0000
0001
0000
1000
0000
0001
0000
0000
0100
0000
0000
0010
0000
1000
0000
0010
0000
,
1000
0000
0000
0100
0000
0000
1000
0000
0100
0000
1000
0000
0100
0000
0000
0010
0000
0000
0001
0000
0010
0000
0001
0000
0010
0000
0000
0001
0000
0000
0100
0000
0010
0000
0100
0000
0010
0000
0000
0000
0000
0000
0010
0000
0000
0000
0000
0000
,
0010
0000
0000
1000
0000
0000
0100
0000
1000
0000
0100
0000
1000
0000
0000
0010
0000
0000
0100
0000
0010
0000
0100
0000
0010
0000
0000
1000
0000
0000
0010
0000
0100
0000
0010
0000
0100
0000
0000
0001
0000
0000
1000
0000
0001
0000
1000
0000
,
0001
0010
0000
0010
0100
0000
0100
1000
0000
1000
0010
0100
0001
0000
0001
0100
,
M001
0000
0000
0010
0000
0000
0100
0000
0010
0000
0100
0000
0010
0000
0000
0100
0000
0000
1000
0000
0001
0000
1000
0000
0001
0000
0000
0010
0000
0000
0001
0000
0100
0000
0001
0000
0100
0000
0000
0010
0000
0000
1000
0000
0100
0000
1000
0000
,
0100
0000
0000
0010
0000
0000
0001
0000
0100
0000
0001
0000
0100
0000
0000
0010
0000
0000
1000
0000
0001
0000
1000
0000
0001
0000
0000
0010
0000
0000
0100
0000
1000
0000
0100
0000
1000
0000
0000
0000
0000
0000
1000
0000
0000
0000
0000
0000
,
100M
0000
0000
0010
0000
0000
0100
0000
0010
0000
0100
0000
0010
0000
0000
1000
0000
0000
0001
0000
1000
0000
0001
0000
1000
0000
0000
0010
0000
0000
0100
0000
0001
0000
0100
0000
0001
0000
0000
0010
0000
0000
0100
0000
1000
0000
0100
0000
,
1000
0000
0000
0001
0000
0000
0100
0000
0001
0000
0100
0000
0001
0000
0000
0010
0000
0000
0001
0000
0100
0000
0001
0000
0100
0000
0000
0010
0000
0000
1000
0000
0100
0000
1000
0000
0100
0000
0000
0000
0000
0000
0100
0000
0000
0000
0000
0000
,
01M0
0000
0000
1000
0000
0000
0100
0000
1000
0000
0100
0000
1000
0000
0000
0100
0000
0000
0010
0000
0100
0000
0010
0000
0100
0000
0000
0010
0000
0000
0001
0000
0010
0000
0001
0000
0010
0000
0000
0001
0000
0000
1000
0000
0001
0000
1000
0000
,
00M1
0000
0000
0100
0000
0000
0001
0000
0100
0000
0001
0000
0100
0000
0000
0010
0000
0000
0100
0000
0010
0000
0100
0000
0010
0000
0000
1000
0000
0000
0010
0000
1000
0000
0010
0000
1000
0000
0000
0000
0000
0000
1000
0000
0000
0000
0000
0000
,
10M0
0000
0000
0001
0000
0000
0100
0000
0001
0000
0100
0000
0010
0000
0000
1000
0000
0000
0100
0000
0010
0000
0100
0000
100M
0000
0000
0010
0000
0000
0100
0000
0001
0000
0100
0000
0010
0000
0000
1000
0000
0000
0010
0000
0100
0000
0001
0000
,
10M0
0100
0000
0100
M010
0000
0010
0001
0M00
0001
0100
0010
100M
0000
1000
0001
,
1M02
1000
1000
1000
1000
1000
1000
1003
,
1001
0000
0000
0000
0001
0000
1001
0000
0000
0000
1000
0000
1001
0000
0000
0000
1000
0001
1000
0000
0001
0000
1000
0000
0002
0000
0000
0000
0000
0000
0000
0000
,
0003
0000
0000
0000
;

//---------------dance-single - boring ol stream----------------
#NOTES:
     dance-single:
     boring ol stream:
     Medium:
     12:
     1.000,1.000,0.080,0.341,1.000,1090.000,12.000,51.000,39.000,0.000:
0000
0000
0000
0000
,
0M01
0000
1000
0001
1000
0000
0001
1000
0001
0000
0100
0001
0100
0000
0001
0100
,
0001
0000
0100
0010
0100
0000
0010
0100
0010
0000
1000
0010
1000
0000
1000
0000
,
1000
0000
0001
0010
0001
0000
0010
0001
0010
0000
0100
1000
0100
0000
1000
0100
,
1000
0000
0100
0010
0100
0000
0010
0100
0010
0000
0001
1000
0001
0000
0001
0000
,
0001
0000
0010
0001
0010
0000
0100
0010
0100
0000
1000
0100
1000
0000
0001
1000
,
0001
0000
0100
0001
0100
0000
0010
1000
0010
0000
0100
0010
0100
0000
0100
0000
,
0100
0000
0001
0100
0001
0000
1000
0001
1000
0000
0100
1000
0100
0000
1000
0001
,
1000
0100
0000
0100
0010
0000
0010
0001
0000
0001
0100
0010
1000
0000
1000
0001
,
10M0
0100
0010
0001
1000
0001
0010
0100
1000
0100
0010
0001
1000
0001
0010
0100
,
1000
0010
1000
0001
0010
0001
1000
0010
1000
0100
0010
0001
1000
0001
0010
1000
,
0010
0001
1000
0010
0100
0010
1000
0001
0010
0001
1000
0010
0100
0010
1000
0001
,
0010
0100
0010
0001
0100
0001
0010
0100
0010
0001
1000
0010
0100
0010
0100
1000
,
0100
0010
1000
0001
0100
0001
1000
0010
0100
0010
1000
0001
0100
0001
1000
0010
,
0100
0001
0100
0010
1000
0010
0100
0001
0100
0010
1000
0001
0100
0001
0100
1000
,
0100
0001
1000
0100
0010
0100
1000
0001
0100
0001
1000
0100
0010
0100
1000
0001
,
0100
0010
0000
0010
1000
0000
1000
0100
0000
0100
0010
0001
1000
0000
1000
0001
,
1M00
0010
0100
0001
0010
0001
0100
0010
1000
0010
0100
0001
0010
0001
0100
0010
,
1000
0100
1000
0001
0100
0001
1000
0100
1000
0010
0100
0001
0010
0001
0100
1000
,
010M
0010
1000
0001
0010
0001
1000
0100
0010
0100
1000
0001
0010
0001
1000
0100
,
0010
0001
0010
0100
1000
0100
0010
0001
0010
0001
1000
0100
0010
0100
0010
1000
,
0010
0100
1000
0010
0100
0010
1000
0100
0010
0100
1000
0010
0100
0010
1000
0100
,
001M
0100
0010
0001
0100
0001
0010
0100
0010
0100
1000
0010
0100
0010
0001
0010
,
100M
0100
0010
0001
1000
0001
0010
0100
100M
0100
0010
0001
1000
0001
0010
0100
,
100M
0010
0000
0010
M100
0000
0100
0001
00M0
0001
1000
0010
M100
0000
0100
0001
,
2002
0000
0003
0002
0000
0003
0002
0003
0002
0000
3003
0010
1000
0000
0010
0000
,
100M
0100
0001
0100
0010
0100
1000
0100
,
0010
0000
0000
0001
0000
0000
1000
0000
0000
0001
0000
0000
0100
0000
0000
0010
1000
0010
1000
0000
0000
0001
1000
0001
,
1000
0010
0100
0010
0001
0010
0100
0010
,
1000
0000
0000
0100
0000
0000
0010
0000
0000
0100
0000
0000
1000
0000
0000
0001
1000
0001
1000
0000
0000
0010
1000
0010
,
100M
0100
0010
0100
0001
0100
0010
0100
,
1000
0000
0000
0010
0000
0000
0100
0000
0000
0010
0000
0000
1000
0000
0000
0001
0010
0001
0010
0000
0000
0100
0010
0100
,
0010
0100
1000
0100
0001
0100
0010
0100
,
1000
0100
0000
0100
0010
0000
0010
0001
0000
0001
0100
0000
0010
0000
0010
0000
,
M001
0100
0010
0100
1000
0100
0010
0100
,
0001
0000
0000
1000
0000
0000
0100
0000
0000
1000
0000
0000
0010
0000
0000
0100
0010
0100
0010
0000
0000
1000
0010
1000
,
0010
0100
0001
0100
1000
0100
0001
0100
,
0001
0000
0000
0010
0000
0000
0100
0000
0000
0010
0000
0000
0001
0000
0000
1000
0010
1000
0010
0000
0000
0100
0001
0100
,
M001
0010
0100
0010
1000
0010
0100
0010
,
0001
0000
0000
0100
0000
0000
0010
0000
0000
0100
0000
0000
0001
0000
0000
0010
0001
0010
0001
0000
0000
0010
0100
0010
,
0100
1000
0010
1000
0001
1000
0010
1000
,
0001
0010
0000
0010
0100
0000
0100
1000
0000
1000
0010
0000
0100
0000
0100
0000
,
M002
0003
0100
0000
0001
0000
0100
0000
0001
0000
0100
0000
0001
0000
0100
0000
,
0020
0000
0000
0030
0000
0000
1000
0000
0000
0000
0000
0000
0010
0000
0000
0000
0000
0000
1000
0000
0000
0000
0000
0000
0002
0000
0000
0003
0000
0000
1000
0000
0001
0000
1000
0000
0001
0000
0000
0000
0000
0000
1000
0000
0001
0000
1000
0000
,
0002
0003
0010
0000
0001
0000
0010
0000
0001
0000
0010
0000
0001
0000
0010
0000
,
0200
0000
0000
0300
0000
0000
1000
0000
0000
0000
0000
0000
0100
0000
0000
0000
0000
0000
1000
0000
0000
0000
0000
0000
0020
0000
0000
0030
0000
0000
1000
0000
0010
0000
1000
0000
0010
0000
0000
0000
0000
0000
1000
0000
0010
0000
1000
0000
,
002M
0030
0100
0000
0010
0000
0100
0000
0010
0000
0100
0000
0010
0000
0100
0000
,
0002
0000
0000
0003
0000
0000
1000
0000
0000
0000
0000
0000
0001
0000
0000
0000
0000
0000
1000
0000
0000
0000
0000
0000
0020
0000
0000
0030
0000
0000
0100
0000
0010
0000
0100
0000
0010
0000
0000
0000
0000
0000
0100
0000
0010
0000
0100
0000
,
0020
0030
1000
0000
0010
0000
1000
0000
0010
0000
1000
0000
0010
0000
1000
0000
,
0001
0010
0000
0010
0100
0000
0100
1000
0000
1000
0010
0000
1000
0000
1000
0000
,
200M
3000
0010
0000
1000
0000
0010
0000
1000
0000
0010
0000
1000
0000
0010
0000
,
0200
0000
0000
0300
0000
0000
0001
0000
0000
0000
0000
0000
0100
0000
0000
0000
0000
0000
0001
0000
0000
0000
0000
0000
2000
0000
0000
3000
0000
0000
0001
0000
1000
0000
0001
0000
1000
0000
0000
0000
0000
0000
0001
0000
1000
0000
0001
0000
,
2000
3000
0100
0000
1000
0000
0100
0000
1000
0000
0100
0000
1000
0000
0100
0000
,
0020
0000
0000
0030
0000
0000
0100
0000
0000
0000
0000
0000
0010
0000
0000
0000
0000
0000
0100
0000
0000
0000
0000
0000
2000
0000
0000
3000
0000
0000
0010
0000
1000
0000
0010
0000
1000
0000
0000
0000
0000
0000
0010
0000
1000
0000
0010
0000
,
200M
3000
0001
0000
1000
0000
0001
0000
1000
0000
0001
0000
1000
0000
0001
0000
,
0200
0000
0000
0300
0000
0000
0001
0000
0000
0000
0000
0000
0100
0000
0000
0000
0000
0000
0001
0000
0000
0000
0000
0000
0020
0000
0000
0030
0000
0000
0100
0000
0010
0000
0100
0000
0010
0000
0000
0000
0000
0000
0100
0000
0010
0000
0100
0000
,
0020
0030
0001
0000
0010
0000
0001
0000
0010
0000
0001
0000
0010
0000
0001
0000
,
1000
0100
0000
0100
0010
0000
0010
0001
0000
0001
1000
0000
0010
0000
0010
0000
,
1M02
0000
0003
0200
0000
0300
0020
0000
,
1030
0200
0000
0300
0020
0030
0002
1003
,
1M20
0000
0000
0000
0030
0000
0200
0000
0000
0000
0300
0000
0002
1000
0000
0000
,
1003
0000
0000
0000
0000
0000
0000
0000
0200
0000
0000
0000
0000
0000
0000
0000
0000
0000
0000
0000
0000
0000
0000
0000
0300
0000
0000
0000
0000
0000
0000
0000
0020
0000
0000
0000
0000
0000
0000
0000
0030
0000
0000
0000
0000
0000
0000
0000
0002
0000
0000
0000
0000
0000
0000
0000
0023
0000
0000
0000
0000
0000
0000
0030
,
120M
0000
0300
2000
0010
3000
0002
0100
,
01M3
0000
2000
0000
0000
0100
3000
0000
0120
0000
0030
0000
0002
0000
1003
0000
,
102M
0000
1030
0200
100M
0300
1002
0000
,
1M03
0000
1020
0000
1M00
0000
1030
0000
00M1
1000
0001
1000
0M01
1000
00M1
1000
,
0M01
0010
0100
1000
0001
1000
0100
0010
0001
0010
0100
1000
0001
1000
0100
0010
,
0001
0100
0001
1000
0100
1000
0001
0100
0001
0010
0100
1000
0100
0010
0100
0001
,
0100
0010
0001
0100
0010
0100
0001
0010
0100
0010
0001
0100
0010
0100
0001
0010
,
0100
1000
0100
0010
0001
0010
0100
1000
0100
0010
0001
0100
0010
0100
0010
0001
,
0010
1000
0100
0010
0001
0010
0100
1000
0010
1000
0100
0010
0001
0010
0100
1000
,
0010
0100
0010
1000
0100
1000
0010
0100
0010
1000
0100
0010
0001
0010
0100
0001
,
0100
0010
0001
1000
0010
1000
0001
0010
0100
0010
0001
1000
0010
1000
0001
0010
,
0001
0100
0000
0100
0010
0000
0010
1000
0000
1000
0001
0100
0010
0000
0010
1000
,
0200
0000
0300
0000
M010
0001
1000
0001
0100
0001
1000
0001
0010
0001
1000
0001
,
0100
0010
0100
0001
1000
0001
0100
0010
0100
0001
1000
0001
0010
0001
0100
1000
,
0100
0010
1000
0001
0010
0001
1000
0010
0100
0010
1000
0001
0010
0001
1000
0010
,
0100
0001
0100
0010
1000
0010
0100
0001
0100
0010
1000
0001
0010
0100
0001
0100
,
1000
0010
0100
0001
1000
0001
0100
0010
1000
0010
0100
0001
1000
0001
0100
0010
,
1000
0001
1000
0010
0100
0010
1000
0001
1000
0010
0100
0001
1000
0001
0100
1000
,
0100
0010
1000
0100
0010
0100
1000
0010
0100
0010
1000
0100
0010
0100
1000
0010
,
0100
0001
0000
0001
0010
0000
0010
0100
0000
0100
1000
0001
0100
0000
0100
0010
,
M100
0001
1000
0001
0100
0001
0010
0001
0100
0001
1000
0001
0100
0001
0010
0001
,
0100
0010
0100
0001
1000
0001
0100
0010
0100
0001
1000
0001
0100
0001
0010
1000
,
001M
0100
1000
0100
0010
0001
0100
0001
0010
0100
1000
0100
0010
0001
0100
0001
,
0010
0100
0010
0001
1000
0001
0010
0100
0010
0100
1000
0100
0010
0001
0100
1000
,
01M0
0001
0010
0001
1000
0100
0010
0100
1000
0001
0010
0001
1000
0100
0010
0100
,
100M
0010
1000
0001
0010
0001
1000
0010
1000
0001
0010
0001
1000
0100
0010
1000
,
0M10
0001
0100
0010
1000
0010
0100
0001
M010
0001
0100
0010
1000
0010
0100
0001
,
M010
0100
0000
0100
1000
0000
1000
0001
0000
0001
0100
0010
1000
0000
1000
0001
,
1002
1000
1000
1000
1000
1000
1000
1003
,
1001
0000
0000
1001
0000
0000
1001
0000
1000
0001
1000
0001
2000
0000
0000
0000
,
3000
0000
0000
0000
;
