#TITLE:Extratone Pirates;
#SUBTITLE:(Drunk Optimus Remix);
#ARTIST:Annoying Ringtone;
#TITLETRANSLIT:;
#SUBTITLETRANSLIT:;
#ARTISTTRANSLIT:;
#CREDIT:The Cosmic Pope;
#BANNER:Bn-Optimus.png;
#BACKGROUND:Bg-Optimus.png;
#LYRICSPATH:;
#CDTITLE:;
#MUSIC:DCRPS032 - 06 - Annoying Ringtone - Extratone Pirates (Drunk Optimus Remix).ogg;
#OFFSET:-0.073;
#SAMPLESTART:15.443;
#SAMPLELENGTH:15.360;
#SELECTABLE:YES;
#BPMS:0.000=250.000;
#STOPS:;
#BGCHANGES:;
// cache tags:
#FIRSTBEAT:12.000;
#LASTBEAT:719.250;
#SONGFILENAME:Songs/SPEEEDCOOOORE 2/Extratone Pirates (Remix) - [CosmicPope]/Extratone Pirates (Remix).sm;
#HASMUSIC:1;
#HASBANNER:1;
#MUSICLENGTH:173.975;
// end cache tags

//---------------dance-single - B. Abear----------------
#NOTES:
     dance-single:
     B. Abear:
     Challenge:
     17:
     1.000,1.000,0.374,0.046,0.980,1359.000,65.000,8.000,53.000,13.000:

0000
0000
0000
0000
,
0000
0000
0000
0000
,
0000
0000
0000
0000
,
0M00
00M0
0000
00M0
,
0000
0000
0000
0000
,
0000
0000
0000
0000
,
0000
0000
0000
0000
,
M000
M000
0M00
0M00
00M0
00M0
000M
000M
,
1000
0000
1000
0001
0010
0000
0100
0000
,
0100
1000
0001
0000
1000
0000
1000
0040
,
0130
0000
0001
0010
0100
0000
1000
0000
,
1000
0000
0002
0000
0100
0000
0000
0000
0100
0000
0003
0000
1000
0001
1000
0001
,
1000
0000
0001
0010
0100
0000
1000
0000
,
1000
0001
0100
0000
0010
0000
0010
0400
,
0301
0000
1000
0100
0010
0000
0100
0000
,
M000
M000
0M00
0M00
00M0
00M0
000M
000M
,
1000
0000
0001
0000
0100
0000
0001
1000
0001
1000
0400
0000
1300
0000
0001
0000
,
0100
0000
0100
0000
0010
0000
0100
0000
0001
1000
0001
0000
1000
0000
0100
0010
,
0001
1000
0001
1000
0001
0000
0100
0000
0001
0000
1000
0000
0100
0000
0010
0000
,
0001
0000
0000
0000
1001
0000
0000
0000
1001
0000
0000
0000
1000
0001
1000
0001
,
0100
0010
1000
0001
1000
0001
0040
0000
0130
0000
1000
0000
0001
0000
0400
0000
,
0310
0000
0400
0000
0301
1000
0001
0000
1000
0000
1000
0000
0100
0000
0010
0000
,
0001
0000
1000
0000
0010
0000
0100
0000
0010
0000
0100
0000
0001
1000
0001
0000
,
1000
0100
1000
0001
0100
0001
0100
0001
1000
0001
1000
0001
1000
0001
1000
0001
,
0100
0010
1000
0001
0100
0001
1000
0001
0100
0010
0100
0001
1000
0001
0100
0001
,
1000
0100
0010
0001
1000
0001
0010
0001
1000
0100
1000
0001
0010
0001
1000
0001
,
1000
0010
0100
0001
1000
0010
0100
0001
1000
0001
1000
0001
0100
0010
0100
0001
,
1000
0001
0010
0001
1000
0100
1000
0001
1000
0001
0010
0100
1000
0001
1000
0001
,
0100
0010
0100
0001
1000
0010
0100
0001
1000
0001
0010
0001
1000
0100
1000
0001
,
1000
0010
0100
0010
1000
0001
0100
0001
1000
0100
0010
0001
1000
0001
0010
0001
,
1000
0001
0100
0001
1000
0010
0100
0010
1000
0001
0010
0001
1000
0100
0010
0001
,
1000
0010
0100
0010
1000
0001
1000
0001
1000
0001
1000
0001
1000
0001
1000
0001
,
0M00
00M0
M000
00M0
,
0M00
000M
00M0
0M00
M000
0M00
00M0
000M
,
M000
00M0
0M00
0000
00M0
0000
0M00
000M
,
00M0
0M00
00M0
000M
M000
0000
00M0
0M00
,
0001
0000
0001
0000
1000
0000
0001
1000
0100
1000
0001
0000
0400
0000
0301
0000
,
1000
0100
1000
0000
0001
0000
0010
0000
0001
0000
1000
0000
0010
0000
0010
0000
,
0100
0100
0100
0001
0001
1000
0001
0001
,
0010
0100
1000
0100
0100
0000
0010
0010
,
0001
0001
0001
1000
0040
0130
0004
1003
,
0100
0000
0040
0000
0031
1000
0001
0000
0100
0000
0100
0000
0001
0000
0001
0000
,
0001
0000
0001
0000
1000
0100
1000
0000
0001
0000
0100
0000
0010
1000
0001
0000
,
0010
0000
0001
1000
0010
0100
0001
1000
0010
0100
0010
0100
0010
0100
0010
0100
,
0001
0001
1000
0100
1000
0004
0403
0310
,
1000
0001
1000
0000
0100
0000
0010
0000
0100
0000
1000
0000
0100
0000
0100
0000
,
0010
0010
0010
0001
0001
0000
0001
0001
,
1000
0010
0100
0010
1000
0000
0001
0001
,
1000
1000
0100
0010
0400
1300
0001
0400
,
0310
0000
0400
0000
0301
1000
0001
0000
0010
0000
0010
0000
0100
0000
0100
0000
,
0100
0000
0100
0000
1000
0001
0100
0000
0010
0000
0100
0000
0001
1000
0001
0000
,
0010
0000
0100
1000
0001
1000
0001
1000
0010
0100
0001
1000
0001
0100
0001
1000
,
0001
0010
0100
1000
0001
0010
0001
1000
,
0010
0100
0010
1000
0001
0010
0100
1000
,
0001
0100
0010
0100
0001
1000
0001
0010
,
0100
1000
0001
1000
0001
0100
0010
0100
,
0001
0010
0100
1000
0010
0100
0010
1000
,
0001
0010
0001
1000
0100
1000
0010
0100
,
0001
1000
0001
0010
0100
1000
0010
0100
,
0010
1000
0001
0010
0001
1000
0100
0010
,
0M01
1000
0010
0100
0001
1000
0001
1000
,
010M
0010
0001
1000
0010
0100
0001
1000
,
0M10
1000
0001
0010
0100
1000
0001
0010
,
0M01
1000
0010
0100
0010
1000
0001
0100
,
M010
0100
0001
0010
0100
1000
0001
1000
,
010M
0010
0100
1000
0001
0100
0001
1000
,
010M
0010
0100
1000
0M01
1000
0010
0100
,
0001
1000
0100
1000
0001
0010
0100
1000
0004
0000
0000
0000
0000
0000
0000
0003
,
2101
0000
0000
0000
,
0000
0000
0000
0000
0000
0000
0000
0000
0000
0000
0000
0000
0000
0000
0000
0000
0000
0000
0000
0000
0000
0000
0000
0000
0000
0000
0000
0000
0000
0000
0000
0000
0000
0000
0000
0000
0000
0000
0000
0000
0000
0000
0000
0000
0000
0000
0000
0000
0000
0000
0000
0000
0000
0000
0000
0000
0000
0000
0000
0000
0000
0000
0000
3000
,
1210
0000
0000
0000
0000
0000
0000
0000
0000
0000
0000
0000
0000
0000
0000
0000
0000
0000
0000
0000
0000
0000
0000
0000
0000
0000
0000
0000
0000
0000
0000
0000
0000
0000
0000
0000
0000
0000
0000
0000
0000
0000
0000
0000
0000
0000
0000
0000
0000
0000
0000
0000
0000
0000
0000
0000
0000
0000
0000
0000
0000
0000
0000
0300
,
0121
0000
0000
0000
0000
0000
0000
0000
0000
0000
0000
0000
0000
0000
0000
0000
0000
0000
0000
0000
0000
0000
0000
0000
0000
0000
0000
0000
0000
0000
0000
0000
0000
0000
0000
0000
0000
0000
0000
0000
0000
0000
0000
0000
0000
0000
0000
0000
0000
0000
0000
0000
0000
0000
0000
0000
0000
0000
0000
0000
0000
0000
0000
0030
,
1012
0000
0000
0000
,
0000
0000
0000
0000
0000
0000
0000
0000
0000
0000
0000
0000
0000
0000
0000
0000
0000
0000
0000
0000
0000
0000
0000
0000
0000
0000
0000
0000
0000
0000
0000
0000
0000
0000
0000
0000
0000
0000
0000
0000
0000
0000
0000
0000
0000
0000
0000
0000
0000
0000
0000
0000
0000
0000
0000
0000
0000
0000
0000
0000
0000
0000
0000
0003
,
1201
0000
0000
0000
0000
0000
0000
0000
0000
0000
0000
0000
0000
0000
0000
0000
0000
0000
0000
0000
0000
0000
0000
0000
0000
0000
0000
0000
0000
0000
0000
0000
0000
0000
0000
0000
0000
0000
0000
0000
0000
0000
0000
0000
0000
0000
0000
0000
0000
0000
0000
0000
0000
0000
0000
0000
0000
0000
0000
0000
0000
0000
0000
0300
,
0121
0000
0000
0000
0000
0000
0000
0000
0000
0000
0000
0000
0000
0000
0000
0000
0000
0000
0000
0000
0000
0000
0000
0000
0000
0000
0000
0000
0000
0000
0000
0000
0000
0000
0000
0000
0000
0000
0000
0000
0000
0000
0000
0000
0000
0000
0000
0000
0000
0000
0000
0000
0000
0000
0000
0000
0000
0000
0000
0000
0000
0000
0000
0030
,
1110
0000
1000
0001
0100
0000
0001
0000
,
1000
0100
1000
0001
,
0111
0000
0100
0010
1000
0000
0001
0000
,
1011
0000
1000
0001
0010
0000
0100
0000
,
0111
0000
0010
0001
1000
0000
0001
0000
,
0100
0010
0100
0001
,
1101
0000
0100
0001
1000
0000
0001
0000
,
1011
0000
1000
0001
0100
0000
0010
0000
,
1110
0000
0000
0000
1000
0000
0001
0000
1000
0001
1000
0000
0010
0000
0100
0000
,
0001
0010
0100
1000
0001
0000
0100
0000
0001
1000
0001
0000
0100
0000
0010
0000
,
1010
0000
1000
1001
0000
0000
0011
0000
,
0110
0000
0000
0000
0100
0000
1000
0000
0001
1000
0001
0000
0100
0000
0010
0000
,
1000
0100
0010
0000
0001
0000
1000
0000
0010
0000
1000
0000
0001
0000
0001
0000
,
0011
0000
0000
0000
0000
0000
1001
0000
1000
0001
1000
0000
0010
0000
0100
0000
,
0101
0000
0001
1000
0010
0100
0010
0100
,
0001
0000
0000
0000
0001
0000
1000
0000
0100
0010
0001
1000
0001
1000
0010
0100
,
0001
0000
0000
0000
1000
0000
0001
0000
0010
0001
0010
0000
0100
0000
1000
0000
,
0001
0100
0010
1000
0001
0000
0100
0000
0001
1000
0001
0000
0010
0000
0100
0000
,
1100
0000
1000
1001
0000
0000
0101
0000
,
0110
0000
0000
0000
0010
0000
1000
0000
0001
1000
0001
0000
0010
0000
0100
0000
,
1000
0100
0010
0000
0001
0000
1000
0000
0010
0000
1000
0000
0001
0000
0001
0000
,
0101
0000
0000
0000
0000
0000
1001
0000
1000
0001
1000
0000
0010
0000
0100
0000
,
0101
0000
0001
1000
0100
0010
0100
0010
,
0001
0000
0000
0000
0001
0000
1000
0000
0010
0100
0001
1000
0001
1000
0100
0010
,
0002
1003
0010
0000
0000
0000
0010
1000
,
1001
0001
0001
0001
,
0011
0000
0000
0000
0000
0000
0010
0100
,
1100
0000
1000
0000
0001
0100
0010
1000
0001
0000
0100
0000
0001
0000
1000
0000
,
1001
0000
0000
0000
0001
0100
0010
0000
1000
0000
0000
0000
1000
0000
0000
0000
,
1001
0001
0001
0001
,
0101
0000
0000
0000
0000
0000
0100
0010
,
1000
0001
1000
0001
1000
0001
1000
0001
,
1000
0010
0100
0001
1000
0001
0100
0001
1000
0010
0100
0010
1000
0001
0100
0001
,
1000
0100
1000
0001
0100
0001
1000
0001
,
1000
0100
0010
0001
1000
0001
0010
0001
1000
0100
1000
0001
0010
0100
1000
0001
,
1000
0010
0100
0001
1000
0001
0100
0001
0100
0010
1000
0001
0100
0010
0100
0001
,
1000
0100
1000
0001
0010
0100
1000
0001
0010
0001
1000
0001
1000
0100
1000
0001
,
1000
0010
1000
0001
0010
0001
1000
0001
,
0100
0M00
0000
0000
,
0000
0000
0000
0000
,
1000
0010
1000
0001
0100
0001
1000
0010
0100
0001
1000
0001
1000
0001
0100
0001
,
1000
0100
1000
0001
0010
0001
1000
0100
0010
0001
1000
0001
1000
0001
0010
0001
,
1000
0010
1000
0001
0100
0001
0100
0010
1000
0010
0100
0001
1000
0001
0100
0001
,
1000
0100
1000
0001
1000
0001
0010
0001
1000
0100
0010
0001
1000
0100
1000
0001
,
1000
0010
0100
0001
1000
0001
0100
0001
1000
0100
1000
0001
0010
0100
1000
0001
,
1000
0010
0100
0010
1000
0001
1000
0010
1000
0100
0010
0001
1000
0001
0010
0001
,
1000
0010
0100
0010
1000
0001
0100
0001
1000
0100
1000
0001
0010
0100
1000
0001
,
1000
0010
0100
0001
1000
0100
1000
0001
0010
0100
1000
0001
0100
0001
1000
0100
,
1000
0001
0010
0100
1000
0001
0100
0010
,
0100
0001
1000
0010
1000
0001
0010
0100
,
1000
0001
1000
0010
0100
0001
1000
0100
,
1000
0001
0010
0100
0010
0001
1000
0001
,
0100
0001
0100
0010
1000
0001
0010
0001
,
1000
0100
0010
0100
1000
0001
0100
0001
,
1000
0100
1000
0001
0010
0100
1000
0001
,
1000
0010
0100
0001
1000
0100
1000
0001
,
0400
0000
0340
0000
4030
3004
0043
0034
,
4003
3000
4000
3000
0004
0003
0004
0003
,
0400
0000
0340
0000
4030
3400
0340
0034
,
0403
0300
0400
0300
0040
0030
0040
0030
,
4000
3004
0403
0340
,
0430
0300
0400
0300
0004
0003
0004
0003
,
4000
3400
4300
3040
,
0430
0304
4003
3004
,
0043
0000
0000
0000
0000
0000
0000
0030
0400
0000
0000
0000
0000
0000
0000
0300
4000
0000
0000
0000
0000
0000
3000
0000
0004
0000
0000
0000
0000
0000
0003
0000
,
0400
0000
0000
0000
0000
0000
0000
0000
0000
0300
0000
0000
0040
0000
0000
0000
0000
0000
0000
0000
0000
0030
0000
0000
0400
0000
0000
0000
0000
0000
0000
0000
0300
0000
0000
0000
0004
0000
0000
0000
0000
0000
0000
0000
0003
0000
0000
0000
,
4000
0000
0000
0000
3000
0000
0004
0000
0000
0000
0003
0000
4000
0000
0000
3000
0000
0000
0400
0000
0000
0300
0000
0000
,
0040
0030
0000
0000
0004
0003
0000
0000
4000
3000
0000
0000
0040
0030
0000
0000
,
1000
0100
0010
0001
1000
0001
0100
0001
,
1000
0100
1000
0001
0010
0100
1000
0001
,
0100
0010
0000
0000
0100
0010
0000
0000
,
0100
0010
0100
0010
1000
0001
1000
1000
,
0001
0100
0001
1000
0010
1000
0001
0100
0010
1000
0001
1000
0001
1000
0010
1000
,
0001
0010
0001
1000
0100
1000
0001
0010
0100
1000
0001
1000
0001
1000
0100
1000
,
0001
0100
0001
1000
0010
1000
0010
0100
0001
0100
0010
1000
0001
1000
0010
1000
,
0001
0010
0001
1000
0001
1000
0100
1000
0001
0010
0100
1000
0001
0010
0001
1000
,
0001
0100
0010
1000
0001
1000
0010
1000
0001
0010
0001
1000
0100
0010
0001
1000
,
0001
0100
0010
0100
0001
1000
0001
1000
0001
0010
0100
1000
0001
1000
0100
1000
,
0001
0100
0010
0100
0001
1000
0010
1000
0001
0010
0001
1000
0100
0010
0001
1000
,
0001
0100
0010
1000
0001
0010
0001
1000
0100
0010
0001
1000
0010
1000
0001
0010
,
0100
1000
0001
0100
0010
0100
0001
1000
,
1100
0100
0010
0001
1000
0001
0100
0001
,
0101
0100
0010
1000
0001
0010
0100
1000
,
1100
0100
0010
0001
1000
0001
1000
0010
,
1010
1000
0001
0010
0100
1000
0001
1000
,
1001
0001
0100
0010
0100
0001
1000
0010
,
1010
1000
0001
0010
0100
1000
0010
0100
,
0110
0010
1000
0001
4000
0000
0000
0000
,
3001
0000
0001
0000
0100
0000
0010
0000
1000
0001
1000
0000
0400
0000
0310
0000
,
0001
0100
0001
0000
1000
0000
0100
0000
1000
0001
0100
0000
0010
0000
0100
0000
,
0100
0100
0001
1000
0100
0010
0001
1000
,
0010
0100
0010
1000
0001
0000
1000
0100
,
0010
0010
0010
0001
4000
3010
0100
0004
,
1003
0000
0400
0000
0310
0001
0010
0000
0100
0000
0100
0000
1000
0000
0001
0000
,
1000
0000
0010
0000
0100
0000
0010
0000
1000
0000
0001
0000
0010
0001
0010
0000
,
0100
0000
1000
0001
1000
0010
0100
0001
1000
0100
1000
0100
1000
0100
1000
0100
,
1000
0000
0001
0000
0100
0000
0001
0000
1000
0100
1000
0000
0004
0000
0103
0000
,
0010
1000
0010
0000
0100
0000
0001
0000
1000
0001
0010
0000
0100
0000
1000
0000
,
1000
1000
1000
0001
0100
0010
0100
0001
,
1000
0000
0100
0000
1000
0000
0001
0100
,
0010
0010
0010
1000
0004
0013
0100
4000
,
3001
0000
0400
0000
0301
1000
0001
0000
0100
0000
0100
0000
0010
0000
1000
0000
,
0001
0000
0001
0000
1000
0100
1000
0000
0001
0100
0001
0000
1000
0010
1000
0000
,
0001
0010
0001
1000
0100
1000
0001
0100
0010
1000
0010
1000
0010
1000
0000
0000
;
