#TITLE:Sonic Super Megamix;
#SUBTITLE:;
#ARTIST:CrimzonWolf777;
#TITLETRANSLIT:;
#SUBTITLETRANSLIT:;
#ARTISTTRANSLIT:;
#CREDIT:owenviau1;
#BANNER:supermegamix-bn.png;
#BACKGROUND:supermegamix-bg.png;
#LYRICSPATH:Sonic SuperMegamix.lrc;
#CDTITLE:../ov1_title.png;
#MUSIC:Sonic SuperMegamix.mp3;
#OFFSET:-0.060;
#SAMPLESTART:100.031;
#SAMPLELENGTH:29.999;
#SELECTABLE:YES;
#DISPLAYBPM:140.000;
#BPMS:0.000=140.000,1124.000=140.010,2372.000=145.000;
#STOPS:3624.000=0.080
;
#BGCHANGES:;
// cache tags:
#FIRSTBEAT:16.000;
#LASTBEAT:5180.375;
#SONGFILENAME:Songs/owenviau1 Simfiles 5/Sonic Super Megamix - [owenviau1] v1.3/Sonic SuperMegamix.sm;
#HASMUSIC:1;
#HASBANNER:1;
#MUSICLENGTH:2176.235;
// end cache tags

//---------------dance-single - ----------------
#NOTES:
     dance-single:
     :
     Medium:
     6:
     0.332,0.297,0.002,0.002,0.000,5044.000,4.000,4.000,0.000,0.000:
0000
0000
0000
0000
,
0000
0000
0000
0000
,
0000
0000
0000
0000
,
0000
0000
0000
0000
,
1000
0100
0010
0001
,
1000
0010
0100
0001
,
0010
0001
0100
0010
,
1000
0100
0010
0001
,
0100
0010
1000
0001
,
0100
0010
1000
0010
,
0001
0100
0010
1000
,
0100
0010
0001
1000
,
0010
0100
0001
1000
,
0100
0010
0001
0100
,
0010
0001
1000
0100
,
0001
0100
0010
1000
,
0001
0100
0010
0001
,
1000
0100
0010
0001
,
0100
0010
1000
0001
,
1000
0100
0010
0001
,
1000
0010
0100
0001
,
0010
0001
0100
0010
,
1000
0100
0010
0001
,
0100
0010
1000
0001
,
0100
0010
1000
0010
,
0001
0100
0010
1000
,
0100
0010
0001
1000
,
0010
0100
0001
1000
,
0100
0010
0001
0100
,
0010
0001
1000
0100
,
0001
0100
0010
1000
,
0001
0100
0010
0001
,
1000
0100
0010
0001
,
0100
0010
1000
0001
,
1000
0100
0010
0001
,
1000
0010
0100
0001
,
0010
0001
0100
0010
,
1000
0100
0010
0001
,
0100
0010
1000
0001
,
0100
0010
1000
0010
,
0001
0100
0010
1000
,
0100
0010
0001
1000
,
0010
0100
0001
1000
,
0100
0010
0001
0100
,
0010
0001
1000
0100
,
0001
0100
0010
1000
,
0001
0100
0010
0001
,
1000
0100
0010
0001
,
0100
0010
1000
0001
,
1000
0100
0010
0001
,
1000
0010
0100
0001
,
0010
0001
0100
0010
,
1000
0100
0010
0001
,
0100
0010
1000
0001
,
0100
0010
1000
0010
,
0001
0100
0010
1000
,
0100
0010
0001
1000
,
0010
0100
0001
1000
,
0100
0010
0001
0100
,
0010
0001
1000
0100
,
0001
0100
0010
1000
,
0001
0100
0010
0001
,
1000
0100
0010
0001
,
0100
0010
1000
0001
,
1000
0100
0010
0001
,
1000
0010
0100
0001
,
0010
0001
0100
0010
,
1000
0100
0010
0001
,
0100
0010
1000
0001
,
0100
0010
1000
0010
,
0001
0100
0010
1000
,
0100
0010
0001
1000
,
0010
0100
0001
1000
,
0100
0010
0001
0100
,
0010
0001
1000
0100
,
0001
0100
0010
1000
,
0001
0100
0010
0001
,
1000
0100
0010
0001
,
0100
0010
1000
0001
,
1000
0100
0010
0001
,
1000
0010
0100
0001
,
0010
0001
0100
0010
,
1000
0100
0010
0001
,
0100
0010
1000
0001
,
0100
0010
1000
0010
,
0001
0100
0010
1000
,
0100
0010
0001
1000
,
0010
0100
0001
1000
,
0100
0010
0001
0100
,
0010
0001
1000
0100
,
0001
0100
0010
1000
,
0001
0100
0010
0001
,
1000
0100
0010
0001
,
0100
0010
1000
0001
,
1000
0100
0010
0001
,
1000
0010
0100
0001
,
0010
0001
0100
0010
,
1000
0100
0010
0001
,
0100
0010
1000
0001
,
0100
0010
1000
0010
,
0001
0100
0010
1000
,
0100
0010
0001
1000
,
0010
0100
0001
1000
,
0100
0010
0001
0100
,
0010
0001
1000
0100
,
0001
0100
0010
1000
,
0001
0100
0010
0001
,
1000
0100
0010
0001
,
0100
0010
1000
0001
,
1000
0100
0010
0001
,
1000
0010
0100
0001
,
0010
0001
0100
0010
,
1000
0100
0010
0001
,
0100
0010
1000
0001
,
0100
0010
1000
0010
,
0001
0100
0010
1000
,
0100
0010
0001
1000
,
0010
0100
0001
1000
,
0100
0010
0001
0100
,
0010
0001
1000
0100
,
0001
0100
0010
1000
,
0001
0100
0010
0001
,
1000
0100
0010
0001
,
0100
0010
1000
0001
,
1000
0100
0010
0001
,
1000
0010
0100
0001
,
0010
0001
0100
0010
,
1000
0100
0010
0001
,
0100
0010
1000
0001
,
0100
0010
1000
0010
,
0001
0100
0010
1000
,
0100
0010
0001
1000
,
0010
0100
0001
1000
,
0100
0010
0001
0100
,
0010
0001
1000
0100
,
0001
0100
0010
1000
,
0001
0100
0010
0001
,
1000
0100
0010
0001
,
0100
0010
1000
0001
,
1000
0100
0010
0001
,
1000
0010
0100
0001
,
0010
0001
0100
0010
,
1000
0100
0010
0001
,
0100
0010
1000
0001
,
0100
0010
1000
0010
,
0001
0100
0010
1000
,
0100
0010
0001
1000
,
0010
0100
0001
1000
,
0100
0010
0001
0100
,
0010
0001
1000
0100
,
0001
0100
0010
1000
,
0001
0100
0010
0001
,
1000
0100
0010
0001
,
0100
0010
1000
0001
,
1000
0100
0010
0001
,
1000
0010
0100
0001
,
0010
0001
0100
0010
,
1000
0100
0010
0001
,
0100
0010
1000
0001
,
0100
0010
1000
0010
,
0001
0100
0010
1000
,
0100
0010
0001
1000
,
0010
0100
0001
1000
,
0100
0010
0001
0100
,
0010
0001
1000
0100
,
0001
0100
0010
1000
,
0001
0100
0010
0001
,
1000
0100
0010
0001
,
0100
0010
1000
0001
,
1000
0100
0010
0001
,
1000
0010
0100
0001
,
0010
0001
0100
0010
,
1000
0100
0010
0001
,
0100
0010
1000
0001
,
0100
0010
1000
0010
,
0001
0100
0010
1000
,
0100
0010
0001
1000
,
0010
0100
0001
1000
,
0100
0010
0001
0100
,
0010
0001
1000
0100
,
0001
0100
0010
1000
,
0001
0100
0010
0001
,
1000
0100
0010
0001
,
0100
0010
1000
0001
,
1000
0100
0010
0001
,
1000
0010
0100
0001
,
0010
0001
0100
0010
,
1000
0100
0010
0001
,
0100
0010
1000
0001
,
0100
0010
1000
0010
,
0001
0100
0010
1000
,
0100
0010
0001
1000
,
0010
0100
0001
1000
,
0100
0010
0001
0100
,
0010
0001
1000
0100
,
0001
0100
0010
1000
,
0001
0100
0010
0001
,
1000
0100
0010
0001
,
0100
0010
1000
0001
,
1000
0100
0010
0001
,
1000
0010
0100
0001
,
0010
0001
0100
0010
,
1000
0100
0010
0001
,
0100
0010
1000
0001
,
0100
0010
1000
0010
,
0001
0100
0010
1000
,
0100
0010
0001
1000
,
0010
0100
0001
1000
,
0100
0010
0001
0100
,
0010
0001
1000
0100
,
0001
0100
0010
1000
,
0001
0100
0010
0001
,
1000
0100
0010
0001
,
0100
0010
1000
0001
,
1000
0100
0010
0001
,
1000
0010
0100
0001
,
0010
0001
0100
0010
,
1000
0100
0010
0001
,
0100
0010
1000
0001
,
0100
0010
1000
0010
,
0001
0100
0010
1000
,
0100
0010
0001
1000
,
0010
0100
0001
1000
,
0100
0010
0001
0100
,
0010
0001
1000
0100
,
0001
0100
0010
1000
,
0001
0100
0010
0001
,
1000
0100
0010
0001
,
0100
0010
1000
0001
,
1000
0100
0010
0001
,
1000
0010
0100
0001
,
0010
0001
0100
0010
,
1000
0100
0010
0001
,
0100
0010
1000
0001
,
0100
0010
1000
0010
,
0001
0100
0010
1000
,
0100
0010
0001
1000
,
0010
0100
0001
1000
,
0100
0010
0001
0100
,
0010
0001
1000
0100
,
0001
0100
0010
1000
,
0001
0100
0010
0001
,
1000
0100
0010
0001
,
0100
0010
1000
0001
,
1000
0100
0010
0001
,
1000
0010
0100
0001
,
0010
0001
0100
0010
,
1000
0100
0010
0001
,
0100
0010
1000
0001
,
0100
0010
1000
0010
,
0001
0100
0010
1000
,
0100
0010
0001
1000
,
0010
0100
0001
1000
,
0100
0010
0001
0100
,
0010
0001
1000
0100
,
0001
0100
0010
1000
,
0001
0100
0010
0001
,
1000
0100
0010
0001
,
0100
0010
1000
0001
,
1000
0100
0010
0001
,
1000
0010
0100
0001
,
0010
0001
0100
0010
,
1000
0100
0010
0001
,
0100
0010
1000
0001
,
0100
0010
1000
0010
,
0001
0100
0010
1000
,
0100
0010
0001
1000
,
0010
0100
0001
1000
,
0100
0010
0001
0100
,
0010
0001
1000
0100
,
0001
0100
0010
1000
,
0001
0100
0010
0001
,
1000
0100
0010
0001
,
0100
0010
1000
0001
,
0100
1000
0001
0010
,
0100
1000
0010
0100
,
0001
0010
0001
1000
,
0010
0100
0001
0010
,
0100
1000
0010
0100
,
0001
1000
0010
0100
,
1001
0000
0000
0000
,
0000
0000
0000
0000
,
0000
0000
0000
0000
,
0000
0000
0000
0000
,
0000
0000
0000
0000
,
1000
0100
0010
0001
,
1000
0010
0100
0001
,
0010
0001
0100
0010
,
1000
0100
0010
0001
,
0100
0010
1000
0001
,
0100
0010
1000
0010
,
0001
0100
0010
1000
,
0100
0010
0001
1000
,
0010
0100
0001
1000
,
0100
0010
0001
0100
,
0010
0001
1000
0100
,
0001
0100
0010
1000
,
0001
0100
0010
0001
,
1000
0100
0010
0001
,
0100
0010
1000
0001
,
1000
0100
0010
0001
,
1000
0010
0100
0001
,
0010
0001
0100
0010
,
1000
0100
0010
0001
,
0100
0010
1000
0001
,
0100
0010
1000
0010
,
0001
0100
0010
1000
,
0100
0010
0001
1000
,
0010
0100
0001
1000
,
0100
0010
0001
0100
,
0010
0001
1000
0100
,
0001
0100
0010
1000
,
0001
0100
0010
0001
,
1000
0100
0010
0001
,
0100
0010
1000
0001
,
1000
0100
0010
0001
,
1000
0010
0100
0001
,
0010
0001
0100
0010
,
1000
0100
0010
0001
,
0100
0010
1000
0001
,
0100
0010
1000
0010
,
0001
0100
0010
1000
,
0100
0010
0001
1000
,
0010
0100
0001
1000
,
0100
0010
0001
0100
,
0010
0001
1000
0100
,
0001
0100
0010
1000
,
0001
0100
0010
0001
,
1000
0100
0010
0001
,
0100
0010
1000
0001
,
1000
0100
0010
0001
,
1000
0010
0100
0001
,
0010
0001
0100
0010
,
1000
0100
0010
0001
,
0100
0010
1000
0001
,
0100
0010
1000
0010
,
0001
0100
0010
1000
,
0100
0010
0001
1000
,
0010
0100
0001
1000
,
0100
0010
0001
0100
,
0010
0001
1000
0100
,
0001
0100
0010
1000
,
0001
0100
0010
0001
,
1000
0100
0010
0001
,
0100
0010
1000
0001
,
1000
0100
0010
0001
,
1000
0010
0100
0001
,
0010
0001
0100
0010
,
1000
0100
0010
0001
,
0100
0010
1000
0001
,
0100
0010
1000
0010
,
0001
0100
0010
1000
,
0100
0010
0001
1000
,
0010
0100
0001
1000
,
0100
0010
0001
0100
,
0010
0001
1000
0100
,
0001
0100
0010
1000
,
0001
0100
0010
0001
,
1000
0100
0010
0001
,
0100
0010
1000
0001
,
1000
0100
0010
0001
,
1000
0010
0100
0001
,
0010
0001
0100
0010
,
1000
0100
0010
0001
,
0100
0010
1000
0001
,
0100
0010
1000
0010
,
0001
0100
0010
1000
,
0100
0010
0001
1000
,
0010
0100
0001
1000
,
0100
0010
0001
0100
,
0010
0001
1000
0100
,
0001
0100
0010
1000
,
0001
0100
0010
0001
,
1000
0100
0010
0001
,
0100
0010
1000
0001
,
1000
0100
0010
0001
,
1000
0010
0100
0001
,
0010
0001
0100
0010
,
1000
0100
0010
0001
,
0100
0010
1000
0001
,
0100
0010
1000
0010
,
0001
0100
0010
1000
,
0100
0010
0001
1000
,
0010
0100
0001
1000
,
0100
0010
0001
0100
,
0010
0001
1000
0100
,
0001
0100
0010
1000
,
0001
0100
0010
0001
,
1000
0100
0010
0001
,
0100
0010
1000
0001
,
1000
0100
0010
0001
,
1000
0010
0100
0001
,
0010
0001
0100
0010
,
1000
0100
0010
0001
,
0100
0010
1000
0001
,
0100
0010
1000
0010
,
0001
0100
0010
1000
,
0100
0010
0001
1000
,
0010
0100
0001
1000
,
0100
0010
0001
0100
,
0010
0001
1000
0100
,
0001
0100
0010
1000
,
0001
0100
0010
0001
,
1000
0100
0010
0001
,
0100
0010
1000
0001
,
1000
0100
0010
0001
,
1000
0010
0100
0001
,
0010
0001
0100
0010
,
1000
0100
0010
0001
,
0100
0010
1000
0001
,
0100
0010
1000
0010
,
0001
0100
0010
1000
,
0100
0010
0001
1000
,
0010
0100
0001
1000
,
0100
0010
0001
0100
,
0010
0001
1000
0100
,
0001
0100
0010
1000
,
0001
0100
0010
0001
,
1000
0100
0010
0001
,
0100
0010
1000
0001
,
1000
0100
0010
0001
,
1000
0010
0100
0001
,
0010
0001
0100
0010
,
1000
0100
0010
0001
,
0100
0010
1000
0001
,
0100
0010
1000
0010
,
0001
0100
0010
1000
,
0100
0010
0001
1000
,
0010
0100
0001
1000
,
0100
0010
0001
0100
,
0010
0001
1000
0100
,
0001
0100
0010
1000
,
0001
0100
0010
0001
,
1000
0100
0010
0001
,
0100
0010
1000
0001
,
1000
0100
0010
0001
,
1000
0010
0100
0001
,
0010
0001
0100
0010
,
1000
0100
0010
0001
,
0100
0010
1000
0001
,
0100
0010
1000
0010
,
0001
0100
0010
1000
,
0100
0010
0001
1000
,
0010
0100
0001
1000
,
0100
0010
0001
0100
,
0010
0001
1000
0100
,
0001
0100
0010
1000
,
0001
0100
0010
0001
,
1000
0100
0010
0001
,
0100
0010
1000
0001
,
1000
0100
0010
0001
,
1000
0010
0100
0001
,
0010
0001
0100
0010
,
1000
0100
0010
0001
,
0100
0010
1000
0001
,
0100
0010
1000
0010
,
0001
0100
0010
1000
,
0100
0010
0001
1000
,
0010
0100
0001
1000
,
0100
0010
0001
0100
,
0010
0001
1000
0100
,
0001
0100
0010
1000
,
0001
0100
0010
0001
,
1000
0100
0010
0001
,
0100
0010
1000
0001
,
1000
0100
0010
0001
,
1000
0010
0100
0001
,
0010
0001
0100
0010
,
1000
0100
0010
0001
,
0100
0010
1000
0001
,
0100
0010
1000
0010
,
0001
0100
0010
1000
,
0100
0010
0001
1000
,
0010
0100
0001
1000
,
0100
0010
0001
0100
,
0010
0001
1000
0100
,
0001
0100
0010
1000
,
0001
0100
0010
0001
,
1000
0100
0010
0001
,
0100
0010
1000
0001
,
1000
0100
0010
0001
,
1000
0010
0100
0001
,
0010
0001
0100
0010
,
1000
0100
0010
0001
,
0100
0010
1000
0001
,
0100
0010
1000
0010
,
0001
0100
0010
1000
,
0100
0010
0001
1000
,
0010
0100
0001
1000
,
0100
0010
0001
0100
,
0010
0001
1000
0100
,
0001
0100
0010
1000
,
0001
0100
0010
0001
,
1000
0100
0010
0001
,
0100
0010
1000
0001
,
1000
0100
0010
0001
,
1000
0010
0100
0001
,
0010
0001
0100
0010
,
1000
0100
0010
0001
,
0100
0010
1000
0001
,
0100
0010
1000
0010
,
0001
0100
0010
1000
,
0100
0010
0001
1000
,
0010
0100
0001
1000
,
0100
0010
0001
0100
,
0010
0001
1000
0100
,
0001
0100
0010
1000
,
0001
0100
0010
0001
,
1000
0100
0010
0001
,
0100
0010
1000
0001
,
1000
0100
0010
0001
,
1000
0010
0100
0001
,
0010
0001
0100
0010
,
1000
0100
0010
0001
,
0100
0010
1000
0001
,
0100
0010
1000
0010
,
0001
0100
0010
1000
,
0100
0010
0001
1000
,
0010
0100
0001
1000
,
0100
0010
0001
0100
,
0010
0001
1000
0100
,
0001
0100
0010
1000
,
0001
0100
0010
0001
,
1000
0100
0010
0001
,
0100
0010
1000
0001
,
1000
0100
0010
0001
,
1000
0010
0100
0001
,
0010
0001
0100
0010
,
1000
0100
0010
0001
,
0100
0010
1000
0001
,
0100
0010
1000
0010
,
0001
0100
0010
1000
,
0100
0010
0001
1000
,
0010
0100
0001
1000
,
0100
0010
0001
0100
,
0010
0001
1000
0100
,
0001
0100
0010
1000
,
0001
0100
0010
0001
,
1000
0100
0010
0001
,
0100
0010
1000
0001
,
1000
0100
0010
0001
,
1000
0010
0100
0001
,
0010
0001
0100
0010
,
1000
0100
0010
0001
,
0100
0010
1000
0001
,
0100
0010
1000
0010
,
0001
0100
0010
1000
,
0100
0010
0001
1000
,
0010
0100
0001
1000
,
0100
0010
0001
0100
,
0010
0001
1000
0100
,
0001
0100
0010
1000
,
0001
0100
0010
0001
,
1000
0100
0010
0001
,
0100
0010
1000
0001
,
0100
1000
0001
0010
,
0100
1000
0010
0100
,
0001
0010
0001
1000
,
0010
0100
0001
0010
,
0100
1000
0010
0100
,
0001
1000
0010
0100
,
0001
0010
1000
0001
,
1000
0100
0010
0001
,
1000
0010
0100
0001
,
0010
0001
0100
0010
,
1000
0100
0010
0001
,
0100
0010
1000
0001
,
0100
0010
1000
0010
,
0001
0100
0010
1000
,
0100
0010
0001
1000
,
0010
0100
0001
1000
,
0100
0010
0001
0100
,
0010
0001
1000
0100
,
0001
0100
0010
1000
,
0001
0100
0010
0001
,
1000
0100
0010
0001
,
0100
0010
1000
0001
,
0100
1000
0001
0010
,
0100
1000
0010
0100
,
0001
0010
0001
1000
,
0010
0100
0001
0010
,
0100
1000
0010
0100
,
0001
1000
0010
0100
,
0001
1000
0010
0100
,
0001
1000
0100
0010
,
0001
0100
0010
1000
,
0010
0001
0010
0100
,
1000
0010
1000
0001
,
0010
0001
1000
0010
,
0100
0001
1000
0010
,
0100
1000
0001
0010
,
0100
0001
1000
0100
,
1001
0000
0000
0000
,
0000
0000
0000
0000
,
0000
0000
0000
0000
,
0000
0000
0000
0000
,
0000
0000
0000
0000
,
0000
0000
0000
0000
,
0000
0000
0000
0000
,
0000
0000
0000
0000
,
0000
0000
0000
0000
,
1000
0100
0010
0001
,
1000
0010
0100
0001
,
0010
0001
0100
0010
,
1000
0100
0010
0001
,
0100
0010
1000
0001
,
0100
0010
1000
0010
,
0001
0100
0010
1000
,
0100
0010
0001
1000
,
0010
0100
0001
1000
,
0100
0010
0001
0100
,
0010
0001
1000
0100
,
0001
0100
0010
1000
,
0001
0100
0010
0001
,
1000
0100
0010
0001
,
0100
0010
1000
0001
,
1000
0100
0010
0001
,
1000
0010
0100
0001
,
0010
0001
0100
0010
,
1000
0100
0010
0001
,
0100
0010
1000
0001
,
0100
0010
1000
0010
,
0001
0100
0010
1000
,
0100
0010
0001
1000
,
0010
0100
0001
1000
,
0100
0010
0001
0100
,
0010
0001
1000
0100
,
0001
0100
0010
1000
,
0001
0100
0010
0001
,
1000
0100
0010
0001
,
0100
0010
1000
0001
,
1000
0100
0010
0001
,
1000
0010
0100
0001
,
0010
0001
0100
0010
,
1000
0100
0010
0001
,
0100
0010
1000
0001
,
0100
0010
1000
0010
,
0001
0100
0010
1000
,
0100
0010
0001
1000
,
0010
0100
0001
1000
,
0100
0010
0001
0100
,
0010
0001
1000
0100
,
0001
0100
0010
1000
,
0001
0100
0010
0001
,
1000
0100
0010
0001
,
0100
0010
1000
0001
,
1000
0100
0010
0001
,
1000
0010
0100
0001
,
0010
0001
0100
0010
,
1000
0100
0010
0001
,
0100
0010
1000
0001
,
0100
0010
1000
0010
,
0001
0100
0010
1000
,
0100
0010
0001
1000
,
0010
0100
0001
1000
,
0100
0010
0001
0100
,
0010
0001
1000
0100
,
0001
0100
0010
1000
,
0001
0100
0010
0001
,
1000
0100
0010
0001
,
0100
0010
1000
0001
,
1000
0100
0010
0001
,
1000
0010
0100
0001
,
0010
0001
0100
0010
,
1000
0100
0010
0001
,
0100
0010
1000
0001
,
0100
0010
1000
0010
,
0001
0100
0010
1000
,
0100
0010
0001
1000
,
0010
0100
0001
1000
,
0100
0010
0001
0100
,
0010
0001
1000
0100
,
0001
0100
0010
1000
,
0001
0100
0010
0001
,
1000
0100
0010
0001
,
0100
0010
1000
0001
,
1000
0100
0010
0001
,
1000
0010
0100
0001
,
0010
0001
0100
0010
,
1000
0100
0010
0001
,
0100
0010
1000
0001
,
0100
0010
1000
0010
,
0001
0100
0010
1000
,
0100
0010
0001
1000
,
0010
0100
0001
1000
,
0100
0010
0001
0100
,
0010
0001
1000
0100
,
0001
0100
0010
1000
,
0001
0100
0010
0001
,
1000
0100
0010
0001
,
0100
0010
1000
0001
,
1000
0100
0010
0001
,
1000
0010
0100
0001
,
0010
0001
0100
0010
,
1000
0100
0010
0001
,
0100
0010
1000
0001
,
0100
0010
1000
0010
,
0001
0100
0010
1000
,
0100
0010
0001
1000
,
0010
0100
0001
1000
,
0100
0010
0001
0100
,
0010
0001
1000
0100
,
0001
0100
0010
1000
,
0001
0100
0010
0001
,
1000
0100
0010
0001
,
0100
0010
1000
0001
,
1000
0100
0010
0001
,
1000
0010
0100
0001
,
0010
0001
0100
0010
,
1000
0100
0010
0001
,
0100
0010
1000
0001
,
0100
0010
1000
0010
,
0001
0100
0010
1000
,
0100
0010
0001
1000
,
0010
0100
0001
1000
,
0100
0010
0001
0100
,
0010
0001
1000
0100
,
0001
0100
0010
1000
,
0001
0100
0010
0001
,
1000
0100
0010
0001
,
0100
0010
1000
0001
,
1000
0100
0010
0001
,
1000
0010
0100
0001
,
0010
0001
0100
0010
,
1000
0100
0010
0001
,
0100
0010
1000
0001
,
0100
0010
1000
0010
,
0001
0100
0010
1000
,
0100
0010
0001
1000
,
0010
0100
0001
1000
,
0100
0010
0001
0100
,
0010
0001
1000
0100
,
0001
0100
0010
1000
,
0001
0100
0010
0001
,
1000
0100
0010
0001
,
0100
0010
1000
0001
,
1000
0100
0010
0001
,
1000
0010
0100
0001
,
0010
0001
0100
0010
,
1000
0100
0010
0001
,
0100
0010
1000
0001
,
0100
0010
1000
0010
,
0001
0100
0010
1000
,
0100
0010
0001
1000
,
0010
0100
0001
1000
,
0100
0010
0001
0100
,
0010
0001
1000
0100
,
0001
0100
0010
1000
,
0001
0100
0010
0001
,
1000
0100
0010
0001
,
0100
0010
1000
0001
,
1000
0100
0010
0001
,
1000
0010
0100
0001
,
0010
0001
0100
0010
,
1000
0100
0010
0001
,
0100
0010
1000
0001
,
0100
0010
1000
0010
,
0001
0100
0010
1000
,
0100
0010
0001
1000
,
0010
0100
0001
1000
,
0100
0010
0001
0100
,
0010
0001
1000
0100
,
0001
0100
0010
1000
,
0001
0100
0010
0001
,
1000
0100
0010
0001
,
0100
0010
1000
0001
,
1000
0100
0010
0001
,
1000
0010
0100
0001
,
0010
0001
0100
0010
,
1000
0100
0010
0001
,
0100
0010
1000
0001
,
0100
0010
1000
0010
,
0001
0100
0010
1000
,
0100
0010
0001
1000
,
0010
0100
0001
1000
,
0100
0010
0001
0100
,
0010
0001
1000
0100
,
0001
0100
0010
1000
,
0001
0100
0010
0001
,
1000
0100
0010
0001
,
0100
0010
1000
0001
,
1000
0100
0010
0001
,
1000
0010
0100
0001
,
0010
0001
0100
0010
,
1000
0100
0010
0001
,
0100
0010
1000
0001
,
0100
0010
1000
0010
,
0001
0100
0010
1000
,
0100
0010
0001
1000
,
0010
0100
0001
1000
,
0100
0010
0001
0100
,
0010
0001
1000
0100
,
0001
0100
0010
1000
,
0001
0100
0010
0001
,
1000
0100
0010
0001
,
0100
0010
1000
0001
,
1000
0100
0010
0001
,
1000
0010
0100
0001
,
0010
0001
0100
0010
,
1000
0100
0010
0001
,
0100
0010
1000
0001
,
0100
0010
1000
0010
,
0001
0100
0010
1000
,
0100
0010
0001
1000
,
0010
0100
0001
1000
,
0100
0010
0001
0100
,
0010
0001
1000
0100
,
0001
0100
0010
1000
,
0001
0100
0010
0001
,
1000
0100
0010
0001
,
0100
0010
1000
0001
,
1000
0100
0010
0001
,
1000
0010
0100
0001
,
0010
0001
0100
0010
,
1000
0100
0010
0001
,
0100
0010
1000
0001
,
0100
0010
1000
0010
,
0001
0100
0010
1000
,
0100
0010
0001
1000
,
0010
0100
0001
1000
,
0100
0010
0001
0100
,
0010
0001
1000
0100
,
0001
0100
0010
1000
,
0001
0100
0010
0001
,
1000
0100
0010
0001
,
0100
0010
1000
0001
,
1000
0100
0010
0001
,
1000
0010
0100
0001
,
0010
0001
0100
0010
,
1000
0100
0010
0001
,
0100
0010
1000
0001
,
0100
0010
1000
0010
,
0001
0100
0010
1000
,
0100
0010
0001
1000
,
0010
0100
0001
1000
,
0100
0010
0001
0100
,
0010
0001
1000
0100
,
0001
0100
0010
1000
,
0001
0100
0010
0001
,
1000
0100
0010
0001
,
0100
0010
1000
0001
,
1000
0100
0010
0001
,
1000
0010
0100
0001
,
0010
0001
0100
0010
,
1000
0100
0010
0001
,
0100
0010
1000
0001
,
0100
0010
1000
0010
,
0001
0100
0010
1000
,
0100
0010
0001
1000
,
0010
0100
0001
1000
,
0100
0010
0001
0100
,
0010
0001
1000
0100
,
0001
0100
0010
1000
,
0001
0100
0010
0001
,
1000
0100
0010
0001
,
0100
0010
1000
0001
,
1000
0100
0010
0001
,
1000
0010
0100
0001
,
0010
0001
0100
0010
,
1000
0100
0010
0001
,
0100
0010
1000
0001
,
0100
0010
1000
0010
,
0001
0100
0010
1000
,
0100
0010
0001
1000
,
0010
0100
0001
1000
,
0100
0010
0001
0100
,
0010
0001
1000
0100
,
0001
0100
0010
1000
,
0001
0100
0010
0001
,
1000
0100
0010
0001
,
0100
0010
1000
0001
,
0100
1000
0001
0010
,
0100
1000
0010
0100
,
0001
0010
0001
1000
,
0010
0100
0001
0010
,
0100
1000
0010
0100
,
0001
1000
0010
0100
,
0001
0010
1000
0001
,
1000
0100
0010
0001
,
1000
0010
0100
0001
,
0010
0001
0100
0010
,
1000
0100
0010
0001
,
0100
0010
1000
0001
,
0100
0010
1000
0010
,
0001
0100
0010
1000
,
0100
0010
0001
1000
,
0010
0100
0001
1000
,
0100
0010
0001
0100
,
0010
0001
1000
0100
,
0001
0100
0010
1000
,
0001
0100
0010
0001
,
1000
0100
0010
0001
,
0100
0010
1000
0001
,
0100
1000
0001
0010
,
0100
1000
0010
0100
,
0001
0010
0001
1000
,
0010
0100
0001
0010
,
0100
1000
0010
0100
,
0001
1000
0010
0100
,
0001
1000
0010
0100
,
0001
1000
0100
0010
,
0001
0100
0010
1000
,
0010
0001
0010
0100
,
2002
0000
0000
0000
,
3003
0000
0000
0000
,
0000
0000
0000
0000
,
0000
0000
0000
0000
,
0000
0000
0000
0000
,
0000
0000
0000
0000
,
0000
0000
0000
0000
,
0000
0000
0000
0000
,
0000
0000
0000
0000
,
0000
0000
0000
0000
,
0000
0000
0000
0000
,
0000
0000
0000
0000
,
0000
0000
0000
0000
,
0000
0000
1000
0100
,
0010
0001
1000
0010
,
0100
0001
0010
0001
,
0100
0010
1000
0100
,
0010
0001
0100
0010
,
1000
0001
0100
0010
,
1000
0010
0001
0100
,
0010
1000
0100
0010
,
0001
1000
0010
0100
,
0001
1000
0100
0010
,
0001
0100
0010
0001
,
1000
0100
0001
0100
,
0010
1000
0001
0100
,
0010
0001
1000
0100
,
0010
0001
0100
0010
,
1000
0001
1000
0100
,
0010
0001
1000
0010
,
0100
0001
0010
0001
,
0100
0010
1000
0100
,
0010
0001
0100
0010
,
1000
0001
0100
0010
,
1000
0010
0001
0100
,
0010
1000
0100
0010
,
0001
1000
0010
0100
,
0001
1000
0100
0010
,
0001
0100
0010
0001
,
1000
0100
0001
0100
,
0010
1000
0001
0100
,
0010
0001
1000
0100
,
0010
0001
0100
0010
,
1000
0001
1000
0100
,
0010
0001
1000
0010
,
0100
0001
0010
0001
,
0100
0010
1000
0100
,
0010
0001
0100
0010
,
1000
0001
0100
0010
,
1000
0010
0001
0100
,
0010
1000
0100
0010
,
0001
1000
0010
0100
,
0001
1000
0100
0010
,
0001
0100
0010
0001
,
1000
0100
0001
0100
,
0010
1000
0001
0100
,
0010
0001
1000
0100
,
0010
0001
0100
0010
,
1000
0001
1000
0100
,
0010
0001
1000
0010
,
0100
0001
0010
0001
,
0100
0010
1000
0100
,
0010
0001
0100
0010
,
1000
0001
0100
0010
,
1000
0010
0001
0100
,
0010
1000
0100
0010
,
0001
1000
0010
0100
,
0001
1000
0100
0010
,
0001
0100
0010
0001
,
1000
0100
0001
0100
,
0010
1000
0001
0100
,
0010
0001
1000
0100
,
0010
0001
0100
0010
,
1000
0001
1000
0100
,
0010
0001
1000
0010
,
0100
0001
0010
0001
,
0100
0010
1000
0100
,
0010
0001
0100
0010
,
1000
0001
0100
0010
,
1000
0010
0001
0100
,
0010
1000
0100
0010
,
0001
1000
0010
0100
,
0001
1000
0100
0010
,
0001
0100
0010
0001
,
1000
0100
0001
0100
,
0010
1000
0001
0100
,
0010
0001
1000
0100
,
0010
0001
0100
0010
,
1000
0001
1000
0100
,
0010
0001
1000
0010
,
0100
0001
0010
0001
,
0100
0010
1000
0100
,
0010
0001
0100
0010
,
1000
0001
0100
0010
,
1000
0010
0001
0100
,
0010
1000
0100
0010
,
0001
1000
0010
0100
,
0001
1000
0100
0010
,
0001
0100
0010
0001
,
1000
0100
0001
0100
,
0010
1000
0001
0100
,
0010
0001
1000
0100
,
0010
0001
0100
0010
,
1000
0001
1000
0100
,
0010
0001
1000
0010
,
0100
0001
0010
0001
,
0100
0010
1000
0100
,
0010
0001
0100
0010
,
1000
0001
0100
0010
,
1000
0010
0001
0100
,
0010
1000
0100
0010
,
0001
1000
0010
0100
,
0001
1000
0100
0010
,
0001
0100
0010
0001
,
1000
0100
0001
0100
,
0010
1000
0001
0100
,
0010
0001
1000
0100
,
0010
0001
0100
0010
,
1000
0001
1000
0100
,
0010
0001
1000
0010
,
0100
0001
0010
0001
,
0100
0010
1000
0100
,
0010
0001
0100
0010
,
1000
0001
0100
0010
,
1000
0010
0001
0100
,
0010
1000
0100
0010
,
0001
1000
0010
0100
,
0001
1000
0100
0010
,
0001
0100
0010
0001
,
1000
0100
0001
0100
,
0010
1000
0001
0100
,
0010
0001
1000
0100
,
0010
0001
0100
0010
,
1000
0001
1000
0100
,
0010
0001
1000
0010
,
0100
0001
0010
0001
,
0100
0010
1000
0100
,
0010
0001
0100
0010
,
1000
0001
0100
0010
,
1000
0010
0001
0100
,
0010
1000
0100
0010
,
0001
1000
0010
0100
,
0001
1000
0100
0010
,
0001
0100
0010
0001
,
1000
0100
0001
0100
,
0010
1000
0001
0100
,
0010
0001
1000
0100
,
0010
0001
0100
0010
,
1000
0001
1000
0100
,
0010
0001
1000
0010
,
0100
0001
0010
0001
,
0100
0010
1000
0100
,
0010
0001
0100
0010
,
1000
0001
0100
0010
,
1000
0010
0001
0100
,
0010
1000
0100
0010
,
0001
1000
0010
0100
,
0001
1000
0100
0010
,
0001
0100
0010
0001
,
1000
0100
0001
0100
,
0010
1000
0001
0100
,
0010
0001
1000
0100
,
0010
0001
0100
0010
,
1000
0001
1000
0100
,
0010
0001
1000
0010
,
0100
0001
0010
0001
,
0100
0010
1000
0100
,
0010
0001
0100
0010
,
1000
0001
0100
0010
,
1000
0010
0001
0100
,
0010
1000
0100
0010
,
0001
1000
0010
0100
,
0001
1000
0100
0010
,
0001
0100
0010
0001
,
1000
0100
0001
0100
,
0010
1000
0001
0100
,
0010
0001
1000
0100
,
0010
0001
0100
0010
,
1000
0001
1000
0100
,
0010
0001
1000
0010
,
0100
0001
0010
0001
,
0100
0010
1000
0100
,
0010
0001
0100
0010
,
1000
0001
0100
0010
,
1000
0010
0001
0100
,
0010
1000
0100
0010
,
0001
1000
0010
0100
,
0001
1000
0100
0010
,
0001
0100
0010
0001
,
1000
0100
0001
0100
,
0010
1000
0001
0100
,
0010
0001
1000
0100
,
0010
0001
0100
0010
,
1000
0001
1000
0100
,
0010
0001
1000
0010
,
0100
0001
0010
0001
,
0100
0010
1000
0100
,
0010
0001
0100
0010
,
1000
0001
0100
0010
,
1000
0010
0001
0100
,
0010
1000
0100
0010
,
0001
1000
0010
0100
,
0001
1000
0100
0010
,
0001
0100
0010
0001
,
1000
0100
0001
0100
,
0010
1000
0001
0100
,
0010
0001
1000
0100
,
0010
0001
0100
0010
,
1000
0001
1000
0100
,
0010
0001
1000
0010
,
0100
0001
0010
0001
,
0100
0010
1000
0100
,
0010
0001
0100
0010
,
1000
0001
0100
0010
,
1000
0010
0001
0100
,
0010
1000
0100
0010
,
0001
1000
0010
0100
,
0001
1000
0100
0010
,
0001
0100
0010
0001
,
1000
0100
0001
0100
,
0010
1000
0001
0100
,
0010
0001
1000
0100
,
0010
0001
0100
0010
,
1000
0001
1000
0100
,
0010
0001
1000
0010
,
0100
0001
0010
0001
,
0100
0010
1000
0100
,
0010
0001
0100
0010
,
1000
0001
0100
0010
,
1000
0010
0001
0100
,
0010
1000
0100
0010
,
0001
1000
0010
0100
,
0001
1000
0100
0010
,
0001
0100
0010
0001
,
1000
0100
0001
0100
,
0010
1000
0001
0100
,
0010
0001
1000
0100
,
0010
0001
0100
0010
,
1000
0001
1000
0100
,
0010
0001
1000
0010
,
0100
0001
0010
0001
,
0100
0010
1000
0100
,
0010
0001
0100
0010
,
1000
0001
0100
0010
,
1000
0010
0001
0100
,
0010
1000
0100
0010
,
0001
1000
0010
0100
,
0001
1000
0100
0010
,
0001
0100
0010
0001
,
1000
0100
0001
0100
,
0010
1000
0001
0100
,
0010
0001
1000
0100
,
0010
0001
0100
0010
,
1000
0001
1000
0100
,
0010
0001
1000
0010
,
0100
0001
0010
0001
,
0100
0010
1000
0100
,
0010
0001
0100
0010
,
1000
0001
0100
0010
,
1000
0010
0001
0100
,
0010
1000
0100
0010
,
0001
1000
0010
0100
,
0001
1000
0100
0010
,
0001
0100
0010
0001
,
1000
0100
0001
0100
,
0010
1000
0001
0100
,
0010
0001
1000
0100
,
0010
0001
0100
0010
,
1000
0001
1000
0100
,
0010
0001
1000
0010
,
0100
0001
0010
0001
,
0100
0010
1000
0100
,
0010
0001
0100
0010
,
1000
0001
0100
0010
,
1000
0010
0001
0100
,
0010
1000
0100
0010
,
0001
1000
0010
0100
,
0001
1000
0100
0010
,
0001
0100
0010
0001
,
1000
0100
0001
0100
,
0010
1000
0001
0100
,
0010
0001
1000
0100
,
0010
0001
0100
0010
,
1000
0001
0100
1000
,
0001
0010
0100
1000
,
0010
0100
0001
0010
,
0001
1000
0010
0100
,
0001
0010
0100
1000
,
0010
0100
0001
1000
,
0010
0100
0001
0010
,
1000
0001
1000
0100
,
0010
0001
1000
0010
,
0100
0001
0010
0001
,
0100
0010
1000
0100
,
0010
0001
0100
0010
,
1000
0001
0100
0010
,
1000
0010
0001
0100
,
0010
1000
0100
0010
,
0001
1000
0010
0100
,
0001
1000
0100
0010
,
0001
0100
0010
0001
,
1000
0100
0001
0100
,
0010
1000
0001
0100
,
0010
0001
1000
0100
,
0010
0001
0100
0010
,
1000
0001
0100
1000
,
0001
0010
0100
1000
,
0010
0100
0001
0010
,
0001
1000
0010
0100
,
0001
0010
0100
1000
,
0010
0100
0001
1000
,
0010
0100
0001
1000
,
0010
0100
0001
1000
,
0100
0010
0001
0100
,
0010
1000
0010
0001
,
0010
0100
1000
0010
,
1000
0001
0010
0001
,
1000
0010
0100
0001
,
1000
0010
0100
1000
,
0001
0010
0100
0001
,
1000
0100
1000
0001
,
0010
0001
0100
0010
,
1000
0100
0010
0001
,
0100
0010
1000
0001
,
0100
0010
1000
0010
,
0001
0100
0010
1000
,
0100
0010
0001
1000
,
0010
0100
0001
1000
,
0100
0010
0001
0100
,
0010
0001
1000
0100
,
0001
0100
0010
1000
,
0001
0100
0010
0001
,
1000
0100
0010
0001
,
0100
0010
1000
0001
,
0100
1000
0001
0010
,
0100
1000
0010
0100
,
0001
0010
0001
1000
,
0010
0100
0001
0010
,
0100
1000
0010
0100
,
0001
1000
0010
0100
,
0001
0010
1000
0001
,
1000
0100
0010
0001
,
1000
0010
0100
0001
,
0010
0001
0100
0010
,
1000
0100
0010
0001
,
0100
0010
1000
0001
,
0100
0010
1000
0010
,
0001
0100
0010
1000
,
0100
0010
0001
1000
,
0010
0100
0001
1000
,
0100
0010
0001
0100
,
0010
0001
1000
0100
,
0001
0100
0010
1000
,
0001
0100
0010
0001
,
1000
0100
0010
0001
,
0100
0010
1000
0001
,
0100
1000
0001
0010
,
0100
1000
0010
0100
,
0001
0010
0001
1000
,
0010
0100
0001
0010
,
0100
1000
0010
0100
,
0001
1000
0010
0100
,
0001
1000
0010
0100
,
0001
1000
0100
0010
,
0001
0100
0010
1000
,
0010
0001
0010
0100
,
1000
0010
1000
0001
,
0010
0001
1000
0010
,
0100
0001
1000
0010
,
0100
1000
0001
0010
,
0100
0001
1000
0100
,
0010
0100
0001
1000
,
0100
0010
0001
0100
,
0010
0001
1000
0100
,
0001
0100
0010
1000
,
0001
0100
0010
0001
,
1000
0100
0010
0001
,
0100
0010
1000
0001
,
0100
1000
0001
0010
,
0100
1000
0010
0100
,
0001
0010
0001
1000
,
0010
0100
0001
0010
,
0100
1000
0010
0100
,
0001
1000
0010
0100
,
0001
1000
0010
0100
,
0001
1000
0100
0010
,
0001
0100
0010
1000
,
0010
0001
0010
0100
,
1000
0010
2002
0000
,
3003
0000
0000
0000
;

//---------------dance-single - ----------------
#NOTES:
     dance-single:
     :
     Hard:
     8:
     0.537,0.803,0.131,0.035,0.031,7822.000,286.000,77.000,298.000,1.000:
0000
0000
0000
0000
,
0000
0000
0000
0000
,
0000
0000
0000
0000
,
0000
0000
0000
0000
,
1000
0001
1000
0000
0010
0100
0010
0000
,
1000
0100
1000
0001
1000
0010
1000
0000
,
1000
0001
0010
0000
0010
0001
1000
0000
,
1000
0001
0100
0010
0100
0001
0010
0000
,
0001
0000
1000
0001
1000
0000
1000
0010
,
1000
0000
1000
0001
0010
0100
0001
0000
,
0110
0000
1001
0000
0001
0100
0010
1000
,
0001
0000
0010
0001
0010
0100
1000
0000
,
1001
0000
0010
0000
1000
0001
0010
0000
,
0010
0001
1000
0010
1000
0001
0010
0000
,
1000
0100
0001
0000
0001
0100
1000
0000
,
1000
0010
1000
0010
1000
0001
0010
0000
,
0001
1001
0110
1010
,
0101
0011
0110
0110
,
1000
0000
1001
0000
1000
0010
1000
0010
,
1000
0000
0001
0000
0100
0010
1000
0000
,
1001
0000
0100
0001
0010
0000
0010
0100
,
0001
0000
0001
0010
0100
0000
0100
1000
,
0010
0000
1000
0001
1000
0000
1000
0000
,
1000
0000
1000
0001
0010
0000
0010
0000
,
0001
1000
0010
0000
0010
1000
0001
0000
,
0010
0000
0100
0000
1000
0001
1000
0000
,
1000
0010
1000
0000
0100
0001
0010
0000
,
0010
0000
0001
1000
0000
0000
0010
0000
,
0100
0000
0001
0000
1000
0100
0001
0000
,
1000
0000
0010
1000
0010
0100
0001
0000
,
0001
0000
0010
0100
1000
0000
1000
0000
,
0001
0000
1000
0010
0100
0001
1000
0010
,
0100
0001
1000
0100
0001
0100
1000
0010
,
1000
0001
0100
0010
1000
0001
1000
0010
,
1000
0001
0010
0100
1000
0001
0010
0100
,
1001
0100
1001
0100
1001
0100
1001
0100
,
1001
0000
0010
1000
0001
0000
0100
0001
,
1000
0000
1000
0001
1000
0000
0010
0001
,
0100
0000
0100
1000
0100
0000
0100
0001
,
0100
0000
1000
0010
1000
0001
0010
0100
,
0001
0000
1000
0010
1000
0000
0001
1000
,
0010
0000
1000
0001
1000
0100
1000
0000
,
1000
0000
0010
1000
0001
0000
0001
1000
,
0010
0000
0010
0100
0001
0010
0100
1000
,
1001
0000
0010
0000
1000
0001
1000
0000
,
0010
1000
0001
0000
0001
1000
0100
0000
,
0010
0000
1000
0001
1000
0000
1000
0010
,
1000
0000
1000
0001
0010
0100
1000
0100
,
0010
0001
1000
0100
0010
0001
1000
0100
,
0010
0001
1000
0100
0010
0001
1000
0100
,
0010
0001
1000
0100
0010
0001
1000
0100
,
1001
0001
1001
0001
1001
0001
1001
0001
,
1001
0000
0010
0100
0001
0000
0100
0000
,
1000
0001
1000
0000
1000
0000
0010
1000
,
0001
0000
0001
1000
0001
0000
0001
0000
,
0010
0100
0010
0000
0010
0000
1000
0001
,
1000
0000
1000
0100
0010
0000
0010
0000
,
0001
0000
1000
0001
1000
0000
1000
0000
,
0010
0100
0010
0000
1000
0000
0100
0000
,
1000
0001
1000
0000
1000
0010
0100
0001
,
1001
0000
0010
1000
0001
0000
1000
0001
,
1000
0000
1000
0010
1000
0000
1000
0100
,
0010
0000
0001
1000
0010
0000
0010
0100
,
0001
0000
0001
1000
0001
0000
1000
0010
,
1000
0000
1000
0100
0010
0001
1000
0000
,
1000
0000
1000
0001
1000
0010
1000
0001
,
1000
0000
1000
0001
0010
0000
0110
0000
,
2000
0000
0001
0010
0001
0000
0001
3000
,
1002
0000
0010
1000
0000
1000
0100
0000
,
0100
1000
0010
0000
0100
0000
0010
0000
,
2003
0000
0010
0000
0001
0000
0100
0001
,
0010
0010
0100
0001
,
3020
0000
0100
0000
1000
0100
0001
0000
,
1000
0000
1000
0100
1000
0000
1000
0000
,
2030
0000
0001
0010
0001
0000
0001
0000
,
0100
0000
0010
0100
0001
0000
0001
3000
,
1001
0010
0100
0000
0001
0010
0100
0000
,
1000
0000
1000
0010
1000
0001
1000
0000
,
0010
0000
0100
0001
1000
0000
1000
0001
,
0100
0010
0000
0001
0000
1000
0000
0000
,
0010
0000
0100
0001
1000
0000
1000
0001
,
0010
0000
0010
0001
1000
0000
1000
0100
,
0010
0001
1000
0000
1000
0000
0010
0000
,
1001
0000
0100
0000
1001
0010
1001
0001
,
0011
0000
1000
0010
1000
0000
1000
0001
,
0010
0100
0001
1001
,
0010
0000
1000
0100
0010
0000
0010
0100
,
1000
0001
0010
0000
1000
0000
1010
0000
,
0001
0000
1000
0001
0010
0000
0010
0001
,
1000
0000
1000
0100
1000
0000
1000
0010
,
0100
0000
0100
0001
0010
0000
0010
0001
,
1000
0000
1000
0000
0001
0000
1000
0001
,
1001
0000
0010
1000
0001
0000
1000
0001
,
1000
1000
0010
1010
,
0001
0000
0100
0001
0010
0000
0010
0001
,
1000
0000
1000
0010
1000
0000
0001
0000
,
1000
0010
0100
0001
1000
0010
0100
0001
,
1000
0100
0010
0001
1000
0010
0100
0001
,
0010
0100
0001
1000
1010
0001
1000
0001
,
1010
0001
0101
0010
0110
0001
1001
0001
,
1001
0000
0010
0000
1000
0000
1000
0001
,
1000
0000
0010
1000
0001
0100
0001
0000
,
0010
0000
0100
1000
0001
0000
0001
1000
,
0010
0000
0010
1000
0001
0010
0100
1000
,
1001
0000
0010
1000
0001
0000
1000
0100
,
0001
0000
1000
0010
1000
0001
0100
0000
,
0001
0000
0010
0001
1000
0000
1000
0001
,
1000
0000
1000
0010
1000
0010
0100
0001
,
0101
0000
0010
1000
0001
0000
0001
0010
,
0100
0000
1000
0000
0001
1000
0010
0000
,
1000
0000
1000
0100
0010
0000
0010
0100
,
1000
0000
0001
1000
0010
0000
0001
0000
,
1000
0100
0010
0001
1000
0010
0100
0001
,
0010
0100
0001
1000
0100
0001
1000
0010
,
1010
0001
1000
0100
1100
0001
1000
0010
,
0101
0001
1010
0001
0110
1001
0101
1001
,
1001
0000
0010
0000
1000
0001
1000
0000
,
0000
1000
0010
1000
0000
1000
0001
0010
,
0000
0100
0000
1000
0000
0010
0000
0100
,
0000
0100
0001
0010
0100
1000
0010
0000
,
0101
0001
0010
0100
,
0000
1000
0010
1000
0000
1000
0001
0010
,
0000
0100
0000
1000
0000
0001
0000
1000
,
0000
0010
1000
0001
0010
0100
0001
0000
,
1001
0000
0010
1000
0001
0000
0010
0000
,
0000
1000
0001
1000
0000
1000
0010
0100
,
0000
0001
0000
0010
0000
0100
0000
1000
,
0000
1000
0001
1000
0010
0100
0001
0000
,
1000
0100
0010
0001
1000
0100
0010
0001
,
1000
0010
1000
0001
0100
0001
1000
0010
,
1000
0001
0010
0100
1000
0001
0010
0100
,
1001
0010
1001
0010
1010
0110
0101
0011
,
0110
0000
1000
0001
1000
0010
1000
0000
,
1000
0001
0010
0000
0010
0001
1000
0000
,
1000
0010
0100
0001
0010
0000
1000
0000
,
1000
0001
1000
0010
0100
0001
0010
0000
,
0001
0000
1000
0000
1000
0010
0100
0000
,
0100
0001
0010
0100
0001
1000
0001
0000
,
1000
0000
0010
0000
1000
0001
0010
0000
,
0010
0001
1000
0010
1000
0001
0100
0000
,
0101
0000
0010
1000
0001
0000
1000
0001
,
0010
0000
1000
0001
1000
0010
0100
0000
,
0100
0001
0010
0000
0010
0001
1000
0000
,
1000
0010
1000
0010
0100
0001
0010
0100
,
0001
1000
0100
0010
0001
1000
0100
0010
,
0001
1000
0010
1000
0001
0100
0010
1000
,
0001
0010
0100
1000
0010
1000
0001
0010
,
0100
0001
1010
0001
1010
0001
1100
1100
,
0001
0000
1000
0010
1000
0000
1000
0001
,
0010
0100
0001
1000
,
1000
0010
0100
0001
0010
0000
0100
0000
,
2000
0010
0100
0001
,
3001
0010
0100
1000
0001
0000
1000
0000
,
1000
0010
0100
0001
0010
0000
0001
0000
,
1000
0100
0010
0001
1000
0000
0010
0000
,
2000
0100
0010
0100
,
3001
0010
0100
1000
0001
0000
1000
0000
,
1000
0010
0100
0001
0010
0000
0100
0000
,
0001
1000
0010
0100
0001
0000
0010
0000
,
2000
0001
0010
0100
,
3001
0010
0100
1000
0100
0010
0001
1000
,
0100
0010
0001
1000
0010
0100
0001
1000
,
0100
0001
0010
0100
0001
1000
0010
0100
,
1000
0100
0010
0001
1100
0001
1100
0001
,
0101
0000
0010
1000
0001
0000
1000
0001
,
0010
0001
1000
1010
,
0001
0000
1000
0001
0010
0000
0100
1000
,
0001
0000
1000
0010
1000
0001
0010
0000
,
0001
0000
1000
0100
0001
0000
0010
0000
,
1000
0001
1000
0010
0100
0001
0010
0000
,
0001
1000
0001
0010
0001
0000
0001
0000
,
1000
0010
1000
0100
1000
0001
0100
0010
,
0110
0000
0001
0010
0001
1000
0010
0000
,
1000
0001
1000
0000
1000
0001
0010
0000
,
0010
0001
1000
0100
0001
0000
0101
0000
,
0010
1000
0001
0010
0100
1000
0001
0000
,
1000
0010
1000
0001
0010
0000
0011
0000
,
0001
1000
0010
0100
0001
0000
0101
0000
,
1000
0100
1000
0010
0100
0000
0101
0000
,
0001
0010
0100
1000
0010
0000
1010
0000
,
1000
0001
1000
0001
1000
0010
1000
0010
,
0100
0100
0010
0010
,
1000
0010
1000
0010
0100
0001
0100
0001
,
1000
0100
0010
0001
1000
0100
0010
0001
,
1000
0010
1000
0010
0100
0000
0100
0000
,
0001
0100
0001
0100
0001
0010
0001
0010
,
0001
1000
0100
0010
0001
0000
0001
0000
,
1000
0010
1000
0010
0100
0001
0010
0100
,
1001
0001
0100
0010
1000
0010
0100
0001
,
0010
0000
0001
0000
1000
0001
1000
0000
,
1000
0010
1000
0010
0100
0001
0010
0100
,
1000
0000
0100
0000
0010
0001
1000
0000
,
1000
0100
0010
0001
1000
0100
0010
0001
,
1000
0010
0100
0001
0010
0100
0001
1000
,
0010
0001
0010
0100
0001
1000
0100
0001
,
0010
1000
0100
0001
1000
0010
0001
0100
,
0101
0000
0010
1000
0001
0000
1000
0001
,
1000
0000
0010
0010
1000
0000
1000
0000
,
0001
1000
0010
0000
0100
0001
0010
0000
,
2000
0000
0100
0010
0100
0000
0001
0001
,
3001
0000
0010
0100
0001
0000
1000
0010
,
1000
0000
0001
0000
0010
0100
0001
0000
,
1000
0010
1000
0000
0001
0100
0010
0000
,
0001
0000
0010
0000
0001
1000
0010
0000
,
1000
0100
0010
0001
1000
0000
1000
0000
,
0010
0100
0001
0010
0100
0000
0001
0000
,
1000
0010
1000
0010
0100
0000
0100
0000
,
0002
0000
0010
0000
1000
1000
1000
0000
,
1003
0010
0100
0001
0010
0000
0010
0000
,
0001
1000
0100
1000
0010
0000
0010
0000
,
1000
0001
1000
0001
0010
0000
0100
0000
,
0002
0000
0010
0000
1000
0010
0100
0010
,
1003
0000
0010
0100
0001
0000
1000
0001
,
1000
0000
1000
0010
1000
0000
0001
0000
,
1000
0001
0010
0100
0001
0000
1000
0000
,
2000
0000
0010
0001
0100
0000
0100
0000
,
3010
1000
0001
0010
0100
0000
0001
0000
,
1000
0010
1000
0001
0010
0000
0010
0000
,
0001
1000
0010
0100
0001
0000
1000
0000
,
0020
0000
1000
0000
0100
0001
0100
0001
,
0130
0000
0010
1000
0001
0000
0001
0000
,
1000
0100
0010
0001
1000
0010
1000
0000
,
1000
0001
0100
0010
0001
0000
1000
0000
,
2000
0000
0010
0001
0100
0010
0001
0000
,
3001
1000
0100
0010
0001
0010
0100
0001
,
1000
0010
0100
0001
1000
0100
0010
0001
,
1000
0100
0010
0001
1000
0010
0100
0001
,
1010
0001
0110
0010
0110
0101
1010
1001
,
0110
0000
1000
0001
1000
0000
1000
0010
,
1000
0000
1000
0000
0001
0000
0001
0001
,
0001
0000
0010
1000
0001
0000
0010
0100
,
0001
0000
1000
0000
0010
0000
1000
1000
,
1000
0000
0010
0100
0001
0000
0100
0001
,
0100
0000
0010
0000
0001
0000
0100
0100
,
0010
0000
1000
0001
1000
0000
1000
0010
,
0100
0000
0001
0000
1000
0001
1000
0000
,
1010
0000
0001
0100
0010
0000
0100
0000
,
0010
0100
0001
0000
1000
0000
0010
0100
,
0001
0000
1000
0000
0010
0000
1000
0001
,
1001
1010
0110
1001
,
1001
0000
1000
0010
1000
0000
0001
0000
,
0010
0100
1000
0000
0001
0000
1000
0010
,
1000
0000
0001
0000
0010
0000
0100
0001
,
1001
0110
0011
0110
,
2100
0000
0010
0000
0001
0000
3001
0010
,
0100
0000
1000
0000
1000
0010
1000
0001
,
0010
0000
0100
0000
1000
0000
1000
0010
,
1000
0000
0001
0000
0010
0000
0001
1000
,
1001
0000
0010
0000
0100
0001
0010
0100
,
1000
0000
0001
0000
1000
0010
1000
0010
,
0100
0000
0001
0000
0010
0000
0100
0001
,
1001
0110
1010
0101
,
1001
0000
1000
0000
0010
0000
1000
0001
,
0010
0000
0100
0000
0001
0000
1000
0001
,
0100
0000
0010
0000
1000
0000
0001
1000
,
0010
0100
0001
1000
,
1010
0001
1000
0001
,
0010
0001
1000
0010
0100
0000
0100
0001
,
0010
0000
0010
0000
0001
0000
1000
0010
,
1000
0001
0100
0010
1000
0000
1000
0000
,
1001
0000
0010
0100
0001
0000
1000
0000
,
0010
0000
1000
0001
0010
0000
0001
0000
,
1000
0010
0001
0100
,
0010
0001
1000
0010
0100
0000
0001
0000
,
1001
0000
0100
1000
0100
0010
0100
1000
,
0100
0001
0100
0010
1000
0001
0100
0001
,
1001
0000
0010
1000
0001
0000
1000
0000
,
1000
0001
0010
0000
0010
0000
0001
1000
,
0010
0000
0100
0000
0001
0000
1000
0001
,
0010
0000
0010
0000
0001
1000
0000
0000
,
0010
0000
0100
0000
0001
0000
1000
0001
,
1000
0000
0010
0000
1000
0000
0001
1000
,
0010
0100
0001
1000
0010
1000
0010
1000
,
0001
0100
0001
0100
0001
0010
0001
0010
,
0001
1000
0010
1000
0001
0100
0010
1000
,
0001
0100
0010
1000
0001
1000
0010
0100
,
0001
0010
0110
1000
0010
1000
0001
0100
,
0001
0010
1001
0100
0010
0001
1000
0001
,
0110
0001
1010
0001
0110
0010
1001
0010
,
0110
0010
1010
0001
1001
0001
1001
1001
,
0110
0000
0000
0000
,
0000
0000
0000
0000
,
0000
0000
0000
0000
,
0000
0000
0000
0000
,
0000
0000
0000
0000
,
1000
0001
1000
0000
0010
0000
0100
0000
,
0001
0000
0001
0010
0001
0000
1000
0001
,
1000
0000
0010
1000
0001
0000
0001
0000
,
0110
0000
1010
0000
0101
0000
0001
1000
,
0010
0000
0100
0001
1000
0100
1000
0001
,
1000
0000
1000
0010
1000
0001
0100
0001
,
0010
0000
0010
0001
1000
0001
1000
0001
,
0100
0000
0010
0001
1000
0100
0001
1000
,
0100
0000
1000
0100
0001
0010
0100
0001
,
1000
0000
1000
0010
0001
0100
0010
0001
,
0010
0000
0100
1000
0010
0100
0001
0010
,
0100
0000
1000
0010
1000
0001
0010
0100
,
0001
0000
1000
0001
1000
0001
1000
0100
,
0010
0000
1000
0001
1000
0001
0010
0100
,
0001
0000
1000
0001
0100
0010
0001
0010
,
0100
0000
0100
0010
0100
0001
1000
0010
,
0100
0000
1000
0100
0010
0001
1000
0010
,
0100
0000
0001
0100
0001
0010
0001
1000
,
0100
0000
1000
0010
0100
0001
0010
0100
,
0001
0000
0001
1000
0010
0100
0001
0010
,
0001
0000
1000
0010
1000
0010
0100
0001
,
0010
0000
0100
0001
1000
0100
0010
0001
,
1000
0000
1000
0100
0010
0001
1000
0010
,
0100
0001
0010
0001
0010
0001
1000
0100
,
1000
0100
0010
0001
1000
0100
0010
0001
,
1000
0010
0100
0001
0010
0100
1000
0100
,
1000
0010
0100
0001
0010
0100
1000
0001
,
1000
0010
0100
0010
0100
0001
0010
0100
,
1001
0000
0001
1000
0010
0000
0010
0000
,
0100
0000
0001
1000
0001
0100
1000
0001
,
0010
1000
0001
1000
,
1000
0100
0010
0001
0100
0010
0100
0001
,
1000
0000
0010
0100
0001
0010
0100
0001
,
1000
0000
1000
0010
1000
0000
1000
0001
,
0010
0000
0010
0001
0100
0001
0100
0010
,
1000
0000
1000
0100
0010
0000
0010
0001
,
1000
0000
0100
0001
0100
0010
1000
0000
,
0002
0010
1000
0100
,
1003
0010
0100
0000
0100
0001
0010
0000
,
1000
0000
0100
0000
1000
0001
1000
0001
,
0100
0000
0100
0010
1000
0001
0010
0000
,
0100
0000
0001
0000
0001
1000
0001
0100
,
0010
0000
0010
1000
0001
0000
0001
0000
,
1000
0000
1000
0000
0100
0010
0100
0010
,
1000
0000
1000
0001
1000
0001
0010
0100
,
2000
0000
0001
0010
0001
0000
0100
0000
,
3010
0000
0010
0100
0001
0000
0001
0000
,
0010
0001
1000
0100
0001
0100
0010
0000
,
1000
0000
0001
1000
0001
0010
0001
0000
,
0100
0000
0100
1000
0010
1000
0100
0010
,
0001
0000
0001
1000
0010
0100
0001
0010
,
0100
0000
1000
0100
0010
0001
1000
0010
,
1000
0000
0100
0001
0010
0100
0001
0100
,
0020
1000
0100
0001
,
1030
0001
0100
0010
1000
0000
0100
0000
,
0001
0000
1000
0100
0010
0001
0010
0100
,
0010
0000
1000
0001
0100
0001
0100
0010
,
0001
0000
1000
0000
1000
0100
0010
0001
,
1000
0000
0010
0100
0001
0000
0010
0000
,
0001
0000
1000
0001
1000
0010
0100
0001
,
0010
0000
0100
1000
0001
1000
0001
0100
,
0010
0000
1000
0000
1000
0100
0010
0001
,
1000
0000
1000
0000
0001
0100
0010
0000
,
0001
0000
0010
0000
0001
0010
0001
1000
,
1001
0000
0010
0100
0001
1000
0100
0010
,
0001
0000
1000
0000
1000
0010
0100
0010
,
1000
0000
1000
0001
0010
0100
0001
0100
,
0010
0000
1000
0000
1000
0001
0010
0100
,
0001
0000
1000
0010
1000
0000
0100
0000
,
0100
0000
0001
0010
0100
1000
0001
0000
,
0001
0000
1000
0010
0100
0001
0010
0100
,
0001
0000
1000
0010
0100
0000
0100
0000
,
0001
0010
0001
1000
0100
1000
0100
0010
,
0001
1000
0010
1000
0001
0100
0010
1000
,
0001
0010
0100
1000
0100
0010
0001
1000
,
0010
0100
0001
0010
0100
0001
0010
0100
,
0010
0001
1000
0010
0100
0010
1000
0001
,
0100
0000
0100
0001
1000
0010
0100
0010
,
0100
0000
0001
0000
1000
0010
1000
0001
,
0010
0000
0010
0001
0100
0010
1000
0001
,
1000
0000
1000
0100
0010
0001
0010
0100
,
0010
0001
1000
0010
1000
0010
0100
0001
,
0100
0001
0010
0100
1000
0100
0010
0001
,
1000
0010
1000
0010
0100
0001
0010
0100
,
1001
0000
0001
1000
0010
0000
1000
0001
,
1000
0100
0010
0001
0010
0100
0010
0001
,
1000
0010
0000
0000
0100
0000
0001
1000
,
0010
1000
0010
0100
0001
0010
0100
0001
,
1000
1000
0100
0100
0010
0010
0001
0001
,
1010
1010
0110
0110
0000
0001
1000
0001
,
0010
0010
0001
0010
,
1000
0100
1000
0001
1000
0001
0100
0010
,
1000
1000
0001
0001
0010
0010
0100
0100
,
1000
1000
0001
0001
0100
0100
1010
1010
,
0001
0001
0010
0010
0100
0100
1000
0001
,
1000
0001
0100
0010
1000
0010
1000
0001
,
0010
0100
1000
0100
1000
0001
0100
0010
,
1000
0010
0100
0001
0010
0100
1001
1001
,
0010
0010
1000
1000
0001
0001
0010
0010
,
0100
0100
1000
1000
0000
0000
0001
0100
,
0010
1000
0001
0020
0000
0130
2000
0000
,
0001
0010
0001
0100
,
3010
0100
0001
0010
0100
0001
1001
0001
,
0100
0010
1000
0001
0010
0100
1000
0100
,
1100
0100
0010
0011
0001
1000
1010
0010
,
0100
0101
0001
0010
0110
0100
1000
0001
,
1000
1000
0100
0100
0010
0010
0001
0001
,
1010
1010
0101
0101
0000
0000
0001
0010
,
0100
1000
0100
0010
0000
0010
0001
0000
,
1000
0000
0010
0000
1000
0001
0010
0100
,
1000
0001
0010
0100
0000
0100
1000
0000
,
1000
0000
0010
0000
1000
0001
0000
1000
,
0001
0010
0100
0010
0001
1000
0100
0010
,
0100
1000
0001
0100
0010
1000
0010
0100
,
0001
0001
1000
1000
0100
0100
0010
0010
,
0011
0011
1100
1100
0000
0001
1000
0001
,
0100
0010
1000
0001
0010
0000
0010
0000
,
0001
1000
0100
1000
0100
0000
0010
0000
,
0001
1000
0010
0100
0001
0000
0001
0000
,
1000
0100
1000
0100
0010
0001
0010
0100
,
1000
0001
0100
0010
1000
0010
0100
0001
,
0010
0100
1000
0010
0100
0000
0001
0000
,
0010
0000
0100
0000
0001
1000
0001
0010
,
0100
1000
0001
0001
0001
1000
0010
1000
,
0010
0100
0001
0000
0010
0000
0100
1000
,
0001
1000
0100
0000
0010
0001
1000
0001
,
1000
0010
0100
0001
0010
0100
0001
1000
,
0100
0010
0001
1000
0010
0010
1000
1000
,
0001
0001
1000
1000
1001
1001
0110
0110
,
0000
0001
1000
0001
0010
0100
1000
0001
,
1000
0010
1000
0000
1000
0000
0001
0010
,
0100
0001
0100
0100
0100
0010
1000
0001
,
0010
0100
0001
1000
0001
0000
0001
1000
,
0010
1000
0001
0001
0001
1000
0100
1000
,
0100
0010
0001
1000
0100
0000
1000
0000
,
1000
0010
1000
0010
0100
0100
0001
0001
,
0010
0010
0100
0100
1100
1100
0110
0110
,
0000
0001
1000
0001
1000
0010
0100
0001
,
0010
0100
0001
0000
1000
0000
0010
0000
,
1000
0001
0010
0100
1000
0001
1000
0001
,
0000
0001
1000
0000
0010
0000
0100
0001
,
0010
0100
1000
0010
1000
0000
1000
0010
,
0000
0010
0001
0000
0001
0100
0000
0100
,
0010
0000
0010
0000
0001
0001
1000
1000
,
0010
0010
0100
0100
0101
0101
1010
0101
,
0000
0001
1000
0010
1000
0010
0100
0001
,
0000
0010
0100
0000
1000
0000
0010
0000
,
1000
0001
0100
0010
1000
0001
0100
0010
,
0000
0001
0010
0000
0100
0000
1000
0000
,
0001
1000
0100
1000
1000
0000
1000
0100
,
0000
0100
1000
0000
1000
0100
0000
0100
,
0001
0000
0010
0000
1000
1000
0010
0010
,
0100
0100
0001
0001
1001
1001
0110
0011
,
0000
0001
1000
0001
1000
0010
0100
0010
,
1000
0000
1000
0000
1000
0001
0010
0100
,
1000
0000
0001
0000
0001
0100
0010
1000
,
0001
0000
0001
0000
0010
0100
1000
0100
,
1000
1000
0001
0001
1000
1000
0010
0010
,
0110
0110
1001
1001
0101
0101
1010
1010
,
0110
0000
0001
0000
1000
0000
0001
1000
,
0010
0100
0001
0010
0100
0000
1000
0000
,
0001
0000
1000
0010
1000
0000
0001
0000
,
0100
0000
0010
0000
1000
0001
1000
0001
,
0010
0000
0100
0001
1000
0000
0010
0000
,
1000
0001
1000
0001
0010
0000
0100
0000
,
1000
0000
1000
0001
0010
0000
0100
0000
,
1000
1000
0000
0000
1000
0001
0100
0001
,
1000
0010
0100
0000
0010
0000
1000
0001
,
0010
0000
0010
0000
0001
1000
0001
1000
,
0001
0000
0001
0100
0010
0000
1000
0001
,
1000
0000
1000
0000
1000
0001
0010
0100
,
1000
0000
1000
0001
0010
0000
0010
0000
,
0001
0100
0001
1000
0001
0000
0001
0000
,
1000
0000
1000
0010
0100
0000
0100
0000
,
0001
0000
0001
0000
0010
0100
1000
0000
,
0100
1000
0001
1000
0001
0100
0010
1000
,
0001
0010
0100
1000
0001
0000
1001
0000
,
1000
0000
1000
0100
0010
0001
1000
0000
,
1000
1000
0001
0001
0101
0001
1001
0000
,
1000
0010
0100
0010
1000
0001
0010
0000
,
0010
0000
1000
0001
0100
0001
1000
0010
,
0100
0000
0100
0001
1000
0001
0100
0000
,
0001
0001
0010
0010
0011
0001
1001
0001
,
1000
0000
0010
0100
0001
0000
1000
0000
,
1000
0100
0001
0100
0010
0001
0010
0100
,
0001
1000
0010
0000
0100
0000
0001
0000
,
0010
0010
0100
0100
0001
0010
1001
0100
,
0001
0000
1000
0001
1000
0100
1000
0000
,
1000
0001
0010
0100
0001
1000
0010
0001
,
0010
0000
1000
0000
0010
0100
0001
0000
,
0010
0010
0001
0010
1001
0001
0101
1000
,
0010
0100
0001
0010
0100
0001
1000
0100
,
0020
0001
0100
0001
,
0031
1000
0001
1000
0001
0100
0010
1000
,
0002
0000
0010
0000
0100
0100
0100
0000
,
0013
0001
1000
0010
0100
0010
1000
0001
,
0100
0000
0010
1000
0001
0000
0010
0000
,
0001
1000
0001
1000
0001
0100
0010
1000
,
0001
0000
0010
0000
0001
0010
0001
0000
,
1000
0010
1000
0000
0010
0000
0100
0000
,
1000
0001
1000
0001
0010
0100
1000
0000
,
1001
0110
0011
0001
,
1000
0001
1000
0010
0100
0001
0010
0000
,
1001
0110
1100
0101
,
0001
1000
0010
1000
0010
0100
0001
0000
,
0011
0110
1100
1000
,
0001
1000
0001
0000
0010
0000
0100
0000
,
2000
0000
0001
0010
0001
0000
0001
0000
,
3010
0000
0010
0100
0001
0000
0010
0000
,
1000
0100
1000
0001
1000
0010
0100
0010
,
1000
0001
0010
0100
1000
0100
0010
0001
,
1000
0000
0010
0100
0001
0000
0010
0000
,
0001
0010
0100
0001
0010
1000
0010
0100
,
0001
0000
1000
0010
1000
0001
0010
0000
,
0001
1000
0001
0010
0100
1000
0001
0000
,
1000
0010
1000
0001
0100
0001
0010
0000
,
0010
0001
0010
0100
1000
0001
1000
0000
,
1000
0001
0010
0001
0010
0100
0001
0000
,
1000
1000
0001
0001
1001
0001
1010
0010
,
0100
0001
0010
0100
0001
1000
0100
0010
,
0002
0000
0010
0000
1000
0100
1000
0000
,
1003
0010
0100
0001
0010
0100
1000
0001
,
2000
0000
0010
0000
0100
0100
0100
0000
,
3001
0010
0100
0010
0001
1000
0100
0010
,
0001
1000
0010
1000
1000
0000
1000
0000
,
0001
1000
0001
0100
0001
0010
0001
1000
,
0100
0010
0000
0010
0001
1000
0010
0000
,
1001
0000
0110
0000
1001
0000
1000
0001
,
1000
0010
0100
0001
0010
0100
0001
0000
,
1001
0000
0110
0000
1100
0000
1000
0001
,
1000
0010
0100
0010
1000
0001
0010
0000
,
0110
0000
0011
0000
1100
0000
0001
1000
,
0001
0100
0010
1000
0010
0100
0001
0000
,
0011
0000
1010
0000
0101
0000
0001
1000
,
0001
1000
0010
0000
0100
0001
0010
0000
,
2000
0000
0100
0000
0010
0001
0100
0000
,
3010
0000
0100
0001
1000
0000
1000
0000
,
1000
0001
0010
0100
0010
0001
1000
0010
,
1000
0010
0100
0001
0010
0100
0001
1000
,
0010
0000
0100
0001
1000
0100
1000
0100
,
0010
0001
1000
0010
0100
0010
1000
0001
,
1000
0100
0010
0001
0010
0100
0010
0001
,
1000
0010
1000
0010
0100
0001
0010
0100
,
1001
0001
0100
0010
1000
0010
0100
0001
,
0010
0000
0010
0001
1000
0001
1000
0001
,
0100
0000
1000
0010
1000
0010
0100
0001
,
0010
0000
0010
0001
1000
0100
0010
0100
,
1000
0000
1000
0001
0100
0001
0100
0010
,
1000
0000
0001
0100
0001
0100
0001
0010
,
0100
0000
1000
0010
1000
0010
0100
0001
,
0010
0000
0010
0100
1000
0100
1000
0001
,
0100
0000
0010
1000
0001
0000
0010
0000
,
0200
0000
1000
0000
0010
1000
0010
0000
,
0310
0001
1000
0001
0100
0010
1000
0001
,
0010
0000
0100
0000
1000
0001
1000
0001
,
0010
0000
0100
0001
0100
0000
1000
0000
,
0020
0000
1000
0000
0001
0100
0001
0000
,
0130
0010
1000
0001
0100
0000
0010
1000
,
0001
0000
0010
0000
0001
1000
0001
1000
,
0010
0100
0001
0000
0010
0000
0001
1000
,
0000
2000
0100
0001
,
3010
0100
0010
1000
0001
0010
0100
0001
,
1000
0100
1000
0100
0010
0001
1000
0010
,
0100
0000
0001
1000
0001
0000
0001
0010
,
0100
1000
0001
0000
0001
0100
0001
0000
,
0001
0100
0010
1000
0010
0000
1000
0010
,
1000
0000
1000
0001
0100
0001
0010
0100
,
1000
0001
1000
0000
0001
0000
0100
0010
,
1000
0000
0100
0010
0001
1000
0001
0000
,
1000
0001
1000
0001
0010
0000
0010
0001
,
1000
0000
1000
0010
0100
0000
0100
0000
,
0001
0010
0001
1000
0100
0000
0100
1000
,
0010
0000
0010
0100
0001
0000
0001
0000
,
0010
0100
1000
0100
0010
0100
1000
0100
,
0001
0100
0010
0001
0010
0100
0010
0001
,
1000
0000
1000
0010
0100
0010
0100
0001
,
0010
0000
0010
0001
1000
0100
1000
0000
,
0100
0001
1000
0100
1000
0100
0010
0000
,
0001
1000
0001
0100
0010
1000
0010
0000
,
1000
0001
0010
0100
0001
0100
0010
0000
,
1000
0100
0001
0100
1000
0010
0001
0000
,
1000
0010
0001
0010
1000
0100
0001
0000
,
1000
0010
1000
0010
0100
0001
0010
0100
,
1000
0000
1000
0001
1000
0010
0100
0001
,
0010
0000
1000
0010
0001
0010
1000
0100
,
0001
0100
1000
0010
0001
0010
0100
0001
,
1000
0000
1000
0010
0100
0001
0010
0100
,
0001
0000
1000
0100
0010
0100
1000
0001
,
0100
0000
0100
0010
1000
0010
0100
0001
,
0010
0000
0010
0001
1000
0100
1000
0100
,
0010
0000
0001
1000
0001
1000
0010
0100
,
0001
0000
1000
0100
1000
0100
0010
0001
,
1000
0000
1000
0010
0100
0010
1000
0001
,
0010
0000
0010
0001
1000
0001
1000
0100
,
0010
0000
0001
1000
0001
1000
0010
0100
,
0001
0000
0001
1000
0001
1000
0100
0010
,
0001
0000
1000
0010
1000
0010
0100
0001
,
0010
0000
0010
0001
1000
0001
1000
0010
,
0100
0001
0010
0100
1000
0100
0010
0001
,
1000
0010
1000
0010
0100
0001
0010
0000
,
1000
0001
1000
0001
0100
0010
0001
0000
,
1000
0100
1000
0100
0010
0001
1000
0000
,
1000
0010
0100
0010
1000
0001
0010
0000
,
0010
0001
1000
0100
0010
0100
1000
0001
,
0010
0000
1000
0001
0100
0001
1000
0000
,
0010
0100
0010
1000
0010
0100
0001
1000
,
0100
1000
0100
0010
0001
1000
0100
0001
,
1000
0000
0000
0000
,
0000
0000
0000
0000
,
0000
0000
0000
0000
,
0000
0000
0000
0000
,
0000
0000
0000
0000
,
0000
0000
0000
0000
,
0000
0000
0000
0000
,
0000
0000
0000
0000
,
0000
0000
0000
0000
,
1000
0001
1000
0000
1000
0010
0100
0000
,
0100
0001
0010
0100
0001
0000
1000
0000
,
1000
0010
1000
0000
1000
0001
0010
0000
,
0010
0001
0100
0000
0100
0001
0010
0001
,
1001
0000
0010
0000
1000
0001
0010
0000
,
0010
0001
1000
0100
0010
0000
0001
0000
,
1000
0010
0100
0000
0100
0001
0010
0000
,
1000
0001
1000
0000
1000
0010
0100
0001
,
0010
0000
0010
0001
1000
0100
1000
0001
,
0100
0000
0100
0000
1000
0010
0100
0001
,
0010
0100
1000
0000
1000
0000
0001
0000
,
1000
0010
1000
0001
0010
0100
1000
0001
,
0100
0000
0010
0000
1000
0001
0010
0000
,
1000
0000
1000
0000
1000
0010
0100
0001
,
0010
0200
0010
0000
1000
0000
0001
0000
,
1300
0010
1000
0001
0100
0010
1000
0100
,
0020
0000
0001
0000
0100
0001
0100
0000
,
1030
0001
1000
0001
0100
0010
1000
0001
,
0020
0100
0001
0000
0100
0001
0100
0000
,
0100
0001
0100
0000
1000
0100
0001
0000
,
1030
0000
0100
0010
0001
0000
1000
0000
,
1000
0001
1000
0001
0010
0000
0010
0000
,
0001
1000
0010
0000
0010
1000
0001
0000
,
0001
1000
0100
0000
0100
1000
0001
0010
,
0100
0001
1000
0000
1000
0000
0010
1000
,
0001
0010
0000
0100
0000
0000
1000
0001
,
1000
0010
0000
0100
0000
0001
0010
0100
,
2000
3002
2003
3010
,
0100
0001
0000
0010
0000
0000
0000
0000
,
0100
0000
1000
0001
0000
0000
0100
0010
,
1000
0000
0000
0001
0000
0000
0010
0000
0000
0000
1000
0000
0001
0000
0010
0000
,
0100
0000
1000
0000
0010
1000
0001
0000
,
1000
0001
1000
0001
0010
0010
0010
0000
,
0001
1000
0001
0100
0001
0000
1000
0000
,
1000
0010
0100
0010
0000
0000
1000
0000
,
1000
0001
0010
0100
0000
0000
0001
0000
,
1000
0010
0100
0001
0000
0001
1000
0010
,
0100
0001
0010
0100
0000
1000
0001
1000
,
0100
0010
0001
1000
0000
1000
1000
1000
,
0010
0100
0001
0010
0000
0010
0001
1000
,
0100
0001
0100
0010
0000
0010
0010
1000
,
0001
0010
0100
1000
0001
0000
1000
0000
,
1000
0010
1000
0010
0000
0010
0010
0000
,
1000
0001
0010
0000
0010
0000
0001
0000
,
1000
0001
0100
0010
0000
1000
0001
1000
,
0001
0010
0100
1000
0000
1000
0001
1000
,
0010
0100
0001
0010
0000
0010
0001
1000
,
0100
1000
0001
0000
0001
1000
0010
0000
,
0010
1000
0001
1000
0100
1000
0100
0010
,
0001
1000
0010
0100
0000
0000
0001
0000
,
1000
0010
1000
0010
0100
0000
0001
0000
,
0010
0100
1000
0001
0000
1001
0000
0000
,
0010
1000
0001
0010
0000
0100
1000
0001
,
1000
0010
0100
0001
0000
0110
0000
1000
,
0100
0010
0001
0000
0000
1000
0010
1000
,
0001
0010
0100
0001
0000
0000
1000
0000
,
0010
1000
0001
0010
0000
0010
0001
1000
,
0100
1000
0100
0010
0001
1000
0010
0000
,
1000
0001
1000
0001
0010
0100
1000
0000
,
1000
0000
1000
0001
0010
0100
0001
0100
,
0010
0000
0010
0001
1000
0100
0010
0100
,
0010
0001
1000
0010
0000
0000
1000
0000
,
1000
0001
0010
0100
0000
1000
0001
1000
,
0010
0100
0001
0010
0000
0100
0000
1000
,
0001
1000
0010
0100
0000
0001
0010
0100
,
1000
0100
0010
0001
0000
1000
0000
0000
,
1000
0010
0100
0001
0000
1000
0010
0100
,
0001
0010
0100
1000
0000
0001
0000
0000
,
1000
0010
0100
0001
0000
1000
0100
0010
,
0001
0010
0100
1000
0100
0010
0001
1000
,
0000
0000
0010
0000
1000
0001
1000
0010
,
0100
0000
0001
0000
0010
0100
1000
0001
,
1000
0000
1000
0000
0010
1000
0001
0000
,
0010
0000
0100
1000
0001
0010
0100
1000
,
0100
0000
1000
0000
1000
0000
1000
0010
,
0100
0000
0100
0000
0001
0010
0100
0001
,
1000
0000
1000
0010
1000
0001
0010
0100
,
1000
0000
0001
0000
0001
1000
0010
0100
,
0001
0000
1000
0010
1000
0001
0010
0000
,
1000
0000
1000
0100
0010
0001
1000
0000
,
0010
0000
0100
0001
0010
0000
0010
0100
,
1000
0100
0010
0000
0001
1000
0010
0100
,
0000
0001
0000
0000
1000
0000
1000
0010
,
1000
0001
0010
0100
0001
1000
0100
0010
,
0001
0000
1000
0010
1000
0001
0010
0100
,
1000
0000
1000
0001
0100
0010
0001
0010
,
0100
0000
1000
0001
1000
0100
0010
0001
,
1000
0010
0100
0001
0000
1000
0001
1000
,
0100
0010
0100
0001
0000
0000
0010
0000
,
0100
1000
0010
0100
0001
0010
0100
0000
,
1000
0001
1000
0001
0010
0000
0001
0000
,
1000
0100
0010
0001
1000
0010
1000
0000
,
1000
0001
0010
0100
1000
0001
0010
0000
,
0010
0100
1000
0100
1000
0001
1000
0000
,
1000
0010
1000
0001
0010
0100
0001
0000
,
1000
0100
0010
0001
1000
0010
0100
0000
,
0001
0010
0001
1000
0100
0010
0001
0000
,
1000
0100
0010
0100
1000
0100
0010
0001
,
0010
0100
1000
0010
0100
0001
0010
0100
,
1000
0001
0100
0010
1000
0000
0001
0000
,
0010
0000
0100
1000
0001
1000
0001
1000
,
0000
0000
0100
0010
0001
1000
0001
0010
,
0100
0000
1000
0001
1000
0010
0100
0001
,
0000
0000
0010
0100
1000
0100
0010
0001
,
0000
0000
1000
0010
1000
0010
0100
0001
,
0000
0000
0010
0100
1000
0100
0010
0001
,
0000
0000
1000
0010
1000
0010
0100
0001
,
0010
0000
0100
1000
0001
1000
0001
0100
,
0010
0000
1000
0100
1000
0100
0010
0001
,
0000
0000
1000
0010
0100
0010
0100
0001
,
0000
0000
1000
0100
0010
0001
0010
0100
,
0000
0000
1000
0010
0100
1000
0001
0010
,
0100
0000
1000
0000
1000
0001
0010
0000
,
0100
0000
1000
0010
1000
0010
0100
0001
,
0010
0000
0100
1000
0100
0010
0001
1000
,
0010
0000
1000
0100
0010
0001
1000
0010
,
0100
0000
0100
0001
0010
0000
0010
0000
,
0001
0000
1000
0100
1000
0100
0010
0000
,
1000
0001
1000
0001
0100
0010
1000
0000
,
1000
0001
0010
0100
0001
1000
0100
0010
,
0001
0000
1000
0010
1000
0010
0100
0001
,
0010
0000
0010
0001
1000
0100
1000
0001
,
0100
0000
1000
0010
1000
0001
0100
0001
,
0010
0000
0010
0001
1000
0010
1000
0001
,
0010
0000
0010
0001
1000
0100
1000
0100
,
0010
0000
1000
0100
0001
0100
0010
0001
,
0010
0000
1000
0001
1000
0010
0100
0001
,
0010
0000
1000
0100
0010
0000
0010
0001
,
1000
0000
1000
0010
0100
0001
1000
0000
,
1000
0000
1000
0100
0010
0001
1000
0000
,
1000
0000
0010
0100
0001
0010
0100
1000
,
0001
0000
1000
0010
1000
0010
0100
0000
,
0001
0000
0010
0100
1000
0100
0010
0000
,
0001
0000
1000
0010
1000
0010
0100
0001
,
0010
0000
0100
0000
0001
0010
0100
0001
,
1000
0000
1000
0010
1000
0010
0100
0001
,
0010
0000
0010
0001
0100
0001
1000
0010
,
0001
0000
1000
0010
1000
0001
0100
0001
,
0010
0000
1000
0100
0010
0001
0010
0100
,
0001
0000
1000
0001
0100
0010
0001
0010
,
0100
0000
1000
0001
0010
0100
0001
1000
,
0010
0000
1000
0100
0010
0100
1000
0100
,
0010
0000
0001
0010
0100
0010
0001
0010
,
0100
0000
1000
0100
0001
0100
1000
0100
,
0001
0000
1000
0010
0001
0010
1000
0010
,
0001
0000
1000
0100
0001
0010
1000
0100
,
0001
0000
1000
0001
0010
0001
1000
0010
,
0100
0000
0001
0010
0001
1000
0100
0010
,
0001
0000
1000
0010
1000
0010
0100
0001
,
0010
0000
1000
0100
1000
0100
1000
0000
,
0001
0100
0001
0100
0001
0100
0001
0000
,
0010
0100
0010
0100
0010
0100
0010
0000
,
1000
0100
1000
0100
1000
0100
1000
0000
,
0001
0100
0001
0100
0001
0100
0001
0000
,
0010
0100
0010
0100
0010
0100
0010
0000
,
1001
0000
0001
1000
0010
1000
0001
0010
,
0100
0000
1000
0100
0010
0100
0010
0001
,
1000
0000
1000
0100
0001
0010
0001
0010
,
1000
0000
1000
0001
1000
0001
0010
0100
,
0001
0000
1000
0100
0010
0001
1000
0010
,
1000
0000
1000
0001
0010
0100
0010
0001
,
1000
0000
0100
0010
0001
1000
0100
0001
,
1000
0000
1000
0001
0010
0100
0001
1000
,
0010
0000
0100
0001
0010
0100
0001
1000
,
0010
0000
1000
0001
1000
0100
0010
0001
,
1000
0000
0100
0010
0001
1000
0010
0100
,
1000
0000
0001
0100
0010
0001
1000
0100
,
0010
0000
1000
0100
0010
0100
1000
0100
,
0010
0000
0001
0000
1000
0010
1000
0001
,
0010
0000
0100
1000
0100
0010
0001
1000
,
0010
0000
1000
0001
1000
0001
1000
0010
,
0100
0000
0001
0010
0001
0000
1000
0000
,
0010
0000
1000
0001
1000
0001
0010
0000
,
1000
0100
1000
0100
0010
0001
0010
0000
,
1000
0001
1000
0001
0100
0010
1000
0000
,
1000
0100
1000
0100
0010
0001
1000
0000
,
1001
0001
0100
0010
1000
0001
0010
0000
,
0010
0010
0001
0001
1000
1000
1001
0000
,
0010
1000
0010
0100
0001
0010
0100
0001
,
1000
0001
1000
0001
0100
0010
1000
0010
,
1010
0000
0001
0101
0000
0010
1000
0000
,
0001
0000
0010
0100
1000
0100
0010
0000
,
0001
0000
1000
0001
1000
0001
0100
0001
,
0010
0000
0010
0100
0010
0001
0010
0100
,
1000
0000
1000
0100
0001
0100
0010
0001
,
0010
0000
1000
0100
0010
0100
1000
0100
,
0001
0000
0010
0001
0010
0100
0010
0100
,
1000
0000
1000
0001
0100
0001
0100
0010
,
1000
0000
1000
0100
0010
0001
1000
0100
,
0010
0000
0001
1000
0010
0100
0001
0010
,
0100
0000
1000
0100
1000
0010
0100
0001
,
0010
0000
1000
0001
1000
0010
0100
0001
,
0010
0000
0001
1000
0001
1000
0001
0100
,
0010
0000
1000
0100
1000
0100
0010
0001
,
1000
0000
0100
0001
0100
0010
1000
0001
,
0010
0000
0010
0001
0010
0100
0010
0001
,
1001
0000
0010
1010
0000
0000
0010
0000
,
0100
0000
0001
0010
0001
0010
0100
1000
,
0100
0000
1000
0010
1000
0010
0100
0001
,
0010
0000
0010
0001
1000
0001
1000
0010
,
0100
0000
0001
0010
0001
0010
0100
1000
,
0100
0000
1000
0010
0100
0001
0010
0100
,
0001
1000
0001
1000
0001
0100
0010
1000
,
1001
0001
0010
0100
0001
1000
0010
0100
,
0101
0010
0000
1000
,
0001
0010
0100
0001
1000
0010
0100
0001
,
0010
0000
1000
0001
1000
0010
0100
0000
,
0001
0000
0010
0001
1000
0000
0010
0000
,
0100
0000
0001
1000
0001
0010
0100
0000
,
1000
0000
1000
0010
1000
0010
0100
0000
,
0001
0010
0001
0010
0001
1000
0010
0000
,
1000
0100
0001
0100
0010
1000
0100
0000
,
1000
0100
0010
0001
0010
0100
1000
0000
,
1001
0001
0100
0010
1000
0010
0100
0000
,
0011
0001
1000
0100
1000
0100
0010
0001
,
1000
0010
0100
0010
1000
0001
0010
0001
,
1000
0010
1000
0000
0100
0000
0010
0000
,
0001
0000
0010
0100
1000
0000
0010
0000
,
0001
1000
0010
0100
0000
0000
0001
0000
,
0010
0100
1000
0001
0000
0000
0100
0000
,
0010
1000
0001
0100
0000
0000
0010
0000
,
1000
0001
1000
0001
0010
0100
1000
0000
,
1000
0010
1000
0010
0100
0001
0010
0000
,
0010
0001
1000
0100
1000
0000
0001
0000
,
1000
0010
1000
0001
0000
0000
0100
0000
,
0010
1000
0001
0010
0100
1000
0100
0010
,
0001
0000
1000
0010
1000
0010
0100
0001
,
0010
0000
0001
0100
0001
0010
1000
0010
,
0100
0000
1000
0001
1000
0001
0010
0100
,
1000
0000
0001
1000
0001
0010
0100
1000
,
0001
0000
1000
0010
1000
0001
0100
0001
,
0010
0000
1000
0100
0010
0100
1000
0100
,
0001
0000
0001
0010
0100
0010
0001
0010
,
1000
0000
0010
1000
0001
1000
0001
1000
,
0010
1000
0010
1000
0010
1000
0010
1000
,
0010
0100
0010
0100
0001
0100
0001
0100
,
0001
0010
0001
0010
0100
1000
0100
0010
,
0001
1000
0001
1000
0001
1000
0001
1000
,
0001
0100
0001
0100
0001
0100
0001
0100
,
0010
0100
0010
0100
0010
0100
0010
0100
,
0010
1000
0010
1000
0010
1000
0010
0000
,
1001
0000
0001
1000
0010
0100
0001
0000
,
1001
0000
0010
1000
0001
0010
0100
0000
,
1001
0000
1000
0100
0010
0001
1000
0000
,
1000
0010
1000
0010
0100
0001
0010
0100
,
1001
0001
1001
0001
0110
0110
1010
1010
,
0101
0000
0001
1000
0010
1000
0001
0010
,
0100
0000
1000
0100
1000
0100
0010
0001
,
1000
0000
1000
0100
0001
0010
0100
0001
,
1000
0000
0010
1000
0001
0010
0100
1000
,
0001
0000
0010
0100
1000
0010
1000
0000
,
0001
0000
0010
0100
1000
0100
0010
0001
,
1000
0000
1000
0010
1000
0001
0010
0100
,
0001
0000
1000
0010
1000
0010
0100
0001
,
0010
0000
0001
1000
0001
0010
0100
0001
,
1000
0000
1000
0010
1000
0010
0100
0001
,
0010
0000
0001
1000
0100
0001
0010
0100
,
1000
0000
1000
0001
1000
0100
0001
0010
,
0100
0000
1000
0100
0001
0010
1000
0100
,
0001
0000
1000
0010
1000
0010
0001
0100
,
0010
0000
1000
0100
0001
0010
0100
0001
,
1000
0000
1000
0100
0001
0010
0100
1000
,
0100
0000
1000
0010
0000
1000
0001
0000
,
0010
0000
0001
0010
0100
1000
0100
0000
,
0010
0000
0001
1000
0001
1000
0010
0000
,
0100
0000
0001
1000
0010
1000
0001
0010
,
0100
0000
1000
0001
1000
0010
1000
0000
,
0001
0000
0010
0100
1000
0100
0010
0000
,
0001
1000
0001
0010
0001
1000
0100
0000
,
1000
0000
0010
1000
0010
0100
0001
0000
,
0010
0000
0100
0001
1000
0100
0001
0010
,
0100
0000
0001
0010
0100
0001
1000
0010
,
1000
0000
0001
1000
0010
0100
0001
0000
,
0010
0100
1000
0100
0010
0001
1000
0010
,
0100
0000
0001
1000
0001
0010
0100
0000
,
1000
0000
1000
0001
0100
0001
0010
0000
,
1000
0100
0010
0001
0010
0001
1000
0000
,
1000
0001
1000
0010
0100
0010
1000
0000
,
1001
0001
0100
0010
0001
0010
0100
0000
,
1100
0100
0010
0001
1000
0010
0100
0000
,
1001
0001
0100
0010
1000
0001
0010
0000
,
1000
0001
1000
0100
0010
0001
0010
0100
,
0010
0001
1000
0010
0100
0001
0010
0100
,
1000
0000
1000
0001
1000
0010
0100
0000
,
0001
0000
0010
0100
1000
0100
0010
0001
,
1000
0000
0100
0001
0010
1000
0100
0001
,
0010
0000
0010
1000
0001
0010
0100
1000
,
0001
0000
0010
0100
1000
0100
0010
0001
,
1000
0000
1000
0100
0001
1000
0100
0001
,
0010
0000
1000
0010
0001
0010
1000
0010
,
0001
0000
1000
0010
1000
0010
0100
0001
,
0010
0000
1000
0100
1000
0100
0010
0001
,
1000
0000
1000
0010
0100
0010
1000
0001
,
0010
0000
0010
0001
1000
0001
1000
0010
,
0100
0000
0100
0001
0010
0100
1000
0100
,
0010
0000
0001
1000
0001
0100
0001
0010
,
0100
0000
1000
0100
0010
0100
0010
0001
,
0010
0000
1000
0001
1000
0001
0100
0010
,
1000
0000
1000
0100
0010
0001
0010
0100
,
1000
0000
1000
0010
0100
0001
0010
0100
,
1000
0000
1000
0001
0010
0100
0001
0100
,
0010
0000
1000
0001
1000
0100
0010
0001
,
2002
0000
0000
0000
,
3003
0000
0000
0000
,
0000
0000
0000
0000
,
0000
0000
0000
0000
,
0000
0000
0000
0000
,
0000
0000
0000
0000
,
0000
0000
0000
0000
,
0000
0000
0000
0000
,
0000
0000
0000
0000
,
0000
0000
0000
0000
,
0000
0000
0000
0000
,
0000
0000
0000
0000
,
0000
0000
0000
0000
,
0000
0000
0000
0000
1000
0001
1000
0001
,
1000
0000
1000
0000
0010
0100
0001
0010
,
0100
1000
0001
1000
0001
0000
1000
0000
,
0010
0000
0100
0001
0010
0000
0010
0100
,
1000
0000
1000
0001
1000
0000
1000
0010
,
0200
0001
0010
0001
,
0010
0000
0010
0000
0301
0000
0001
1000
,
0020
0100
1000
0100
,
0001
0000
1030
0000
1000
0001
1000
0010
,
0100
0000
0100
0000
0001
0010
0100
1000
,
0100
0010
0001
0000
1000
0000
0010
0000
,
1000
0001
1000
0010
1000
0000
0100
0000
,
0010
0001
1000
0000
0010
0000
0100
0001
,
0020
1000
0001
0100
,
0001
0000
1000
0000
0130
0000
0010
0001
,
2000
0010
0100
0001
,
0010
0000
3001
0000
1000
0001
1000
0000
,
0010
0100
0010
0000
1000
0000
1000
0001
,
0000
0001
1000
0000
0010
0100
0010
0000
,
0001
0010
0001
0000
1000
0000
1000
0100
,
0000
0100
0010
0000
0001
1000
0001
0000
,
1000
0010
1000
0000
1000
0000
0001
0010
,
0000
0010
0100
0000
1000
0000
0001
0000
,
1000
0000
0010
1000
0001
0000
0010
0000
,
0100
1000
1001
0110
,
1010
0000
0101
0000
0011
0001
1000
0010
,
1000
0010
0100
0001
0010
0100
1000
0001
,
1000
0000
0010
0100
0001
0010
0100
1000
,
0001
0000
1000
0001
1000
0010
0100
0001
,
0010
0000
0010
0100
0010
0001
1000
0010
,
0100
0000
0001
1000
0001
0000
1000
0000
,
0010
0100
0001
0010
0100
0000
1000
0000
,
0001
0000
1000
0100
1000
0000
0010
0000
,
0100
0000
0001
0000
0010
0100
1000
0001
,
0100
0010
1000
0001
0100
0000
0010
0000
,
1000
0000
0001
1000
0001
0010
0000
0010
,
0100
0000
0100
1000
0001
0100
0000
0100
,
0010
0000
0010
1000
0001
0010
0000
0100
,
1000
0000
0001
0100
0020
0000
1000
0000
,
0100
0000
0130
0000
0001
0000
1000
0100
,
0010
0001
1000
0000
0002
0000
0010
0000
,
0100
1000
0100
0010
,
0100
0000
1000
0100
1003
0000
0010
0100
,
0001
0010
0100
1000
0001
0000
1000
0000
,
0010
0000
0100
0000
0001
0010
0100
1000
,
0100
0010
0001
1000
0010
0000
0100
0000
,
0001
0000
1000
0000
1000
0100
0010
0100
,
1000
0100
0010
0001
0010
0000
0100
0000
,
0001
0000
1000
0000
1000
0001
0100
1000
,
0010
0001
0100
0010
0001
0000
0010
0000
,
0100
0000
1000
0000
1000
0001
1000
0010
,
0100
0001
0010
0100
1000
0000
0001
0000
,
0010
0000
0100
0000
1000
0100
1000
0100
,
0010
0001
0010
0100
1000
0000
0001
0000
,
1000
0000
0010
0000
0100
0001
0010
0100
,
1000
0100
0010
0001
1000
0000
0010
0000
,
0100
0000
0001
0000
1000
0001
1000
0001
,
0100
0010
1000
0010
0100
0001
0010
0100
,
1000
0100
0010
0001
1000
0000
0001
0000
,
0100
0000
0010
0000
1000
0000
0001
1000
,
0001
0000
0001
0000
1000
0010
0100
0000
,
0001
0000
0010
0000
0100
0000
1000
0100
,
1000
0010
0100
0001
0010
0000
0100
0000
,
0001
0000
1000
0000
0001
0100
0001
0010
,
0001
0000
1000
0000
0010
0100
0001
0000
,
0010
0000
0100
0000
1000
0100
1000
0001
,
0100
0010
1000
0001
1000
0000
1000
0000
,
0001
0000
0100
0000
0001
0100
0010
0001
,
1000
0010
0100
1000
0001
0100
0010
0000
,
1000
0000
0001
0000
0100
0000
0010
1000
,
0001
0000
0100
0000
0010
0000
1000
0001
,
0100
0010
0001
1000
,
1000
0001
1000
0000
0010
0000
0100
0000
,
0001
0010
0100
0000
1000
0000
0001
0000
,
1000
0010
0100
0000
0001
0000
0010
0000
,
0100
1000
0001
0001
,
0010
0000
0010
0000
0100
1000
0100
0010
,
0001
0010
0100
1000
0001
0001
1000
1000
,
0010
0010
0110
0110
0101
0000
0001
0000
,
1000
0000
0010
0000
1000
0001
1000
0000
,
0010
0001
0100
0000
0001
1000
0001
0000
,
0010
0000
0100
0000
1000
0001
0100
0000
,
0100
0001
0010
0000
0010
0100
1000
0100
,
0010
0001
1000
0010
,
1000
0001
0010
0100
0001
0000
1000
0000
,
0010
0000
0100
0000
0001
1000
0001
0010
,
0100
1000
0100
0010
0001
0000
1000
0000
,
0010
0000
0100
0000
0001
1000
0001
0010
,
0100
1000
0100
0010
0001
0000
1000
0000
,
0010
0000
1000
0000
0001
1000
0001
0010
,
0100
0001
1000
0010
0001
0000
1000
0000
,
0001
0000
1000
0000
0010
0100
0001
0010
,
0100
0001
1000
0010
0100
0000
1000
0000
,
0001
0000
1000
0000
1000
0100
0001
0100
,
1000
0010
0001
0010
1000
0000
0001
0000
,
1000
0001
0010
0010
,
0100
0000
0100
0000
1000
0001
1000
0001
,
1000
0001
1000
0001
0100
0010
0100
0010
,
0100
0010
0100
0010
1000
0100
0010
0001
,
0010
0100
1000
0100
0010
0001
0010
0100
,
0010
0001
1000
0100
0010
0100
1000
0100
,
0001
0100
0010
0001
1000
0001
0100
0010
,
1000
0001
0010
0100
1000
0000
0001
0000
,
1000
0000
0001
0000
1000
1000
0001
0001
,
0010
0010
0100
0100
1000
0000
0001
0000
,
1000
0000
0010
0000
1000
0001
0100
1000
,
0001
0100
1000
0001
0100
0000
0010
0000
,
0001
0000
1000
0000
1000
0100
0001
0010
,
1000
0100
0001
0010
0101
1000
0001
0100
,
0001
1000
0010
0100
0001
0010
0100
1000
,
0001
0100
0010
1000
0001
0000
1000
0000
,
0001
0000
0010
0000
0100
0001
0100
0000
,
0010
0000
1000
0001
1000
0000
0010
0000
,
0100
0000
0001
0010
0001
0000
1000
0000
,
0010
0000
1000
0100
0010
0001
1000
0000
,
0010
0000
0100
0001
0010
0000
1000
0000
,
0001
0000
1000
0001
0100
0000
0010
0000
,
0001
0000
1000
0001
0010
0000
0100
0000
,
0001
0000
1000
0000
1001
0001
0100
0010
,
1000
0001
0100
0000
0001
1000
0001
0000
,
0010
0000
0100
1000
0001
0000
1000
0000
,
0001
0000
0100
0010
1000
0001
0010
0100
,
1000
0100
0010
0001
1000
0000
0001
0000
,
0100
0000
0010
1000
0001
0000
0100
0000
,
0001
0000
1000
0100
0001
0000
0100
0000
,
0010
0000
1000
0000
0001
1000
0000
1000
,
0001
0000
0010
0000
0010
1000
0001
0010
,
0100
0000
1000
0001
1000
0000
0010
0100
,
0001
0010
0100
1000
0001
0000
0001
0100
,
0001
0000
0010
0000
0100
0000
1000
0001
,
1000
0010
0100
0001
0010
0000
1000
0001
,
0010
0000
0100
0001
1000
0000
0100
0010
,
0000
0001
1000
0000
0001
0000
0010
0000
,
0100
0000
1000
0000
0001
1000
0000
1000
,
0001
0000
0010
0100
0010
0000
1000
0000
,
0001
0010
0001
1000
,
0010
0100
0010
1000
0001
0000
0100
0000
,
0001
0000
0010
0000
0001
1000
0001
0010
,
0001
1000
0100
0010
0001
1000
0010
0100
,
0001
1000
0010
0100
,
0001
0000
1000
0000
1000
0100
0010
0001
,
1000
0010
0100
0001
1000
0001
0000
0001
,
1000
0000
0010
0100
0010
1000
0001
0010
,
0100
0000
1000
0001
1000
0000
0001
0000
,
0100
0000
0010
1000
0001
0000
0010
0000
,
0100
0000
1000
0001
0100
0000
0001
0000
,
0010
0000
0100
0001
0010
0000
0100
0000
,
1000
0000
0001
1000
0001
0000
0100
0000
,
0010
0000
1000
0100
0001
0000
0010
0000
,
0100
0000
0001
0000
0100
0001
0000
0001
,
0100
0000
0010
1000
0001
0000
0100
0000
,
0001
0000
0010
0001
1000
0000
1000
0010
,
0100
0001
1000
0001
0100
0000
0010
0000
,
1000
0000
0001
1000
0001
0100
0001
0010
,
0001
1000
0001
0100
0010
0000
1000
0000
,
0100
0000
1000
0100
0001
0010
0100
0010
,
0100
1000
0001
0100
0010
0000
1000
0000
,
0001
0000
0100
0000
0010
1000
0000
1000
,
0001
0000
0001
1000
0001
0010
0100
1000
,
0001
0000
0100
0010
1000
0000
0001
0000
,
0100
0000
0010
1000
0001
0000
0010
0000
,
0100
0000
1000
0001
0100
0000
0010
0000
,
0001
0000
1000
0001
0010
0000
0010
0000
,
0001
0000
1000
0100
0010
0000
0001
0000
,
1000
0000
0010
0100
0001
0000
0010
0000
,
0100
0000
1000
0000
0001
1000
0000
1000
,
0001
0000
0010
1000
0001
0000
0100
0000
,
0010
0000
1000
0100
0010
0000
0001
0000
,
0010
0000
0001
0100
0001
0000
0001
0100
,
0000
0000
0010
1000
0001
0000
0010
0000
,
1000
0000
0010
0000
0001
1000
0001
0010
,
0100
0000
1000
0001
1000
0001
0100
0000
,
0010
0000
1000
0001
0010
0000
0001
0000
,
1000
0000
0010
0000
1000
0001
0000
1000
,
0001
0000
0001
1000
0001
0000
0010
0100
,
1000
0000
0001
1000
0000
1000
0010
0000
,
0100
0001
0010
0100
1000
0000
0001
0000
,
1000
0000
0010
0000
0100
0001
0010
1000
,
0100
0001
0010
0100
1000
0000
0001
1000
,
0001
0000
1000
0010
0000
0100
0001
0000
,
0001
1000
0001
0000
0010
0000
0100
0000
,
1000
0000
0001
1000
0001
0010
0100
1000
,
0100
0000
0010
0001
1000
0000
1000
0001
,
0100
0000
0010
1000
0000
1000
0001
0000
,
0001
1000
0010
0100
0001
0000
0010
0000
,
0100
1000
0001
1000
0001
0000
1000
0010
,
1000
0000
1000
0000
0001
0010
0100
1000
,
0100
0000
0001
1000
0000
1000
0001
0000
,
0001
0100
0010
1000
0001
0000
0010
0100
,
1000
0000
0100
0000
1000
0001
0000
0001
,
1000
0000
1000
0001
1000
0000
0010
0000
,
0100
0000
0001
0010
0100
0000
1000
0000
,
0001
0000
1000
0000
0010
0010
1000
1000
,
0001
0001
0100
0010
1000
0001
0010
0100
,
2000
0000
3002
0000
0103
0010
0010
1000
,
0001
0001
0100
0010
2000
0000
3002
0000
,
0023
0000
0230
0000
1300
0001
1000
0001
,
0001
1000
0010
0100
0001
0100
1000
0001
,
0100
0000
0001
0000
0010
1000
0001
0010
,
0100
0000
1000
0000
1000
0001
1000
0001
,
0100
0000
0010
0000
1000
0001
0010
0000
,
0100
0000
1000
0000
1000
0001
0010
0100
,
1000
0000
0001
0000
0100
0010
1000
0000
,
1001
0000
0110
0000
1000
0100
0010
0001
,
0000
1001
0110
0000
0001
1000
0001
0000
,
0010
0000
0100
0000
1000
0100
0010
0001
,
2000
0000
0001
0000
3010
0100
0001
0000
,
1001
0000
0110
0000
1000
0100
0010
0001
,
0000
1000
0001
0000
0001
0100
0010
0000
,
1000
0000
0001
0000
0010
0100
0001
0100
,
0110
0000
0001
0000
1000
0001
0100
0000
,
0010
0000
1000
0000
1000
0100
0010
0001
,
0000
0001
0010
0000
0010
0100
0001
0000
,
1000
0000
0010
0000
1000
0100
0010
0001
,
2000
0000
3020
0000
0130
0001
0010
0100
,
1000
0100
0010
0001
2000
0000
3020
0000
,
0230
0000
0302
0000
1003
0001
0001
1000
,
0001
0001
0100
0010
1000
0001
0010
0100
,
2000
0000
3200
0000
0310
0001
1000
0001
,
1000
0010
0100
0001
0020
0000
0230
0000
,
2300
0000
3002
0000
0103
0010
1000
0010
,
0100
0001
0010
0100
1000
0100
0010
0001
,
1001
0000
0011
0000
0100
1000
0001
0100
,
0010
0000
0001
0000
0100
0010
1000
0001
,
0000
0001
0100
0000
0010
1000
0001
0000
,
0010
0000
0100
0000
1000
0001
1000
0001
,
0100
0000
0010
0000
0001
0010
0100
0000
,
1000
0000
0001
0000
0100
0010
1000
0001
,
0000
0001
0100
0000
0010
1000
0001
0000
,
0010
0000
0100
0000
1000
0100
0001
0100
,
0010
0000
0001
0000
1000
0001
0010
0000
,
0100
0000
0001
0000
0010
0100
1000
0001
,
0000
0001
1000
0000
1000
0100
0010
0000
,
0001
0000
1000
0000
0001
0010
0100
0001
,
1000
0000
1000
0000
1000
0100
0010
0000
,
0101
0000
0010
0000
0100
1000
0001
1000
,
0000
1000
0001
0000
0001
0100
0010
0000
,
1001
0000
0110
0000
1000
0100
0010
0001
,
1001
0110
2000
0000
,
0000
0000
0000
0000
3002
0000
0000
0023
,
0000
0000
0230
0000
,
0000
0000
0000
0000
2300
0000
0000
3002
,
0000
0000
0203
0000
,
0000
0000
0000
0000
0320
0000
0000
2030
,
0000
0000
3002
0000
,
0000
0000
0000
0000
0203
0000
0000
0320
,
0000
0000
1130
1010
,
0110
1001
1010
0110
,
1100
0011
1100
0101
,
0110
1001
1010
0101
,
1001
1001
0110
0011
,
1100
1001
0110
1010
,
0001
1000
0001
0000
0001
0000
0010
0000
,
0100
1000
0001
0000
1000
0000
1000
0001
,
0100
0010
1000
0000
0001
0000
0010
0000
,
0100
0000
1000
0000
0001
0000
0001
1000
,
0001
0001
0001
0100
,
0010
1000
0010
0000
1000
0000
1000
0100
,
0010
0100
1000
0100
0001
0000
0100
0000
,
0010
1000
0001
0000
0100
1000
0100
0010
,
0100
0001
0100
1000
0100
0000
0010
0000
,
0001
1000
0001
0000
0001
1000
0010
0100
,
0001
0100
0001
0000
1000
0000
0010
0000
,
1000
0000
0001
0000
1000
0001
1000
0001
,
0100
0100
0100
0100
0010
0100
1000
0001
,
0010
0100
1000
0000
0001
0000
0100
0010
,
1000
0001
0010
0100
,
1000
0001
1000
0000
1000
0100
0010
0100
,
1000
0001
0100
0001
1000
0000
0001
0000
,
0100
0001
0010
0000
0001
1000
0100
0010
,
0100
1000
0001
0100
0010
0000
1000
0000
,
0001
1000
0001
0000
0010
0001
1000
0001
,
1000
0100
1000
0001
0100
0000
0010
0000
,
1000
0001
0010
0000
0100
1000
0100
1000
,
0001
0100
0010
0001
1000
0000
0001
0000
,
0010
0001
1000
0000
1000
0001
0100
0001
,
0010
0100
0010
0001
1000
0000
0001
0000
,
1000
0001
0100
0000
0001
1000
0010
0100
,
0010
1000
0001
0100
0001
0000
0010
0000
,
0001
1000
0100
0000
1000
0001
0100
0001
,
0010
0100
1000
0100
0010
0000
0001
0000
,
1000
0001
0100
0000
0010
0000
1000
0001
,
0010
0100
1000
0001
0100
0000
0010
0000
,
1000
0001
0100
0000
0001
0010
0001
1000
,
0001
0100
0010
1000
0001
0000
1000
0000
,
0010
1000
0001
0000
1000
0001
0100
0001
,
0010
0100
1000
0100
0010
0000
0001
0000
,
1000
0010
0100
0001
0010
0000
0100
0000
,
1000
0000
0001
0100
0010
0000
1000
0000
,
0001
0000
0010
0100
1000
0000
0001
0000
,
1000
0000
1000
0001
0000
0001
1000
0000
,
0010
0000
0100
0001
0010
0100
1000
0000
,
0001
0000
0100
0010
1000
0000
0001
0000
,
0100
0000
0010
1000
0001
0000
0010
0000
,
0100
0000
1000
0001
0100
0000
0001
0000
,
1000
0000
0100
0010
0001
0000
1000
0000
,
0010
0000
0100
0001
0010
0100
0001
0000
,
1000
0000
0010
0100
0001
0000
0010
0000
,
0100
0000
1000
0001
0100
0001
0010
0100
,
1000
0000
0001
0000
1000
0010
0100
0000
,
0001
0000
0010
0100
1000
0001
0100
0000
,
0001
0000
1000
0010
0100
0001
0010
0000
,
0001
1000
0010
0100
0001
0000
1000
0001
,
1000
0000
1000
0100
0010
0000
0001
0000
,
1000
0000
0010
0100
0001
0000
0010
0000
,
0100
0000
0001
1000
0001
0000
0001
0000
,
0010
0000
0100
0001
0010
0000
0010
0000
,
0100
0000
1000
0001
0100
0000
0010
0000
,
1000
0000
1000
0001
0000
0001
1000
0000
,
0010
0000
0100
0001
0000
0001
0010
0000
,
0100
1000
0000
1000
0001
0000
0001
1000
,
0001
0000
0010
0000
0100
1000
0001
0000
,
0100
0000
0010
1000
0001
0010
0100
0001
,
1000
0000
0001
0000
0100
0001
0010
0000
,
1000
0100
0010
0100
1000
0001
0100
0010
,
1000
0001
0100
0001
,
0010
0001
1000
0100
0010
0100
1000
0001
,
0100
0010
1000
0001
,
1000
0001
0010
0100
1000
0001
0100
0010
,
1000
0001
0100
0001
,
0001
0010
0001
1000
0100
0010
0100
1000
,
0001
0100
0010
1000
,
0001
1000
0001
0100
0010
1000
0001
0010
,
0100
1000
0001
1000
,
0010
1000
0010
0100
0001
0010
0100
0001
,
1000
0001
1000
0010
,
0100
0001
0010
0100
0010
0001
1000
0010
,
0100
0001
1000
0010
,
1000
0000
1000
0001
0000
0001
1000
0000
,
0010
0100
0001
0010
,
0100
0000
1000
0100
0010
0001
1000
0000
,
0010
0100
0001
0010
,
0100
0000
1000
0001
1000
0001
1000
0000
,
0010
0100
0001
0010
,
0100
1000
0100
0010
0001
1000
0010
0100
,
0001
0000
0010
0000
0100
0000
1000
0001
,
0100
0000
0010
0000
1000
0001
0010
0000
,
0100
0000
1000
0001
0100
0001
0010
0100
,
1000
0000
1000
0100
0010
0100
1000
0100
,
0010
0000
0001
1000
0001
0100
0001
0010
,
0100
0000
1000
0001
0100
0001
1000
0001
,
0010
0000
0001
0000
1000
0010
0100
0001
,
0010
0000
0100
0000
1000
0000
1000
0001
,
0010
0000
0010
0000
0001
0000
0001
0100
,
0010
1000
0100
0000
1000
0000
1000
0001
,
0010
0100
0001
0000
1000
0000
0010
0001
,
0010
0100
0001
0000
1000
0000
1000
0100
,
0001
1000
0010
0100
1000
0000
0001
0100
,
0010
0001
1000
0000
1000
0000
1000
0100
,
0010
0001
1000
0100
0010
0000
0001
1000
,
0010
0100
0001
0000
0010
0000
0100
1000
,
0001
1000
0001
0100
0001
0010
1000
0000
,
0001
0000
0100
0000
0010
0000
0001
1000
,
0010
0100
0001
0010
0100
0000
1000
0001
,
0010
0100
1000
0000
0001
0000
0100
0001
,
0010
0100
1000
0000
1000
0000
0001
1000
,
0010
0100
0001
0000
0010
0000
0100
1000
,
0001
1000
0010
0100
0001
0000
0010
0000
,
0100
1000
0001
0000
1000
0000
1000
0010
,
0100
0001
0010
0000
0100
0000
1000
0001
,
1000
0010
0100
0000
0001
0000
0010
0001
,
1000
0001
0100
0010
1000
0000
1000
0000
,
0001
0100
0001
0000
0010
0000
0100
1000
,
0100
0010
0001
0000
1000
0000
1000
0001
,
0010
0100
1000
0000
0001
0000
1000
0010
,
0100
0001
0010
0100
,
1000
0001
1001
0110
,
1010
0101
0001
1000
,
0001
0010
0011
0110
,
1100
0001
1000
0000
1000
0001
1000
0001
,
1000
0010
0100
0000
0100
0010
0100
0010
,
1000
0001
0100
0000
1000
0001
1000
0001
,
0010
0100
1000
0000
1000
0000
0100
0001
,
0010
0100
1000
0001
0200
0000
0000
0000
,
0000
0000
0000
0000
0010
1000
0010
1000
,
0001
0000
0000
0000
0000
0000
0000
0000
0000
0000
0000
0000
0000
0000
0000
0000
0000
0000
0000
0000
0000
0000
0000
0000
1000
0000
0000
0000
0000
0000
0000
0000
0000
0000
0000
0000
0000
0000
0000
0000
0000
0000
0000
0000
0000
0000
0000
0000
0310
0000
0000
0000
0000
0000
0000
0000
0000
0000
0000
0000
0000
0000
0000
0000
0000
0000
0000
0000
0000
0000
0000
0000
0000
0000
0000
0000
0000
0000
0000
0000
0000
0000
0000
0000
0000
0000
0000
0000
0000
0000
0000
0000
0000
0000
0000
0000
2MM2
0MM0
0MM0
0MM0
0MM0
0MM0
0MM0
0MM0
0MM0
0MM0
0MM0
0MM0
0MM0
0MM0
0MM0
0MM0
0MM0
0MM0
0MM0
0MM0
0MM0
0MM0
0MM0
0MM0
0MM0
0MM0
0MM0
0MM0
0MM0
0MM0
0MM0
0MM0
0MM0
0MM0
0MM0
0MM0
0MM0
0MM0
0MM0
0MM0
0MM0
0MM0
0MM0
0MM0
0MM0
0MM0
0MM0
0MM0
0MM0
0MM0
0MM0
0MM0
0MM0
0MM0
0MM0
0MM0
0MM0
0MM0
0MM0
0MM0
0MM0
0MM0
0MM0
0MM0
0MM0
0MM0
0MM0
0MM0
0MM0
0MM0
0MM0
0MM0
0MM0
0MM0
0MM0
0MM0
0MM0
0MM0
0MM0
0MM0
0MM0
0MM0
0MM0
0MM0
0MM0
0MM0
0MM0
0MM0
0MM0
0MM0
0MM0
0MM0
0MM0
0MM0
0MM0
0MM0
,
3MM3
0000
0000
0000
0000
0000
0000
0000
MMMM
M000
M000
M000
M000
M000
M000
M000
M000
M000
M000
M000
MMMM
0000
0000
0000
0000
0000
0000
0000
M000
M000
M000
M000
,
M000
M000
M000
M000
M000
M000
M000
M000
MMMM
0000
0000
0000
0000
0000
0000
0000
MMMM
M000
M000
M000
M000
M000
MMM0
M000
M000
M000
M000
M000
MMMM
0000
0000
0000
,
0000
0000
0000
0000
0MM0
0000
0000
M00M
M00M
M00M
M00M
MMMM
M00M
M00M
M00M
M00M
M00M
0000
0000
0000
0000
0000
0000
0000
MMMM
M00M
M00M
M00M
M00M
M000
MMM0
M000
,
M0M0
M0M0
M000
M00M
0000
0000
0000
0000
0000
0000
0000
0000
0000
0000
0000
0000
0000
0000
0000
0000
0000
0000
0000
0000
0000
0000
0000
0000
0000
0000
0000
0000
;

//---------------dance-single - Index----------------
#NOTES:
     dance-single:
     Index:
     Challenge:
     13:
     1.000,1.000,0.002,0.002,1.000,20092.000,5.000,4.000,4.000,0.000:
0000
0000
0000
0000
,
0000
0000
0000
0000
,
0000
0000
0000
0000
,
0000
0000
0000
0000
,
1000
0100
0010
0001
1000
0010
1000
0100
0010
0001
0100
0001
0010
0100
1000
0001
,
0100
0010
0100
0001
1000
0010
0100
0010
1000
0100
0010
0001
0100
0010
1000
0001
,
0010
0001
0100
0010
1000
0100
1000
0001
0100
0010
1000
0100
0010
0001
0100
0010
,
1000
0100
0010
0001
0100
0010
0100
0001
0010
0100
1000
0010
0100
0010
1000
0100
,
0010
0001
1000
0100
1000
0010
0100
0001
0010
0001
1000
0010
1000
0001
0100
0001
,
0010
0100
1000
0100
0010
0001
0100
0010
1000
0010
0100
0001
0010
0100
1000
0100
,
0010
0001
0100
0010
1000
0010
0100
0001
1000
0100
0010
0001
1000
0100
0010
0001
,
0100
0010
1000
0001
0100
0010
1000
0010
0100
0001
0100
0010
1000
0100
0010
0001
,
0100
0010
1000
0010
0100
0001
0010
0100
1000
0001
0010
0001
0100
0001
1000
0010
,
1000
0001
0100
0010
1000
0100
0010
0001
0100
0010
1000
0001
0010
0001
0100
0010
,
1000
0001
0100
0010
1000
0100
0010
0001
0100
0010
0100
0001
0010
0100
1000
0001
,
0010
0100
1000
0010
1000
0001
0100
0010
1000
0001
0100
0010
1000
0100
0010
0001
,
1000
0100
0010
0001
0010
0100
1000
0001
1000
0010
0100
0001
1000
0001
0010
0100
,
1000
0001
1000
0100
0010
0001
0100
0010
0100
0001
0010
0100
1000
0010
0100
0010
,
1000
0001
0100
0010
1000
0001
0010
0001
0100
0010
0100
0001
1000
0001
0010
0100
,
1000
0001
0100
0010
1000
0010
0100
0001
0010
0100
1000
0100
0010
0001
0100
0001
,
1000
0100
0010
0001
1000
0010
1000
0100
0010
0001
0100
0001
0010
0100
1000
0001
,
0100
0010
0100
0001
1000
0010
0100
0010
1000
0100
0010
0001
0100
0010
1000
0001
,
0010
0001
0100
0010
1000
0100
1000
0001
0100
0010
1000
0100
0010
0001
0100
0010
,
1000
0100
0010
0001
0100
0010
0100
0001
0010
0100
1000
0010
0100
0010
1000
0100
,
0010
0001
1000
0100
1000
0010
0100
0001
0010
0001
1000
0010
1000
0001
0100
0001
,
0010
0100
1000
0100
0010
0001
0100
0010
1000
0010
0100
0001
0010
0100
1000
0100
,
0010
0001
0100
0010
1000
0010
0100
0001
1000
0100
0010
0001
1000
0100
0010
0001
,
0100
0010
1000
0001
0100
0010
1000
0010
0100
0001
0100
0010
1000
0100
0010
0001
,
0100
0010
1000
0010
0100
0001
0010
0100
1000
0001
0010
0001
0100
0001
1000
0010
,
1000
0001
0100
0010
1000
0100
0010
0001
0100
0010
1000
0001
0010
0001
0100
0010
,
1000
0001
0100
0010
1000
0100
0010
0001
0100
0010
0100
0001
0010
0100
1000
0001
,
0010
0100
1000
0010
1000
0001
0100
0010
1000
0001
0100
0010
1000
0100
0010
0001
,
1000
0100
0010
0001
0010
0100
1000
0001
1000
0010
0100
0001
1000
0001
0010
0100
,
1000
0001
1000
0100
0010
0001
0100
0010
0100
0001
0010
0100
1000
0010
0100
0010
,
1000
0001
0100
0010
1000
0001
0010
0001
0100
0010
0100
0001
1000
0001
0010
0100
,
1000
0001
0100
0010
1000
0010
0100
0001
0010
0100
1000
0100
0010
0001
0100
0001
,
1000
0100
0010
0001
1000
0010
1000
0100
0010
0001
0100
0001
0010
0100
1000
0001
,
0100
0010
0100
0001
1000
0010
0100
0010
1000
0100
0010
0001
0100
0010
1000
0001
,
0010
0001
0100
0010
1000
0100
1000
0001
0100
0010
1000
0100
0010
0001
0100
0010
,
1000
0100
0010
0001
0100
0010
0100
0001
0010
0100
1000
0010
0100
0010
1000
0100
,
0010
0001
1000
0100
1000
0010
0100
0001
0010
0001
1000
0010
1000
0001
0100
0001
,
0010
0100
1000
0100
0010
0001
0100
0010
1000
0010
0100
0001
0010
0100
1000
0100
,
0010
0001
0100
0010
1000
0010
0100
0001
1000
0100
0010
0001
1000
0100
0010
0001
,
0100
0010
1000
0001
0100
0010
1000
0010
0100
0001
0100
0010
1000
0100
0010
0001
,
0100
0010
1000
0010
0100
0001
0010
0100
1000
0001
0010
0001
0100
0001
1000
0010
,
1000
0001
0100
0010
1000
0100
0010
0001
0100
0010
1000
0001
0010
0001
0100
0010
,
1000
0001
0100
0010
1000
0100
0010
0001
0100
0010
0100
0001
0010
0100
1000
0001
,
0010
0100
1000
0010
1000
0001
0100
0010
1000
0001
0100
0010
1000
0100
0010
0001
,
1000
0100
0010
0001
0010
0100
1000
0001
1000
0010
0100
0001
1000
0001
0010
0100
,
1000
0001
1000
0100
0010
0001
0100
0010
0100
0001
0010
0100
1000
0010
0100
0010
,
1000
0001
0100
0010
1000
0001
0010
0001
0100
0010
0100
0001
1000
0001
0010
0100
,
1000
0001
0100
0010
1000
0010
0100
0001
0010
0100
1000
0100
0010
0001
0100
0001
,
1000
0100
0010
0001
1000
0010
1000
0100
0010
0001
0100
0001
0010
0100
1000
0001
,
0100
0010
0100
0001
1000
0010
0100
0010
1000
0100
0010
0001
0100
0010
1000
0001
,
0010
0001
0100
0010
1000
0100
1000
0001
0100
0010
1000
0100
0010
0001
0100
0010
,
1000
0100
0010
0001
0100
0010
0100
0001
0010
0100
1000
0010
0100
0010
1000
0100
,
0010
0001
1000
0100
1000
0010
0100
0001
0010
0001
1000
0010
1000
0001
0100
0001
,
0010
0100
1000
0100
0010
0001
0100
0010
1000
0010
0100
0001
0010
0100
1000
0100
,
0010
0001
0100
0010
1000
0010
0100
0001
1000
0100
0010
0001
1000
0100
0010
0001
,
0100
0010
1000
0001
0100
0010
1000
0010
0100
0001
0100
0010
1000
0100
0010
0001
,
0100
0010
1000
0010
0100
0001
0010
0100
1000
0001
0010
0001
0100
0001
1000
0010
,
1000
0001
0100
0010
1000
0100
0010
0001
0100
0010
1000
0001
0010
0001
0100
0010
,
1000
0001
0100
0010
1000
0100
0010
0001
0100
0010
0100
0001
0010
0100
1000
0001
,
0010
0100
1000
0010
1000
0001
0100
0010
1000
0001
0100
0010
1000
0100
0010
0001
,
1000
0100
0010
0001
0010
0100
1000
0001
1000
0010
0100
0001
1000
0001
0010
0100
,
1000
0001
1000
0100
0010
0001
0100
0010
0100
0001
0010
0100
1000
0010
0100
0010
,
1000
0001
0100
0010
1000
0001
0010
0001
0100
0010
0100
0001
1000
0001
0010
0100
,
1000
0001
0100
0010
1000
0010
0100
0001
0010
0100
1000
0100
0010
0001
0100
0001
,
1000
0100
0010
0001
1000
0010
1000
0100
0010
0001
0100
0001
0010
0100
1000
0001
,
0100
0010
0100
0001
1000
0010
0100
0010
1000
0100
0010
0001
0100
0010
1000
0001
,
0010
0001
0100
0010
1000
0100
1000
0001
0100
0010
1000
0100
0010
0001
0100
0010
,
1000
0100
0010
0001
0100
0010
0100
0001
0010
0100
1000
0010
0100
0010
1000
0100
,
0010
0001
1000
0100
1000
0010
0100
0001
0010
0001
1000
0010
1000
0001
0100
0001
,
0010
0100
1000
0100
0010
0001
0100
0010
1000
0010
0100
0001
0010
0100
1000
0100
,
0010
0001
0100
0010
1000
0010
0100
0001
1000
0100
0010
0001
1000
0100
0010
0001
,
0100
0010
1000
0001
0100
0010
1000
0010
0100
0001
0100
0010
1000
0100
0010
0001
,
0100
0010
1000
0010
0100
0001
0010
0100
1000
0001
0010
0001
0100
0001
1000
0010
,
1000
0001
0100
0010
1000
0100
0010
0001
0100
0010
1000
0001
0010
0001
0100
0010
,
1000
0001
0100
0010
1000
0100
0010
0001
0100
0010
0100
0001
0010
0100
1000
0001
,
0010
0100
1000
0010
1000
0001
0100
0010
1000
0001
0100
0010
1000
0100
0010
0001
,
1000
0100
0010
0001
0010
0100
1000
0001
1000
0010
0100
0001
1000
0001
0010
0100
,
1000
0001
1000
0100
0010
0001
0100
0010
0100
0001
0010
0100
1000
0010
0100
0010
,
1000
0001
0100
0010
1000
0001
0010
0001
0100
0010
0100
0001
1000
0001
0010
0100
,
1000
0001
0100
0010
1000
0010
0100
0001
0010
0100
1000
0100
0010
0001
0100
0001
,
1000
0100
0010
0001
1000
0010
1000
0100
0010
0001
0100
0001
0010
0100
1000
0001
,
0100
0010
0100
0001
1000
0010
0100
0010
1000
0100
0010
0001
0100
0010
1000
0001
,
0010
0001
0100
0010
1000
0100
1000
0001
0100
0010
1000
0100
0010
0001
0100
0010
,
1000
0100
0010
0001
0100
0010
0100
0001
0010
0100
1000
0010
0100
0010
1000
0100
,
0010
0001
1000
0100
1000
0010
0100
0001
0010
0001
1000
0010
1000
0001
0100
0001
,
0010
0100
1000
0100
0010
0001
0100
0010
1000
0010
0100
0001
0010
0100
1000
0100
,
0010
0001
0100
0010
1000
0010
0100
0001
1000
0100
0010
0001
1000
0100
0010
0001
,
0100
0010
1000
0001
0100
0010
1000
0010
0100
0001
0100
0010
1000
0100
0010
0001
,
0100
0010
1000
0010
0100
0001
0010
0100
1000
0001
0010
0001
0100
0001
1000
0010
,
1000
0001
0100
0010
1000
0100
0010
0001
0100
0010
1000
0001
0010
0001
0100
0010
,
1000
0001
0100
0010
1000
0100
0010
0001
0100
0010
0100
0001
0010
0100
1000
0001
,
0010
0100
1000
0010
1000
0001
0100
0010
1000
0001
0100
0010
1000
0100
0010
0001
,
1000
0100
0010
0001
0010
0100
1000
0001
1000
0010
0100
0001
1000
0001
0010
0100
,
1000
0001
1000
0100
0010
0001
0100
0010
0100
0001
0010
0100
1000
0010
0100
0010
,
1000
0001
0100
0010
1000
0001
0010
0001
0100
0010
0100
0001
1000
0001
0010
0100
,
1000
0001
0100
0010
1000
0010
0100
0001
0010
0100
1000
0100
0010
0001
0100
0001
,
1000
0100
0010
0001
1000
0010
1000
0100
0010
0001
0100
0001
0010
0100
1000
0001
,
0100
0010
0100
0001
1000
0010
0100
0010
1000
0100
0010
0001
0100
0010
1000
0001
,
0010
0001
0100
0010
1000
0100
1000
0001
0100
0010
1000
0100
0010
0001
0100
0010
,
1000
0100
0010
0001
0100
0010
0100
0001
0010
0100
1000
0010
0100
0010
1000
0100
,
0010
0001
1000
0100
1000
0010
0100
0001
0010
0001
1000
0010
1000
0001
0100
0001
,
0010
0100
1000
0100
0010
0001
0100
0010
1000
0010
0100
0001
0010
0100
1000
0100
,
0010
0001
0100
0010
1000
0010
0100
0001
1000
0100
0010
0001
1000
0100
0010
0001
,
0100
0010
1000
0001
0100
0010
1000
0010
0100
0001
0100
0010
1000
0100
0010
0001
,
0100
0010
1000
0010
0100
0001
0010
0100
1000
0001
0010
0001
0100
0001
1000
0010
,
1000
0001
0100
0010
1000
0100
0010
0001
0100
0010
1000
0001
0010
0001
0100
0010
,
1000
0001
0100
0010
1000
0100
0010
0001
0100
0010
0100
0001
0010
0100
1000
0001
,
0010
0100
1000
0010
1000
0001
0100
0010
1000
0001
0100
0010
1000
0100
0010
0001
,
1000
0100
0010
0001
0010
0100
1000
0001
1000
0010
0100
0001
1000
0001
0010
0100
,
1000
0001
1000
0100
0010
0001
0100
0010
0100
0001
0010
0100
1000
0010
0100
0010
,
1000
0001
0100
0010
1000
0001
0010
0001
0100
0010
0100
0001
1000
0001
0010
0100
,
1000
0001
0100
0010
1000
0010
0100
0001
0010
0100
1000
0100
0010
0001
0100
0001
,
1000
0100
0010
0001
1000
0010
1000
0100
0010
0001
0100
0001
0010
0100
1000
0001
,
0100
0010
0100
0001
1000
0010
0100
0010
1000
0100
0010
0001
0100
0010
1000
0001
,
0010
0001
0100
0010
1000
0100
1000
0001
0100
0010
1000
0100
0010
0001
0100
0010
,
1000
0100
0010
0001
0100
0010
0100
0001
0010
0100
1000
0010
0100
0010
1000
0100
,
0010
0001
1000
0100
1000
0010
0100
0001
0010
0001
1000
0010
1000
0001
0100
0001
,
0010
0100
1000
0100
0010
0001
0100
0010
1000
0010
0100
0001
0010
0100
1000
0100
,
0010
0001
0100
0010
1000
0010
0100
0001
1000
0100
0010
0001
1000
0100
0010
0001
,
0100
0010
1000
0001
0100
0010
1000
0010
0100
0001
0100
0010
1000
0100
0010
0001
,
0100
0010
1000
0010
0100
0001
0010
0100
1000
0001
0010
0001
0100
0001
1000
0010
,
1000
0001
0100
0010
1000
0100
0010
0001
0100
0010
1000
0001
0010
0001
0100
0010
,
1000
0001
0100
0010
1000
0100
0010
0001
0100
0010
0100
0001
0010
0100
1000
0001
,
0010
0100
1000
0010
1000
0001
0100
0010
1000
0001
0100
0010
1000
0100
0010
0001
,
1000
0100
0010
0001
0010
0100
1000
0001
1000
0010
0100
0001
1000
0001
0010
0100
,
1000
0001
1000
0100
0010
0001
0100
0010
0100
0001
0010
0100
1000
0010
0100
0010
,
1000
0001
0100
0010
1000
0001
0010
0001
0100
0010
0100
0001
1000
0001
0010
0100
,
1000
0001
0100
0010
1000
0010
0100
0001
0010
0100
1000
0100
0010
0001
0100
0001
,
1000
0100
0010
0001
1000
0010
1000
0100
0010
0001
0100
0001
0010
0100
1000
0001
,
0100
0010
0100
0001
1000
0010
0100
0010
1000
0100
0010
0001
0100
0010
1000
0001
,
0010
0001
0100
0010
1000
0100
1000
0001
0100
0010
1000
0100
0010
0001
0100
0010
,
1000
0100
0010
0001
0100
0010
0100
0001
0010
0100
1000
0010
0100
0010
1000
0100
,
0010
0001
1000
0100
1000
0010
0100
0001
0010
0001
1000
0010
1000
0001
0100
0001
,
0010
0100
1000
0100
0010
0001
0100
0010
1000
0010
0100
0001
0010
0100
1000
0100
,
0010
0001
0100
0010
1000
0010
0100
0001
1000
0100
0010
0001
1000
0100
0010
0001
,
0100
0010
1000
0001
0100
0010
1000
0010
0100
0001
0100
0010
1000
0100
0010
0001
,
0100
0010
1000
0010
0100
0001
0010
0100
1000
0001
0010
0001
0100
0001
1000
0010
,
1000
0001
0100
0010
1000
0100
0010
0001
0100
0010
1000
0001
0010
0001
0100
0010
,
1000
0001
0100
0010
1000
0100
0010
0001
0100
0010
0100
0001
0010
0100
1000
0001
,
0010
0100
1000
0010
1000
0001
0100
0010
1000
0001
0100
0010
1000
0100
0010
0001
,
1000
0100
0010
0001
0010
0100
1000
0001
1000
0010
0100
0001
1000
0001
0010
0100
,
1000
0001
1000
0100
0010
0001
0100
0010
0100
0001
0010
0100
1000
0010
0100
0010
,
1000
0001
0100
0010
1000
0001
0010
0001
0100
0010
0100
0001
1000
0001
0010
0100
,
1000
0001
0100
0010
1000
0010
0100
0001
0010
0100
1000
0100
0010
0001
0100
0001
,
1000
0100
0010
0001
1000
0010
1000
0100
0010
0001
0100
0001
0010
0100
1000
0001
,
0100
0010
0100
0001
1000
0010
0100
0010
1000
0100
0010
0001
0100
0010
1000
0001
,
0010
0001
0100
0010
1000
0100
1000
0001
0100
0010
1000
0100
0010
0001
0100
0010
,
1000
0100
0010
0001
0100
0010
0100
0001
0010
0100
1000
0010
0100
0010
1000
0100
,
0010
0001
1000
0100
1000
0010
0100
0001
0010
0001
1000
0010
1000
0001
0100
0001
,
0010
0100
1000
0100
0010
0001
0100
0010
1000
0010
0100
0001
0010
0100
1000
0100
,
0010
0001
0100
0010
1000
0010
0100
0001
1000
0100
0010
0001
1000
0100
0010
0001
,
0100
0010
1000
0001
0100
0010
1000
0010
0100
0001
0100
0010
1000
0100
0010
0001
,
0100
0010
1000
0010
0100
0001
0010
0100
1000
0001
0010
0001
0100
0001
1000
0010
,
1000
0001
0100
0010
1000
0100
0010
0001
0100
0010
1000
0001
0010
0001
0100
0010
,
1000
0001
0100
0010
1000
0100
0010
0001
0100
0010
0100
0001
0010
0100
1000
0001
,
0010
0100
1000
0010
1000
0001
0100
0010
1000
0001
0100
0010
1000
0100
0010
0001
,
1000
0100
0010
0001
0010
0100
1000
0001
1000
0010
0100
0001
1000
0001
0010
0100
,
1000
0001
1000
0100
0010
0001
0100
0010
0100
0001
0010
0100
1000
0010
0100
0010
,
1000
0001
0100
0010
1000
0001
0010
0001
0100
0010
0100
0001
1000
0001
0010
0100
,
1000
0001
0100
0010
1000
0010
0100
0001
0010
0100
1000
0100
0010
0001
0100
0001
,
1000
0100
0010
0001
1000
0010
1000
0100
0010
0001
0100
0001
0010
0100
1000
0001
,
0100
0010
0100
0001
1000
0010
0100
0010
1000
0100
0010
0001
0100
0010
1000
0001
,
0010
0001
0100
0010
1000
0100
1000
0001
0100
0010
1000
0100
0010
0001
0100
0010
,
1000
0100
0010
0001
0100
0010
0100
0001
0010
0100
1000
0010
0100
0010
1000
0100
,
0010
0001
1000
0100
1000
0010
0100
0001
0010
0001
1000
0010
1000
0001
0100
0001
,
0010
0100
1000
0100
0010
0001
0100
0010
1000
0010
0100
0001
0010
0100
1000
0100
,
0010
0001
0100
0010
1000
0010
0100
0001
1000
0100
0010
0001
1000
0100
0010
0001
,
0100
0010
1000
0001
0100
0010
1000
0010
0100
0001
0100
0010
1000
0100
0010
0001
,
0100
0010
1000
0010
0100
0001
0010
0100
1000
0001
0010
0001
0100
0001
1000
0010
,
1000
0001
0100
0010
1000
0100
0010
0001
0100
0010
1000
0001
0010
0001
0100
0010
,
1000
0001
0100
0010
1000
0100
0010
0001
0100
0010
0100
0001
0010
0100
1000
0001
,
0010
0100
1000
0010
1000
0001
0100
0010
1000
0001
0100
0010
1000
0100
0010
0001
,
1000
0100
0010
0001
0010
0100
1000
0001
1000
0010
0100
0001
1000
0001
0010
0100
,
1000
0001
1000
0100
0010
0001
0100
0010
0100
0001
0010
0100
1000
0010
0100
0010
,
1000
0001
0100
0010
1000
0001
0010
0001
0100
0010
0100
0001
1000
0001
0010
0100
,
1000
0001
0100
0010
1000
0010
0100
0001
0010
0100
1000
0100
0010
0001
0100
0001
,
1000
0100
0010
0001
1000
0010
1000
0100
0010
0001
0100
0001
0010
0100
1000
0001
,
0100
0010
0100
0001
1000
0010
0100
0010
1000
0100
0010
0001
0100
0010
1000
0001
,
0010
0001
0100
0010
1000
0100
1000
0001
0100
0010
1000
0100
0010
0001
0100
0010
,
1000
0100
0010
0001
0100
0010
0100
0001
0010
0100
1000
0010
0100
0010
1000
0100
,
0010
0001
1000
0100
1000
0010
0100
0001
0010
0001
1000
0010
1000
0001
0100
0001
,
0010
0100
1000
0100
0010
0001
0100
0010
1000
0010
0100
0001
0010
0100
1000
0100
,
0010
0001
0100
0010
1000
0010
0100
0001
1000
0100
0010
0001
1000
0100
0010
0001
,
0100
0010
1000
0001
0100
0010
1000
0010
0100
0001
0100
0010
1000
0100
0010
0001
,
0100
0010
1000
0010
0100
0001
0010
0100
1000
0001
0010
0001
0100
0001
1000
0010
,
1000
0001
0100
0010
1000
0100
0010
0001
0100
0010
1000
0001
0010
0001
0100
0010
,
1000
0001
0100
0010
1000
0100
0010
0001
0100
0010
0100
0001
0010
0100
1000
0001
,
0010
0100
1000
0010
1000
0001
0100
0010
1000
0001
0100
0010
1000
0100
0010
0001
,
1000
0100
0010
0001
0010
0100
1000
0001
1000
0010
0100
0001
1000
0001
0010
0100
,
1000
0001
1000
0100
0010
0001
0100
0010
0100
0001
0010
0100
1000
0010
0100
0010
,
1000
0001
0100
0010
1000
0001
0010
0001
0100
0010
0100
0001
1000
0001
0010
0100
,
1000
0001
0100
0010
1000
0010
0100
0001
0010
0100
1000
0100
0010
0001
0100
0001
,
1000
0100
0010
0001
1000
0010
1000
0100
0010
0001
0100
0001
0010
0100
1000
0001
,
0100
0010
0100
0001
1000
0010
0100
0010
1000
0100
0010
0001
0100
0010
1000
0001
,
0010
0001
0100
0010
1000
0100
1000
0001
0100
0010
1000
0100
0010
0001
0100
0010
,
1000
0100
0010
0001
0100
0010
0100
0001
0010
0100
1000
0010
0100
0010
1000
0100
,
0010
0001
1000
0100
1000
0010
0100
0001
0010
0001
1000
0010
1000
0001
0100
0001
,
0010
0100
1000
0100
0010
0001
0100
0010
1000
0010
0100
0001
0010
0100
1000
0100
,
0010
0001
0100
0010
1000
0010
0100
0001
1000
0100
0010
0001
1000
0100
0010
0001
,
0100
0010
1000
0001
0100
0010
1000
0010
0100
0001
0100
0010
1000
0100
0010
0001
,
0100
0010
1000
0010
0100
0001
0010
0100
1000
0001
0010
0001
0100
0001
1000
0010
,
1000
0001
0100
0010
1000
0100
0010
0001
0100
0010
1000
0001
0010
0001
0100
0010
,
1000
0001
0100
0010
1000
0100
0010
0001
0100
0010
0100
0001
0010
0100
1000
0001
,
0010
0100
1000
0010
1000
0001
0100
0010
1000
0001
0100
0010
1000
0100
0010
0001
,
1000
0100
0010
0001
0010
0100
1000
0001
1000
0010
0100
0001
1000
0001
0010
0100
,
1000
0001
1000
0100
0010
0001
0100
0010
0100
0001
0010
0100
1000
0010
0100
0010
,
1000
0001
0100
0010
1000
0001
0010
0001
0100
0010
0100
0001
1000
0001
0010
0100
,
1000
0001
0100
0010
1000
0010
0100
0001
0010
0100
1000
0100
0010
0001
0100
0001
,
1000
0100
0010
0001
1000
0010
1000
0100
0010
0001
0100
0001
0010
0100
1000
0001
,
0100
0010
0100
0001
1000
0010
0100
0010
1000
0100
0010
0001
0100
0010
1000
0001
,
0010
0001
0100
0010
1000
0100
1000
0001
0100
0010
1000
0100
0010
0001
0100
0010
,
1000
0100
0010
0001
0100
0010
0100
0001
0010
0100
1000
0010
0100
0010
1000
0100
,
0010
0001
1000
0100
1000
0010
0100
0001
0010
0001
1000
0010
1000
0001
0100
0001
,
0010
0100
1000
0100
0010
0001
0100
0010
1000
0010
0100
0001
0010
0100
1000
0100
,
0010
0001
0100
0010
1000
0010
0100
0001
1000
0100
0010
0001
1000
0100
0010
0001
,
0100
0010
1000
0001
0100
0010
1000
0010
0100
0001
0100
0010
1000
0100
0010
0001
,
0100
0010
1000
0010
0100
0001
0010
0100
1000
0001
0010
0001
0100
0001
1000
0010
,
1000
0001
0100
0010
1000
0100
0010
0001
0100
0010
1000
0001
0010
0001
0100
0010
,
1000
0001
0100
0010
1000
0100
0010
0001
0100
0010
0100
0001
0010
0100
1000
0001
,
0010
0100
1000
0010
1000
0001
0100
0010
1000
0001
0100
0010
1000
0100
0010
0001
,
1000
0100
0010
0001
0010
0100
1000
0001
1000
0010
0100
0001
1000
0001
0010
0100
,
1000
0001
1000
0100
0010
0001
0100
0010
0100
0001
0010
0100
1000
0010
0100
0010
,
1000
0001
0100
0010
1000
0001
0010
0001
0100
0010
0100
0001
1000
0001
0010
0100
,
1000
0001
0100
0010
1000
0010
0100
0001
0010
0100
1000
0100
0010
0001
0100
0001
,
1000
0100
0010
0001
1000
0010
1000
0100
0010
0001
0100
0001
0010
0100
1000
0001
,
0100
0010
0100
0001
1000
0010
0100
0010
1000
0100
0010
0001
0100
0010
1000
0001
,
0010
0001
0100
0010
1000
0100
1000
0001
0100
0010
1000
0100
0010
0001
0100
0010
,
1000
0100
0010
0001
0100
0010
0100
0001
0010
0100
1000
0010
0100
0010
1000
0100
,
0010
0001
1000
0100
1000
0010
0100
0001
0010
0001
1000
0010
1000
0001
0100
0001
,
0010
0100
1000
0100
0010
0001
0100
0010
1000
0010
0100
0001
0010
0100
1000
0100
,
0010
0001
0100
0010
1000
0010
0100
0001
1000
0100
0010
0001
1000
0100
0010
0001
,
0100
0010
1000
0001
0100
0010
1000
0010
0100
0001
0100
0010
1000
0100
0010
0001
,
0100
0010
1000
0010
0100
0001
0010
0100
1000
0001
0010
0001
0100
0001
1000
0010
,
1000
0001
0100
0010
1000
0100
0010
0001
0100
0010
1000
0001
0010
0001
0100
0010
,
1000
0001
0100
0010
1000
0100
0010
0001
0100
0010
0100
0001
0010
0100
1000
0001
,
0010
0100
1000
0010
1000
0001
0100
0010
1000
0001
0100
0010
1000
0100
0010
0001
,
1000
0100
0010
0001
0010
0100
1000
0001
1000
0010
0100
0001
1000
0001
0010
0100
,
1000
0001
1000
0100
0010
0001
0100
0010
0100
0001
0010
0100
1000
0010
0100
0010
,
1000
0001
0100
0010
1000
0001
0010
0001
0100
0010
0100
0001
1000
0001
0010
0100
,
1000
0001
0100
0010
1000
0010
0100
0001
0010
0100
1000
0100
0010
0001
0100
0001
,
1000
0100
0010
0001
1000
0010
1000
0100
0010
0001
0100
0001
0010
0100
1000
0001
,
0100
0010
0100
0001
1000
0010
0100
0010
1000
0100
0010
0001
0100
0010
1000
0001
,
0010
0001
0100
0010
1000
0100
1000
0001
0100
0010
1000
0100
0010
0001
0100
0010
,
1000
0100
0010
0001
0100
0010
0100
0001
0010
0100
1000
0010
0100
0010
1000
0100
,
0010
0001
1000
0100
1000
0010
0100
0001
0010
0001
1000
0010
1000
0001
0100
0001
,
0010
0100
1000
0100
0010
0001
0100
0010
1000
0010
0100
0001
0010
0100
1000
0100
,
0010
0001
0100
0010
1000
0010
0100
0001
1000
0100
0010
0001
1000
0100
0010
0001
,
0100
0010
1000
0001
0100
0010
1000
0010
0100
0001
0100
0010
1000
0100
0010
0001
,
0100
0010
1000
0010
0100
0001
0010
0100
1000
0001
0010
0001
0100
0001
1000
0010
,
1000
0001
0100
0010
1000
0100
0010
0001
0100
0010
1000
0001
0010
0001
0100
0010
,
1000
0001
0100
0010
1000
0100
0010
0001
0100
0010
0100
0001
0010
0100
1000
0001
,
0010
0100
1000
0010
1000
0001
0100
0010
1000
0001
0100
0010
1000
0100
0010
0001
,
1000
0100
0010
0001
0010
0100
1000
0001
1000
0010
0100
0001
1000
0001
0010
0100
,
1000
0001
1000
0100
0010
0001
0100
0010
0100
0001
0010
0100
1000
0010
0100
0010
,
1000
0001
0100
0010
1000
0001
0010
0001
0100
0010
0100
0001
1000
0001
0010
0100
,
1000
0001
0100
0010
1000
0010
0100
0001
0010
0100
1000
0100
0010
0001
0100
0001
,
1000
0100
0010
0001
1000
0010
1000
0100
0010
0001
0100
0001
0010
0100
1000
0001
,
0100
0010
0100
0001
1000
0010
0100
0010
1000
0100
0010
0001
0100
0010
1000
0001
,
0010
0001
0100
0010
1000
0100
1000
0001
0100
0010
1000
0100
0010
0001
0100
0010
,
1000
0100
0010
0001
0100
0010
0100
0001
0010
0100
1000
0010
0100
0010
1000
0100
,
0010
0001
1000
0100
1000
0010
0100
0001
0010
0001
1000
0010
1000
0001
0100
0001
,
0010
0100
1000
0100
0010
0001
0100
0010
1000
0010
0100
0001
0010
0100
1000
0100
,
0010
0001
0100
0010
1000
0010
0100
0001
1000
0100
0010
0001
1000
0100
0010
0001
,
0100
0010
1000
0001
0100
0010
1000
0010
0100
0001
0100
0010
1000
0100
0010
0001
,
0100
0010
1000
0010
0100
0001
0010
0100
1000
0001
0010
0001
0100
0001
1000
0010
,
1000
0001
0100
0010
1000
0100
0010
0001
0100
0010
1000
0001
0010
0001
0100
0010
,
1000
0001
0100
0010
1000
0100
0010
0001
0100
0010
0100
0001
0010
0100
1000
0001
,
0010
0100
1000
0010
1000
0001
0100
0010
1000
0001
0100
0010
1000
0100
0010
0001
,
1000
0100
0010
0001
0010
0100
1000
0001
1000
0010
0100
0001
1000
0001
0010
0100
,
1000
0001
1000
0100
0010
0001
0100
0010
0100
0001
0010
0100
1000
0010
0100
0010
,
1000
0001
0100
0010
1000
0001
0010
0001
0100
0010
0100
0001
1000
0001
0010
0100
,
1000
0001
0100
0010
1000
0010
0100
0001
0010
0100
1000
0100
0010
0001
0100
0001
,
1000
0100
0010
0001
1000
0010
1000
0100
0010
0001
0100
0001
0010
0100
1000
0001
,
0100
0010
0100
0001
1000
0010
0100
0010
1000
0100
0010
0001
0100
0010
1000
0001
,
0010
0001
0100
0010
1000
0100
1000
0001
0100
0010
1000
0100
0010
0001
0100
0010
,
1000
0001
0100
0010
1000
0001
1000
0100
0010
0001
0100
0001
0010
0100
1000
0010
,
1001
0000
0000
0000
,
0000
0000
0000
0000
,
0000
0000
0000
0000
,
0000
0000
0000
0000
,
0000
0000
0000
0000
,
0000
0000
0000
0000
,
0000
0000
0000
0000
,
0000
0000
0000
0000
,
0000
0000
0000
0000
,
1000
0100
0010
0001
1000
0010
1000
0100
0010
0001
0100
0001
0010
0100
1000
0001
,
0100
0010
0100
0001
1000
0010
0100
0010
1000
0100
0010
0001
0100
0010
1000
0001
,
0010
0001
0100
0010
1000
0100
1000
0001
0100
0010
1000
0100
0010
0001
0100
0010
,
1000
0100
0010
0001
0100
0010
0100
0001
0010
0100
1000
0010
0100
0010
1000
0100
,
0010
0001
1000
0100
1000
0010
0100
0001
0010
0001
1000
0010
1000
0001
0100
0001
,
0010
0100
1000
0100
0010
0001
0100
0010
1000
0010
0100
0001
0010
0100
1000
0100
,
0010
0001
0100
0010
1000
0010
0100
0001
1000
0100
0010
0001
1000
0100
0010
0001
,
0100
0010
1000
0001
0100
0010
1000
0010
0100
0001
0100
0010
1000
0100
0010
0001
,
0100
0010
1000
0010
0100
0001
0010
0100
1000
0001
0010
0001
0100
0001
1000
0010
,
1000
0001
0100
0010
1000
0100
0010
0001
0100
0010
1000
0001
0010
0001
0100
0010
,
1000
0001
0100
0010
1000
0100
0010
0001
0100
0010
0100
0001
0010
0100
1000
0001
,
0010
0100
1000
0010
1000
0001
0100
0010
1000
0001
0100
0010
1000
0100
0010
0001
,
1000
0100
0010
0001
0010
0100
1000
0001
1000
0010
0100
0001
1000
0001
0010
0100
,
1000
0001
1000
0100
0010
0001
0100
0010
0100
0001
0010
0100
1000
0010
0100
0010
,
1000
0001
0100
0010
1000
0001
0010
0001
0100
0010
0100
0001
1000
0001
0010
0100
,
1000
0001
0100
0010
1000
0010
0100
0001
0010
0100
1000
0100
0010
0001
0100
0001
,
1000
0100
0010
0001
1000
0010
1000
0100
0010
0001
0100
0001
0010
0100
1000
0001
,
0100
0010
0100
0001
1000
0010
0100
0010
1000
0100
0010
0001
0100
0010
1000
0001
,
0010
0001
0100
0010
1000
0100
1000
0001
0100
0010
1000
0100
0010
0001
0100
0010
,
1000
0100
0010
0001
0100
0010
0100
0001
0010
0100
1000
0010
0100
0010
1000
0100
,
0010
0001
1000
0100
1000
0010
0100
0001
0010
0001
1000
0010
1000
0001
0100
0001
,
0010
0100
1000
0100
0010
0001
0100
0010
1000
0010
0100
0001
0010
0100
1000
0100
,
0010
0001
0100
0010
1000
0010
0100
0001
1000
0100
0010
0001
1000
0100
0010
0001
,
0100
0010
1000
0001
0100
0010
1000
0010
0100
0001
0100
0010
1000
0100
0010
0001
,
0100
0010
1000
0010
0100
0001
0010
0100
1000
0001
0010
0001
0100
0001
1000
0010
,
1000
0001
0100
0010
1000
0100
0010
0001
0100
0010
1000
0001
0010
0001
0100
0010
,
1000
0001
0100
0010
1000
0100
0010
0001
0100
0010
0100
0001
0010
0100
1000
0001
,
0010
0100
1000
0010
1000
0001
0100
0010
1000
0001
0100
0010
1000
0100
0010
0001
,
1000
0100
0010
0001
0010
0100
1000
0001
1000
0010
0100
0001
1000
0001
0010
0100
,
1000
0001
1000
0100
0010
0001
0100
0010
0100
0001
0010
0100
1000
0010
0100
0010
,
1000
0001
0100
0010
1000
0001
0010
0001
0100
0010
0100
0001
1000
0001
0010
0100
,
1000
0001
0100
0010
1000
0010
0100
0001
0010
0100
1000
0100
0010
0001
0100
0001
,
1000
0100
0010
0001
1000
0010
1000
0100
0010
0001
0100
0001
0010
0100
1000
0001
,
0100
0010
0100
0001
1000
0010
0100
0010
1000
0100
0010
0001
0100
0010
1000
0001
,
0010
0001
0100
0010
1000
0100
1000
0001
0100
0010
1000
0100
0010
0001
0100
0010
,
1000
0100
0010
0001
0100
0010
0100
0001
0010
0100
1000
0010
0100
0010
1000
0100
,
0010
0001
1000
0100
1000
0010
0100
0001
0010
0001
1000
0010
1000
0001
0100
0001
,
0010
0100
1000
0100
0010
0001
0100
0010
1000
0010
0100
0001
0010
0100
1000
0100
,
0010
0001
0100
0010
1000
0010
0100
0001
1000
0100
0010
0001
1000
0100
0010
0001
,
0100
0010
1000
0001
0100
0010
1000
0010
0100
0001
0100
0010
1000
0100
0010
0001
,
0100
0010
1000
0010
0100
0001
0010
0100
1000
0001
0010
0001
0100
0001
1000
0010
,
1000
0001
0100
0010
1000
0100
0010
0001
0100
0010
1000
0001
0010
0001
0100
0010
,
1000
0001
0100
0010
1000
0100
0010
0001
0100
0010
0100
0001
0010
0100
1000
0001
,
0010
0100
1000
0010
1000
0001
0100
0010
1000
0001
0100
0010
1000
0100
0010
0001
,
1000
0100
0010
0001
0010
0100
1000
0001
1000
0010
0100
0001
1000
0001
0010
0100
,
1000
0001
1000
0100
0010
0001
0100
0010
0100
0001
0010
0100
1000
0010
0100
0010
,
1000
0001
0100
0010
1000
0001
0010
0001
0100
0010
0100
0001
1000
0001
0010
0100
,
1000
0001
0100
0010
1000
0010
0100
0001
0010
0100
1000
0100
0010
0001
0100
0001
,
1000
0100
0010
0001
1000
0010
1000
0100
0010
0001
0100
0001
0010
0100
1000
0001
,
0100
0010
0100
0001
1000
0010
0100
0010
1000
0100
0010
0001
0100
0010
1000
0001
,
0010
0001
0100
0010
1000
0100
1000
0001
0100
0010
1000
0100
0010
0001
0100
0010
,
1000
0100
0010
0001
0100
0010
0100
0001
0010
0100
1000
0010
0100
0010
1000
0100
,
0010
0001
1000
0100
1000
0010
0100
0001
0010
0001
1000
0010
1000
0001
0100
0001
,
0010
0100
1000
0100
0010
0001
0100
0010
1000
0010
0100
0001
0010
0100
1000
0100
,
0010
0001
0100
0010
1000
0010
0100
0001
1000
0100
0010
0001
1000
0100
0010
0001
,
0100
0010
1000
0001
0100
0010
1000
0010
0100
0001
0100
0010
1000
0100
0010
0001
,
0100
0010
1000
0010
0100
0001
0010
0100
1000
0001
0010
0001
0100
0001
1000
0010
,
1000
0001
0100
0010
1000
0100
0010
0001
0100
0010
1000
0001
0010
0001
0100
0010
,
1000
0001
0100
0010
1000
0100
0010
0001
0100
0010
0100
0001
0010
0100
1000
0001
,
0010
0100
1000
0010
1000
0001
0100
0010
1000
0001
0100
0010
1000
0100
0010
0001
,
1000
0100
0010
0001
0010
0100
1000
0001
1000
0010
0100
0001
1000
0001
0010
0100
,
1000
0001
1000
0100
0010
0001
0100
0010
0100
0001
0010
0100
1000
0010
0100
0010
,
1000
0001
0100
0010
1000
0001
0010
0001
0100
0010
0100
0001
1000
0001
0010
0100
,
1000
0001
0100
0010
1000
0010
0100
0001
0010
0100
1000
0100
0010
0001
0100
0001
,
1000
0100
0010
0001
1000
0010
1000
0100
0010
0001
0100
0001
0010
0100
1000
0001
,
0100
0010
0100
0001
1000
0010
0100
0010
1000
0100
0010
0001
0100
0010
1000
0001
,
0010
0001
0100
0010
1000
0100
1000
0001
0100
0010
1000
0100
0010
0001
0100
0010
,
1000
0100
0010
0001
0100
0010
0100
0001
0010
0100
1000
0010
0100
0010
1000
0100
,
0010
0001
1000
0100
1000
0010
0100
0001
0010
0001
1000
0010
1000
0001
0100
0001
,
0010
0100
1000
0100
0010
0001
0100
0010
1000
0010
0100
0001
0010
0100
1000
0100
,
0010
0001
0100
0010
1000
0010
0100
0001
1000
0100
0010
0001
1000
0100
0010
0001
,
0100
0010
1000
0001
0100
0010
1000
0010
0100
0001
0100
0010
1000
0100
0010
0001
,
0100
0010
1000
0010
0100
0001
0010
0100
1000
0001
0010
0001
0100
0001
1000
0010
,
1000
0001
0100
0010
1000
0100
0010
0001
0100
0010
1000
0001
0010
0001
0100
0010
,
1000
0001
0100
0010
1000
0100
0010
0001
0100
0010
0100
0001
0010
0100
1000
0001
,
0010
0100
1000
0010
1000
0001
0100
0010
1000
0001
0100
0010
1000
0100
0010
0001
,
1000
0100
0010
0001
0010
0100
1000
0001
1000
0010
0100
0001
1000
0001
0010
0100
,
1000
0001
1000
0100
0010
0001
0100
0010
0100
0001
0010
0100
1000
0010
0100
0010
,
1000
0001
0100
0010
1000
0001
0010
0001
0100
0010
0100
0001
1000
0001
0010
0100
,
1000
0001
0100
0010
1000
0010
0100
0001
0010
0100
1000
0100
0010
0001
0100
0001
,
1000
0100
0010
0001
1000
0010
1000
0100
0010
0001
0100
0001
0010
0100
1000
0001
,
0100
0010
0100
0001
1000
0010
0100
0010
1000
0100
0010
0001
0100
0010
1000
0001
,
0010
0001
0100
0010
1000
0100
1000
0001
0100
0010
1000
0100
0010
0001
0100
0010
,
1000
0100
0010
0001
0100
0010
0100
0001
0010
0100
1000
0010
0100
0010
1000
0100
,
0010
0001
1000
0100
1000
0010
0100
0001
0010
0001
1000
0010
1000
0001
0100
0001
,
0010
0100
1000
0100
0010
0001
0100
0010
1000
0010
0100
0001
0010
0100
1000
0100
,
0010
0001
0100
0010
1000
0010
0100
0001
1000
0100
0010
0001
1000
0100
0010
0001
,
0100
0010
1000
0001
0100
0010
1000
0010
0100
0001
0100
0010
1000
0100
0010
0001
,
0100
0010
1000
0010
0100
0001
0010
0100
1000
0001
0010
0001
0100
0001
1000
0010
,
1000
0001
0100
0010
1000
0100
0010
0001
0100
0010
1000
0001
0010
0001
0100
0010
,
1000
0001
0100
0010
1000
0100
0010
0001
0100
0010
0100
0001
0010
0100
1000
0001
,
0010
0100
1000
0010
1000
0001
0100
0010
1000
0001
0100
0010
1000
0100
0010
0001
,
1000
0100
0010
0001
0010
0100
1000
0001
1000
0010
0100
0001
1000
0001
0010
0100
,
1000
0001
1000
0100
0010
0001
0100
0010
0100
0001
0010
0100
1000
0010
0100
0010
,
1000
0001
0100
0010
1000
0001
0010
0001
0100
0010
0100
0001
1000
0001
0010
0100
,
1000
0001
0100
0010
1000
0010
0100
0001
0010
0100
1000
0100
0010
0001
0100
0001
,
1000
0100
0010
0001
1000
0010
1000
0100
0010
0001
0100
0001
0010
0100
1000
0001
,
0100
0010
0100
0001
1000
0010
0100
0010
1000
0100
0010
0001
0100
0010
1000
0001
,
0010
0001
0100
0010
1000
0100
1000
0001
0100
0010
1000
0100
0010
0001
0100
0010
,
1000
0100
0010
0001
0100
0010
0100
0001
0010
0100
1000
0010
0100
0010
1000
0100
,
0010
0001
1000
0100
1000
0010
0100
0001
0010
0001
1000
0010
1000
0001
0100
0001
,
0010
0100
1000
0100
0010
0001
0100
0010
1000
0010
0100
0001
0010
0100
1000
0100
,
0010
0001
0100
0010
1000
0010
0100
0001
1000
0100
0010
0001
1000
0100
0010
0001
,
0100
0010
1000
0001
0100
0010
1000
0010
0100
0001
0100
0010
1000
0100
0010
0001
,
0100
0010
1000
0010
0100
0001
0010
0100
1000
0001
0010
0001
0100
0001
1000
0010
,
1000
0001
0100
0010
1000
0100
0010
0001
0100
0010
1000
0001
0010
0001
0100
0010
,
1000
0001
0100
0010
1000
0100
0010
0001
0100
0010
0100
0001
0010
0100
1000
0001
,
0010
0100
1000
0010
1000
0001
0100
0010
1000
0001
0100
0010
1000
0100
0010
0001
,
1000
0100
0010
0001
0010
0100
1000
0001
1000
0010
0100
0001
1000
0001
0010
0100
,
1000
0001
1000
0100
0010
0001
0100
0010
0100
0001
0010
0100
1000
0010
0100
0010
,
1000
0001
0100
0010
1000
0001
0010
0001
0100
0010
0100
0001
1000
0001
0010
0100
,
1000
0001
0100
0010
1000
0010
0100
0001
0010
0100
1000
0100
0010
0001
0100
0001
,
1000
0100
0010
0001
1000
0010
1000
0100
0010
0001
0100
0001
0010
0100
1000
0001
,
0100
0010
0100
0001
1000
0010
0100
0010
1000
0100
0010
0001
0100
0010
1000
0001
,
0010
0001
0100
0010
1000
0100
1000
0001
0100
0010
1000
0100
0010
0001
0100
0010
,
1000
0100
0010
0001
0100
0010
0100
0001
0010
0100
1000
0010
0100
0010
1000
0100
,
0010
0001
1000
0100
1000
0010
0100
0001
0010
0001
1000
0010
1000
0001
0100
0001
,
0010
0100
1000
0100
0010
0001
0100
0010
1000
0010
0100
0001
0010
0100
1000
0100
,
0010
0001
0100
0010
1000
0010
0100
0001
1000
0100
0010
0001
1000
0100
0010
0001
,
0100
0010
1000
0001
0100
0010
1000
0010
0100
0001
0100
0010
1000
0100
0010
0001
,
0100
0010
1000
0010
0100
0001
0010
0100
1000
0001
0010
0001
0100
0001
1000
0010
,
1000
0001
0100
0010
1000
0100
0010
0001
0100
0010
1000
0001
0010
0001
0100
0010
,
1000
0001
0100
0010
1000
0100
0010
0001
0100
0010
0100
0001
0010
0100
1000
0001
,
0010
0100
1000
0010
1000
0001
0100
0010
1000
0001
0100
0010
1000
0100
0010
0001
,
1000
0100
0010
0001
0010
0100
1000
0001
1000
0010
0100
0001
1000
0001
0010
0100
,
1000
0001
1000
0100
0010
0001
0100
0010
0100
0001
0010
0100
1000
0010
0100
0010
,
1000
0001
0100
0010
1000
0001
0010
0001
0100
0010
0100
0001
1000
0001
0010
0100
,
1000
0001
0100
0010
1000
0010
0100
0001
0010
0100
1000
0100
0010
0001
0100
0001
,
1000
0100
0010
0001
1000
0010
1000
0100
0010
0001
0100
0001
0010
0100
1000
0001
,
0100
0010
0100
0001
1000
0010
0100
0010
1000
0100
0010
0001
0100
0010
1000
0001
,
0010
0001
0100
0010
1000
0100
1000
0001
0100
0010
1000
0100
0010
0001
0100
0010
,
1000
0100
0010
0001
0100
0010
0100
0001
0010
0100
1000
0010
0100
0010
1000
0100
,
0010
0001
1000
0100
1000
0010
0100
0001
0010
0001
1000
0010
1000
0001
0100
0001
,
0010
0100
1000
0100
0010
0001
0100
0010
1000
0010
0100
0001
0010
0100
1000
0100
,
0010
0001
0100
0010
1000
0010
0100
0001
1000
0100
0010
0001
1000
0100
0010
0001
,
0100
0010
1000
0001
0100
0010
1000
0010
0100
0001
0100
0010
1000
0100
0010
0001
,
0100
0010
1000
0010
0100
0001
0010
0100
1000
0001
0010
0001
0100
0001
1000
0010
,
1000
0001
0100
0010
1000
0100
0010
0001
0100
0010
1000
0001
0010
0001
0100
0010
,
1000
0001
0100
0010
1000
0100
0010
0001
0100
0010
0100
0001
0010
0100
1000
0001
,
0010
0100
1000
0010
1000
0001
0100
0010
1000
0001
0100
0010
1000
0100
0010
0001
,
1000
0100
0010
0001
0010
0100
1000
0001
1000
0010
0100
0001
1000
0001
0010
0100
,
1000
0001
1000
0100
0010
0001
0100
0010
0100
0001
0010
0100
1000
0010
0100
0010
,
1000
0001
0100
0010
1000
0001
0010
0001
0100
0010
0100
0001
1000
0001
0010
0100
,
1000
0001
0100
0010
1000
0010
0100
0001
0010
0100
1000
0100
0010
0001
0100
0001
,
1000
0100
0010
0001
1000
0010
1000
0100
0010
0001
0100
0001
0010
0100
1000
0001
,
0100
0010
0100
0001
1000
0010
0100
0010
1000
0100
0010
0001
0100
0010
1000
0001
,
0010
0001
0100
0010
1000
0100
1000
0001
0100
0010
1000
0100
0010
0001
0100
0010
,
1000
0100
0010
0001
0100
0010
0100
0001
0010
0100
1000
0010
0100
0010
1000
0100
,
0010
0001
1000
0100
1000
0010
0100
0001
0010
0001
1000
0010
1000
0001
0100
0001
,
0010
0100
1000
0100
0010
0001
0100
0010
1000
0010
0100
0001
0010
0100
1000
0100
,
0010
0001
0100
0010
1000
0010
0100
0001
1000
0100
0010
0001
1000
0100
0010
0001
,
0100
0010
1000
0001
0100
0010
1000
0010
0100
0001
0100
0010
1000
0100
0010
0001
,
0100
0010
1000
0010
0100
0001
0010
0100
1000
0001
0010
0001
0100
0001
1000
0010
,
1000
0001
0100
0010
1000
0100
0010
0001
0100
0010
1000
0001
0010
0001
0100
0010
,
1000
0001
0100
0010
1000
0100
0010
0001
0100
0010
0100
0001
0010
0100
1000
0001
,
0010
0100
1000
0010
1000
0001
0100
0010
1000
0001
0100
0010
1000
0100
0010
0001
,
1000
0100
0010
0001
0010
0100
1000
0001
1000
0010
0100
0001
1000
0001
0010
0100
,
1000
0001
1000
0100
0010
0001
0100
0010
0100
0001
0010
0100
1000
0010
0100
0010
,
1000
0001
0100
0010
1000
0001
0010
0001
0100
0010
0100
0001
1000
0001
0010
0100
,
1000
0001
0100
0010
1000
0010
0100
0001
0010
0100
1000
0100
0010
0001
0100
0001
,
1000
0100
0010
0001
1000
0010
1000
0100
0010
0001
0100
0001
0010
0100
1000
0001
,
0100
0010
0100
0001
1000
0010
0100
0010
1000
0100
0010
0001
0100
0010
1000
0001
,
0010
0001
0100
0010
1000
0100
1000
0001
0100
0010
1000
0100
0010
0001
0100
0010
,
1000
0100
0010
0001
0100
0010
0100
0001
0010
0100
1000
0010
0100
0010
1000
0100
,
0010
0001
1000
0100
1000
0010
0100
0001
0010
0001
1000
0010
1000
0001
0100
0001
,
0010
0100
1000
0100
0010
0001
0100
0010
1000
0010
0100
0001
0010
0100
1000
0100
,
0010
0001
0100
0010
1000
0010
0100
0001
1000
0100
0010
0001
1000
0100
0010
0001
,
0100
0010
1000
0001
0100
0010
1000
0010
0100
0001
0100
0010
1000
0100
0010
0001
,
0100
0010
1000
0010
0100
0001
0010
0100
1000
0001
0010
0001
0100
0001
1000
0010
,
1000
0001
0100
0010
1000
0100
0010
0001
0100
0010
1000
0001
0010
0001
0100
0010
,
1000
0001
0100
0010
1000
0100
0010
0001
0100
0010
0100
0001
0010
0100
1000
0001
,
0010
0100
1000
0010
1000
0001
0100
0010
1000
0001
0100
0010
1000
0100
0010
0001
,
1000
0100
0010
0001
0010
0100
1000
0001
1000
0010
0100
0001
1000
0001
0010
0100
,
1000
0001
1000
0100
0010
0001
0100
0010
0100
0001
0010
0100
1000
0010
0100
0010
,
1000
0001
0100
0010
1000
0001
0010
0001
0100
0010
0100
0001
1000
0001
0010
0100
,
1000
0001
0100
0010
1000
0010
0100
0001
0010
0100
1000
0100
0010
0001
0100
0001
,
1000
0100
0010
0001
1000
0010
1000
0100
0010
0001
0100
0001
0010
0100
1000
0001
,
0100
0010
0100
0001
1000
0010
0100
0010
1000
0100
0010
0001
0100
0010
1000
0001
,
0010
0001
0100
0010
1000
0100
1000
0001
0100
0010
1000
0100
0010
0001
0100
0010
,
1000
0100
0010
0001
0100
0010
0100
0001
0010
0100
1000
0010
0100
0010
1000
0100
,
0010
0001
1000
0100
1000
0010
0100
0001
0010
0001
1000
0010
1000
0001
0100
0001
,
0010
0100
1000
0100
0010
0001
0100
0010
1000
0010
0100
0001
0010
0100
1000
0100
,
0010
0001
0100
0010
1000
0010
0100
0001
1000
0100
0010
0001
1000
0100
0010
0001
,
0100
0010
1000
0001
0100
0010
1000
0010
0100
0001
0100
0010
1000
0100
0010
0001
,
0100
0010
1000
0010
0100
0001
0010
0100
1000
0001
0010
0001
0100
0001
1000
0010
,
1000
0001
0100
0010
1000
0100
0010
0001
0100
0010
1000
0001
0010
0001
0100
0010
,
1000
0001
0100
0010
1000
0100
0010
0001
0100
0010
0100
0001
0010
0100
1000
0001
,
0010
0100
1000
0010
1000
0001
0100
0010
1000
0001
0100
0010
1000
0100
0010
0001
,
1000
0100
0010
0001
0010
0100
1000
0001
1000
0010
0100
0001
1000
0001
0010
0100
,
1000
0001
1000
0100
0010
0001
0100
0010
0100
0001
0010
0100
1000
0010
0100
0010
,
1000
0001
0100
0010
1000
0001
0010
0001
0100
0010
0100
0001
1000
0001
0010
0100
,
1000
0001
0100
0010
1000
0010
0100
0001
0010
0100
1000
0100
0010
0001
0100
0001
,
1000
0100
0010
0001
1000
0010
1000
0100
0010
0001
0100
0001
0010
0100
1000
0001
,
0100
0010
0100
0001
1000
0010
0100
0010
1000
0100
0010
0001
0100
0010
1000
0001
,
0010
0001
0100
0010
1000
0100
1000
0001
0100
0010
1000
0100
0010
0001
0100
0010
,
1000
0100
0010
0001
0100
0010
0100
0001
0010
0100
1000
0010
0100
0010
1000
0100
,
0010
0001
1000
0100
1000
0010
0100
0001
0010
0001
1000
0010
1000
0001
0100
0001
,
0010
0100
1000
0100
0010
0001
0100
0010
1000
0010
0100
0001
0010
0100
1000
0100
,
0010
0001
0100
0010
1000
0010
0100
0001
1000
0100
0010
0001
1000
0100
0010
0001
,
0100
0010
1000
0001
0100
0010
1000
0010
0100
0001
0100
0010
1000
0100
0010
0001
,
0100
0010
1000
0010
0100
0001
0010
0100
1000
0001
0010
0001
0100
0001
1000
0010
,
1000
0001
0100
0010
1000
0100
0010
0001
0100
0010
1000
0001
0010
0001
0100
0010
,
1000
0001
0100
0010
1000
0100
0010
0001
0100
0010
0100
0001
0010
0100
1000
0001
,
0010
0100
1000
0010
1000
0001
0100
0010
1000
0001
0100
0010
1000
0100
0010
0001
,
1000
0100
0010
0001
0010
0100
1000
0001
1000
0010
0100
0001
1000
0001
0010
0100
,
1000
0001
1000
0100
0010
0001
0100
0010
0100
0001
0010
0100
1000
0010
0100
0010
,
1000
0001
0100
0010
1000
0001
0010
0001
0100
0010
0100
0001
1000
0001
0010
0100
,
1000
0001
0100
0010
1000
0010
0100
0001
0010
0100
1000
0100
0010
0001
0100
0001
,
1000
0100
0010
0001
1000
0010
1000
0100
0010
0001
0100
0001
0010
0100
1000
0001
,
0100
0010
0100
0001
1000
0010
0100
0010
1000
0100
0010
0001
0100
0010
1000
0001
,
0010
0001
0100
0010
1000
0100
1000
0001
0100
0010
1000
0100
0010
0001
0100
0010
,
1000
0100
0010
0001
0100
0010
0100
0001
0010
0100
1000
0010
0100
0010
1000
0100
,
0010
0001
1000
0100
1000
0010
0100
0001
0010
0001
1000
0010
1000
0001
0100
0001
,
0010
0100
1000
0100
0010
0001
0100
0010
1000
0010
0100
0001
0010
0100
1000
0100
,
0010
0001
0100
0010
1000
0010
0100
0001
1000
0100
0010
0001
1000
0100
0010
0001
,
0100
0010
1000
0001
0100
0010
1000
0010
0100
0001
0100
0010
1000
0100
0010
0001
,
0100
0010
1000
0010
0100
0001
0010
0100
1000
0001
0010
0001
0100
0001
1000
0010
,
1000
0001
0100
0010
1000
0100
0010
0001
0100
0010
1000
0001
0010
0001
0100
0010
,
1000
0001
0100
0010
1000
0100
0010
0001
0100
0010
0100
0001
0010
0100
1000
0001
,
0010
0100
1000
0010
1000
0001
0100
0010
1000
0001
0100
0010
1000
0100
0010
0001
,
1000
0100
0010
0001
0010
0100
1000
0001
1000
0010
0100
0001
1000
0001
0010
0100
,
1000
0001
1000
0100
0010
0001
0100
0010
0100
0001
0010
0100
1000
0010
0100
0010
,
1000
0001
0100
0010
1000
0001
0010
0001
0100
0010
0100
0001
1000
0001
0010
0100
,
1000
0001
0100
0010
1000
0010
0100
0001
0010
0100
1000
0100
0010
0001
0100
0001
,
1000
0100
0010
0001
1000
0010
1000
0100
0010
0001
0100
0001
0010
0100
1000
0001
,
0100
0010
0100
0001
1000
0010
0100
0010
1000
0100
0010
0001
0100
0010
1000
0001
,
0010
0001
0100
0010
1000
0100
1000
0001
0100
0010
1000
0100
0010
0001
0100
0010
,
1000
0100
0010
0001
0100
0010
0100
0001
0010
0100
1000
0010
0100
0010
1000
0100
,
0010
0001
1000
0100
1000
0010
0100
0001
0010
0001
1000
0010
1000
0001
0100
0001
,
0010
0100
1000
0100
0010
0001
0100
0010
1000
0010
0100
0001
0010
0100
1000
0100
,
0010
0001
0100
0010
1000
0010
0100
0001
1000
0100
0010
0001
1000
0100
0010
0001
,
0100
0010
1000
0001
0100
0010
1000
0010
0100
0001
0100
0010
1000
0100
0010
0001
,
0100
0010
1000
0010
0100
0001
0010
0100
1000
0001
0010
0001
0100
0001
1000
0010
,
1000
0001
0100
0010
1000
0100
0010
0001
0100
0010
1000
0001
0010
0001
0100
0010
,
1000
0001
0100
0010
1000
0100
0010
0001
0100
0010
0100
0001
0010
0100
1000
0001
,
0010
0100
1000
0010
1000
0001
0100
0010
1000
0001
0100
0010
1000
0100
0010
0001
,
1000
0100
0010
0001
0010
0100
1000
0001
1000
0010
0100
0001
1000
0001
0010
0100
,
1000
0001
1000
0100
0010
0001
0100
0010
0100
0001
0010
0100
1000
0010
0100
0010
,
1000
0001
0100
0010
1000
0001
0010
0001
0100
0010
0100
0001
1000
0001
0010
0100
,
1000
0001
0100
0010
1000
0010
0100
0001
0010
0100
1000
0100
0010
0001
0100
0001
,
1000
0100
0010
0001
1000
0010
1000
0100
0010
0001
0100
0001
0010
0100
1000
0001
,
0100
0010
0100
0001
1000
0010
0100
0010
1000
0100
0010
0001
0100
0010
1000
0001
,
0010
0001
0100
0010
1000
0100
1000
0001
0100
0010
1000
0100
0010
0001
0100
0010
,
1000
0100
0010
0001
0100
0010
0100
0001
0010
0100
1000
0010
0100
0010
1000
0100
,
0010
0001
1000
0100
1000
0010
0100
0001
0010
0001
1000
0010
1000
0001
0100
0001
,
0010
0100
1000
0100
0010
0001
0100
0010
1000
0010
0100
0001
0010
0100
1000
0100
,
0010
0001
0100
0010
1000
0010
0100
0001
1000
0100
0010
0001
1000
0100
0010
0001
,
0100
0010
1000
0001
0100
0010
1000
0010
0100
0001
0100
0010
1000
0100
0010
0001
,
0100
0010
1000
0010
0100
0001
0010
0100
1000
0001
0010
0001
0100
0001
1000
0010
,
1000
0001
0100
0010
1000
0100
0010
0001
0100
0010
1000
0001
0010
0001
0100
0010
,
1000
0001
0100
0010
1000
0100
0010
0001
0100
0010
0100
0001
0010
0100
1000
0001
,
0010
0100
1000
0010
1000
0001
0100
0010
1000
0001
0100
0010
1000
0100
0010
0001
,
1000
0100
0010
0001
0010
0100
1000
0001
1000
0010
0100
0001
1000
0001
0010
0100
,
1000
0001
1000
0100
0010
0001
0100
0010
0100
0001
0010
0100
1000
0010
0100
0010
,
1000
0001
0100
0010
1000
0001
0010
0001
0100
0010
0100
0001
1000
0001
0010
0100
,
1000
0001
0100
0010
1000
0010
0100
0001
0010
0100
1000
0100
0010
0001
0100
0001
,
1000
0100
0010
0001
1000
0010
1000
0100
0010
0001
0100
0001
0010
0100
1000
0001
,
0100
0010
0100
0001
1000
0010
0100
0010
1000
0100
0010
0001
0100
0010
1000
0001
,
0010
0001
0100
0010
1000
0100
1000
0001
0100
0010
1000
0100
0010
0001
0100
0010
,
1000
0100
0010
0001
0100
0010
0100
0001
0010
0100
1000
0010
0100
0010
1000
0100
,
0010
0001
1000
0100
1000
0010
0100
0001
0010
0001
1000
0010
1000
0001
0100
0001
,
0010
0100
1000
0100
0010
0001
0100
0010
1000
0010
0100
0001
0010
0100
1000
0100
,
0010
0001
0100
0010
1000
0010
0100
0001
1000
0100
0010
0001
1000
0100
0010
0001
,
0100
0010
1000
0001
0100
0010
1000
0010
0100
0001
0100
0010
1000
0100
0010
0001
,
0100
0010
1000
0010
0100
0001
0010
0100
1000
0001
0010
0001
0100
0001
1000
0010
,
1000
0001
0100
0010
1000
0100
0010
0001
0100
0010
1000
0001
0010
0001
0100
0010
,
1000
0001
0100
0010
1000
0100
0010
0001
0100
0010
0100
0001
0010
0100
1000
0001
,
0010
0100
1000
0010
1000
0001
0100
0010
1000
0001
0100
0010
1000
0100
0010
0001
,
1000
0100
0010
0001
0010
0100
1000
0001
1000
0010
0100
0001
1000
0001
0010
0100
,
1000
0001
1000
0100
0010
0001
0100
0010
0100
0001
0010
0100
1000
0010
0100
0010
,
1000
0001
0100
0010
1000
0001
0010
0001
0100
0010
0100
0001
1000
0001
0010
0100
,
1000
0001
0100
0010
1000
0010
0100
0001
0010
0100
1000
0100
0010
0001
0100
0001
,
1000
0100
0010
0001
1000
0010
1000
0100
0010
0001
0100
0001
0010
0100
1000
0001
,
0100
0010
0100
0001
1000
0010
0100
0010
1000
0100
0010
0001
0100
0010
1000
0001
,
0010
0001
0100
0010
1000
0100
1000
0001
0100
0010
1000
0100
0010
0001
0100
0010
,
1000
0001
0100
0010
1000
0001
1000
0100
0010
0001
0100
0001
0010
0100
1000
0010
,
1000
0001
0100
0010
1000
0100
0010
0001
0100
0010
0100
0001
0010
0100
1000
0001
,
0010
0100
1000
0010
1000
0001
0100
0010
1000
0001
0100
0010
1000
0100
0010
0001
,
1000
0100
0010
0001
0010
0100
1000
0001
1000
0010
0100
0001
1000
0001
0010
0100
,
1000
0001
1000
0100
0010
0001
0100
0010
0100
0001
0010
0100
1000
0010
0100
0010
,
1000
0001
0100
0010
1000
0001
0010
0001
0100
0010
0100
0001
1000
0001
0010
0100
,
1000
0001
0100
0010
1000
0010
0100
0001
0010
0100
1000
0100
0010
0001
0100
0001
,
1000
0100
0010
0001
1000
0010
1000
0100
0010
0001
0100
0001
0010
0100
1000
0001
,
0100
0010
0100
0001
1000
0010
0100
0010
1000
0100
0010
0001
0100
0010
1000
0001
,
0010
0001
0100
0010
1000
0100
1000
0001
0100
0010
1000
0100
0010
0001
0100
0010
,
1000
0100
0010
0001
0100
0010
0100
0001
0010
0100
1000
0010
0100
0010
1000
0100
,
0010
0001
1000
0100
1000
0010
0100
0001
0010
0001
1000
0010
1000
0001
0100
0001
,
0010
0100
1000
0100
0010
0001
0100
0010
1000
0010
0100
0001
0010
0100
1000
0100
,
0010
0001
0100
0010
1000
0010
0100
0001
1000
0100
0010
0001
1000
0100
0010
0001
,
0100
0010
1000
0001
0100
0010
1000
0010
0100
0001
0100
0010
1000
0100
0010
0001
,
0100
0010
1000
0010
0100
0001
0010
0100
1000
0001
0010
0001
0100
0001
1000
0010
,
1000
0001
0100
0010
1000
0100
0010
0001
0100
0010
1000
0001
0010
0001
0100
0010
,
1000
0001
0100
0010
1000
0100
0010
0001
0100
0010
0100
0001
0010
0100
1000
0001
,
0010
0100
1000
0010
1000
0001
0100
0010
1000
0001
0100
0010
1000
0100
0010
0001
,
1000
0100
0010
0001
0010
0100
1000
0001
1000
0010
0100
0001
1000
0001
0010
0100
,
1000
0001
1000
0100
0010
0001
0100
0010
0100
0001
0010
0100
1000
0010
0100
0010
,
1000
0001
0100
0010
1000
0001
0010
0001
0100
0010
0100
0001
1000
0001
0010
0100
,
1000
0001
0100
0010
1000
0010
0100
0001
0010
0100
1000
0100
0010
0001
0100
0001
,
1000
0100
0010
0001
1000
0010
1000
0100
0010
0001
0100
0001
0010
0100
1000
0001
,
0100
0010
0100
0001
1000
0010
0100
0010
1000
0100
0010
0001
0100
0010
1000
0001
,
0010
0001
0100
0010
1000
0100
1000
0001
0100
0010
1000
0100
0010
0001
0100
0010
,
1000
0001
0100
0010
1000
0001
1000
0100
0010
0001
0100
0001
0010
0100
1000
0010
,
1000
0001
0100
0010
1000
0100
0010
0001
0010
0100
1000
0010
0100
0001
0100
0010
,
1001
0000
0000
0000
,
0000
0000
0000
0000
,
0000
0000
0000
0000
,
0000
0000
0000
0000
,
0000
0000
0000
0000
,
0000
0000
0000
0000
,
0000
0000
0000
0000
,
0000
0000
0000
0000
,
0000
0000
0000
0000
,
1000
0100
0010
0001
1000
0010
1000
0100
0010
0001
0100
0001
0010
0100
1000
0001
,
0100
0010
0100
0001
1000
0010
0100
0010
1000
0100
0010
0001
0100
0010
1000
0001
,
0010
0001
0100
0010
1000
0100
1000
0001
0100
0010
1000
0100
0010
0001
0100
0010
,
1000
0100
0010
0001
0100
0010
0100
0001
0010
0100
1000
0010
0100
0010
1000
0100
,
0010
0001
1000
0100
1000
0010
0100
0001
0010
0001
1000
0010
1000
0001
0100
0001
,
0010
0100
1000
0100
0010
0001
0100
0010
1000
0010
0100
0001
0010
0100
1000
0100
,
0010
0001
0100
0010
1000
0010
0100
0001
1000
0100
0010
0001
1000
0100
0010
0001
,
0100
0010
1000
0001
0100
0010
1000
0010
0100
0001
0100
0010
1000
0100
0010
0001
,
0100
0010
1000
0010
0100
0001
0010
0100
1000
0001
0010
0001
0100
0001
1000
0010
,
1000
0001
0100
0010
1000
0100
0010
0001
0100
0010
1000
0001
0010
0001
0100
0010
,
1000
0001
0100
0010
1000
0100
0010
0001
0100
0010
0100
0001
0010
0100
1000
0001
,
0010
0100
1000
0010
1000
0001
0100
0010
1000
0001
0100
0010
1000
0100
0010
0001
,
1000
0100
0010
0001
0010
0100
1000
0001
1000
0010
0100
0001
1000
0001
0010
0100
,
1000
0001
1000
0100
0010
0001
0100
0010
0100
0001
0010
0100
1000
0010
0100
0010
,
1000
0001
0100
0010
1000
0001
0010
0001
0100
0010
0100
0001
1000
0001
0010
0100
,
1000
0001
0100
0010
1000
0010
0100
0001
0010
0100
1000
0100
0010
0001
0100
0001
,
1000
0100
0010
0001
1000
0010
1000
0100
0010
0001
0100
0001
0010
0100
1000
0001
,
0100
0010
0100
0001
1000
0010
0100
0010
1000
0100
0010
0001
0100
0010
1000
0001
,
0010
0001
0100
0010
1000
0100
1000
0001
0100
0010
1000
0100
0010
0001
0100
0010
,
1000
0100
0010
0001
0100
0010
0100
0001
0010
0100
1000
0010
0100
0010
1000
0100
,
0010
0001
1000
0100
1000
0010
0100
0001
0010
0001
1000
0010
1000
0001
0100
0001
,
0010
0100
1000
0100
0010
0001
0100
0010
1000
0010
0100
0001
0010
0100
1000
0100
,
0010
0001
0100
0010
1000
0010
0100
0001
1000
0100
0010
0001
1000
0100
0010
0001
,
0100
0010
1000
0001
0100
0010
1000
0010
0100
0001
0100
0010
1000
0100
0010
0001
,
0100
0010
1000
0010
0100
0001
0010
0100
1000
0001
0010
0001
0100
0001
1000
0010
,
1000
0001
0100
0010
1000
0100
0010
0001
0100
0010
1000
0001
0010
0001
0100
0010
,
1000
0001
0100
0010
1000
0100
0010
0001
0100
0010
0100
0001
0010
0100
1000
0001
,
0010
0100
1000
0010
1000
0001
0100
0010
1000
0001
0100
0010
1000
0100
0010
0001
,
1000
0100
0010
0001
0010
0100
1000
0001
1000
0010
0100
0001
1000
0001
0010
0100
,
1000
0001
1000
0100
0010
0001
0100
0010
0100
0001
0010
0100
1000
0010
0100
0010
,
1000
0001
0100
0010
1000
0001
0010
0001
0100
0010
0100
0001
1000
0001
0010
0100
,
1000
0001
0100
0010
1000
0010
0100
0001
0010
0100
1000
0100
0010
0001
0100
0001
,
1000
0100
0010
0001
1000
0010
1000
0100
0010
0001
0100
0001
0010
0100
1000
0001
,
0100
0010
0100
0001
1000
0010
0100
0010
1000
0100
0010
0001
0100
0010
1000
0001
,
0010
0001
0100
0010
1000
0100
1000
0001
0100
0010
1000
0100
0010
0001
0100
0010
,
1000
0100
0010
0001
0100
0010
0100
0001
0010
0100
1000
0010
0100
0010
1000
0100
,
0010
0001
1000
0100
1000
0010
0100
0001
0010
0001
1000
0010
1000
0001
0100
0001
,
0010
0100
1000
0100
0010
0001
0100
0010
1000
0010
0100
0001
0010
0100
1000
0100
,
0010
0001
0100
0010
1000
0010
0100
0001
1000
0100
0010
0001
1000
0100
0010
0001
,
0100
0010
1000
0001
0100
0010
1000
0010
0100
0001
0100
0010
1000
0100
0010
0001
,
0100
0010
1000
0010
0100
0001
0010
0100
1000
0001
0010
0001
0100
0001
1000
0010
,
1000
0001
0100
0010
1000
0100
0010
0001
0100
0010
1000
0001
0010
0001
0100
0010
,
1000
0001
0100
0010
1000
0100
0010
0001
0100
0010
0100
0001
0010
0100
1000
0001
,
0010
0100
1000
0010
1000
0001
0100
0010
1000
0001
0100
0010
1000
0100
0010
0001
,
1000
0100
0010
0001
0010
0100
1000
0001
1000
0010
0100
0001
1000
0001
0010
0100
,
1000
0001
1000
0100
0010
0001
0100
0010
0100
0001
0010
0100
1000
0010
0100
0010
,
1000
0001
0100
0010
1000
0001
0010
0001
0100
0010
0100
0001
1000
0001
0010
0100
,
1000
0001
0100
0010
1000
0010
0100
0001
0010
0100
1000
0100
0010
0001
0100
0001
,
1000
0100
0010
0001
1000
0010
1000
0100
0010
0001
0100
0001
0010
0100
1000
0001
,
0100
0010
0100
0001
1000
0010
0100
0010
1000
0100
0010
0001
0100
0010
1000
0001
,
0010
0001
0100
0010
1000
0100
1000
0001
0100
0010
1000
0100
0010
0001
0100
0010
,
1000
0100
0010
0001
0100
0010
0100
0001
0010
0100
1000
0010
0100
0010
1000
0100
,
0010
0001
1000
0100
1000
0010
0100
0001
0010
0001
1000
0010
1000
0001
0100
0001
,
0010
0100
1000
0100
0010
0001
0100
0010
1000
0010
0100
0001
0010
0100
1000
0100
,
0010
0001
0100
0010
1000
0010
0100
0001
1000
0100
0010
0001
1000
0100
0010
0001
,
0100
0010
1000
0001
0100
0010
1000
0010
0100
0001
0100
0010
1000
0100
0010
0001
,
0100
0010
1000
0010
0100
0001
0010
0100
1000
0001
0010
0001
0100
0001
1000
0010
,
1000
0001
0100
0010
1000
0100
0010
0001
0100
0010
1000
0001
0010
0001
0100
0010
,
1000
0001
0100
0010
1000
0100
0010
0001
0100
0010
0100
0001
0010
0100
1000
0001
,
0010
0100
1000
0010
1000
0001
0100
0010
1000
0001
0100
0010
1000
0100
0010
0001
,
1000
0100
0010
0001
0010
0100
1000
0001
1000
0010
0100
0001
1000
0001
0010
0100
,
1000
0001
1000
0100
0010
0001
0100
0010
0100
0001
0010
0100
1000
0010
0100
0010
,
1000
0001
0100
0010
1000
0001
0010
0001
0100
0010
0100
0001
1000
0001
0010
0100
,
1000
0001
0100
0010
1000
0010
0100
0001
0010
0100
1000
0100
0010
0001
0100
0001
,
1000
0100
0010
0001
1000
0010
1000
0100
0010
0001
0100
0001
0010
0100
1000
0001
,
0100
0010
0100
0001
1000
0010
0100
0010
1000
0100
0010
0001
0100
0010
1000
0001
,
0010
0001
0100
0010
1000
0100
1000
0001
0100
0010
1000
0100
0010
0001
0100
0010
,
1000
0100
0010
0001
0100
0010
0100
0001
0010
0100
1000
0010
0100
0010
1000
0100
,
0010
0001
1000
0100
1000
0010
0100
0001
0010
0001
1000
0010
1000
0001
0100
0001
,
0010
0100
1000
0100
0010
0001
0100
0010
1000
0010
0100
0001
0010
0100
1000
0100
,
0010
0001
0100
0010
1000
0010
0100
0001
1000
0100
0010
0001
1000
0100
0010
0001
,
0100
0010
1000
0001
0100
0010
1000
0010
0100
0001
0100
0010
1000
0100
0010
0001
,
0100
0010
1000
0010
0100
0001
0010
0100
1000
0001
0010
0001
0100
0001
1000
0010
,
1000
0001
0100
0010
1000
0100
0010
0001
0100
0010
1000
0001
0010
0001
0100
0010
,
1000
0001
0100
0010
1000
0100
0010
0001
0100
0010
0100
0001
0010
0100
1000
0001
,
0010
0100
1000
0010
1000
0001
0100
0010
1000
0001
0100
0010
1000
0100
0010
0001
,
1000
0100
0010
0001
0010
0100
1000
0001
1000
0010
0100
0001
1000
0001
0010
0100
,
1000
0001
1000
0100
0010
0001
0100
0010
0100
0001
0010
0100
1000
0010
0100
0010
,
1000
0001
0100
0010
1000
0001
0010
0001
0100
0010
0100
0001
1000
0001
0010
0100
,
1000
0001
0100
0010
1000
0010
0100
0001
0010
0100
1000
0100
0010
0001
0100
0001
,
1000
0100
0010
0001
1000
0010
1000
0100
0010
0001
0100
0001
0010
0100
1000
0001
,
0100
0010
0100
0001
1000
0010
0100
0010
1000
0100
0010
0001
0100
0010
1000
0001
,
0010
0001
0100
0010
1000
0100
1000
0001
0100
0010
1000
0100
0010
0001
0100
0010
,
1000
0100
0010
0001
0100
0010
0100
0001
0010
0100
1000
0010
0100
0010
1000
0100
,
0010
0001
1000
0100
1000
0010
0100
0001
0010
0001
1000
0010
1000
0001
0100
0001
,
0010
0100
1000
0100
0010
0001
0100
0010
1000
0010
0100
0001
0010
0100
1000
0100
,
0010
0001
0100
0010
1000
0010
0100
0001
1000
0100
0010
0001
1000
0100
0010
0001
,
0100
0010
1000
0001
0100
0010
1000
0010
0100
0001
0100
0010
1000
0100
0010
0001
,
0100
0010
1000
0010
0100
0001
0010
0100
1000
0001
0010
0001
0100
0001
1000
0010
,
1000
0001
0100
0010
1000
0100
0010
0001
0100
0010
1000
0001
0010
0001
0100
0010
,
1000
0001
0100
0010
1000
0100
0010
0001
0100
0010
0100
0001
0010
0100
1000
0001
,
0010
0100
1000
0010
1000
0001
0100
0010
1000
0001
0100
0010
1000
0100
0010
0001
,
1000
0100
0010
0001
0010
0100
1000
0001
1000
0010
0100
0001
1000
0001
0010
0100
,
1000
0001
1000
0100
0010
0001
0100
0010
0100
0001
0010
0100
1000
0010
0100
0010
,
1000
0001
0100
0010
1000
0001
0010
0001
0100
0010
0100
0001
1000
0001
0010
0100
,
1000
0001
0100
0010
1000
0010
0100
0001
0010
0100
1000
0100
0010
0001
0100
0001
,
1000
0100
0010
0001
1000
0010
1000
0100
0010
0001
0100
0001
0010
0100
1000
0001
,
0100
0010
0100
0001
1000
0010
0100
0010
1000
0100
0010
0001
0100
0010
1000
0001
,
0010
0001
0100
0010
1000
0100
1000
0001
0100
0010
1000
0100
0010
0001
0100
0010
,
1000
0100
0010
0001
0100
0010
0100
0001
0010
0100
1000
0010
0100
0010
1000
0100
,
0010
0001
1000
0100
1000
0010
0100
0001
0010
0001
1000
0010
1000
0001
0100
0001
,
0010
0100
1000
0100
0010
0001
0100
0010
1000
0010
0100
0001
0010
0100
1000
0100
,
0010
0001
0100
0010
1000
0010
0100
0001
1000
0100
0010
0001
1000
0100
0010
0001
,
0100
0010
1000
0001
0100
0010
1000
0010
0100
0001
0100
0010
1000
0100
0010
0001
,
0100
0010
1000
0010
0100
0001
0010
0100
1000
0001
0010
0001
0100
0001
1000
0010
,
1000
0001
0100
0010
1000
0100
0010
0001
0100
0010
1000
0001
0010
0001
0100
0010
,
1000
0001
0100
0010
1000
0100
0010
0001
0100
0010
0100
0001
0010
0100
1000
0001
,
0010
0100
1000
0010
1000
0001
0100
0010
1000
0001
0100
0010
1000
0100
0010
0001
,
1000
0100
0010
0001
0010
0100
1000
0001
1000
0010
0100
0001
1000
0001
0010
0100
,
1000
0001
1000
0100
0010
0001
0100
0010
0100
0001
0010
0100
1000
0010
0100
0010
,
1000
0001
0100
0010
1000
0001
0010
0001
0100
0010
0100
0001
1000
0001
0010
0100
,
1000
0001
0100
0010
1000
0010
0100
0001
0010
0100
1000
0100
0010
0001
0100
0001
,
1000
0100
0010
0001
1000
0010
1000
0100
0010
0001
0100
0001
0010
0100
1000
0001
,
0100
0010
0100
0001
1000
0010
0100
0010
1000
0100
0010
0001
0100
0010
1000
0001
,
0010
0001
0100
0010
1000
0100
1000
0001
0100
0010
1000
0100
0010
0001
0100
0010
,
1000
0100
0010
0001
0100
0010
0100
0001
0010
0100
1000
0010
0100
0010
1000
0100
,
0010
0001
1000
0100
1000
0010
0100
0001
0010
0001
1000
0010
1000
0001
0100
0001
,
0010
0100
1000
0100
0010
0001
0100
0010
1000
0010
0100
0001
0010
0100
1000
0100
,
0010
0001
0100
0010
1000
0010
0100
0001
1000
0100
0010
0001
1000
0100
0010
0001
,
0100
0010
1000
0001
0100
0010
1000
0010
0100
0001
0100
0010
1000
0100
0010
0001
,
0100
0010
1000
0010
0100
0001
0010
0100
1000
0001
0010
0001
0100
0001
1000
0010
,
1000
0001
0100
0010
1000
0100
0010
0001
0100
0010
1000
0001
0010
0001
0100
0010
,
1000
0001
0100
0010
1000
0100
0010
0001
0100
0010
0100
0001
0010
0100
1000
0001
,
0010
0100
1000
0010
1000
0001
0100
0010
1000
0001
0100
0010
1000
0100
0010
0001
,
1000
0100
0010
0001
0010
0100
1000
0001
1000
0010
0100
0001
1000
0001
0010
0100
,
1000
0001
1000
0100
0010
0001
0100
0010
0100
0001
0010
0100
1000
0010
0100
0010
,
1000
0001
0100
0010
1000
0001
0010
0001
0100
0010
0100
0001
1000
0001
0010
0100
,
1000
0001
0100
0010
1000
0010
0100
0001
0010
0100
1000
0100
0010
0001
0100
0001
,
1000
0100
0010
0001
1000
0010
1000
0100
0010
0001
0100
0001
0010
0100
1000
0001
,
0100
0010
0100
0001
1000
0010
0100
0010
1000
0100
0010
0001
0100
0010
1000
0001
,
0010
0001
0100
0010
1000
0100
1000
0001
0100
0010
1000
0100
0010
0001
0100
0010
,
1000
0100
0010
0001
0100
0010
0100
0001
0010
0100
1000
0010
0100
0010
1000
0100
,
0010
0001
1000
0100
1000
0010
0100
0001
0010
0001
1000
0010
1000
0001
0100
0001
,
0010
0100
1000
0100
0010
0001
0100
0010
1000
0010
0100
0001
0010
0100
1000
0100
,
0010
0001
0100
0010
1000
0010
0100
0001
1000
0100
0010
0001
1000
0100
0010
0001
,
0100
0010
1000
0001
0100
0010
1000
0010
0100
0001
0100
0010
1000
0100
0010
0001
,
0100
0010
1000
0010
0100
0001
0010
0100
1000
0001
0010
0001
0100
0001
1000
0010
,
1000
0001
0100
0010
1000
0100
0010
0001
0100
0010
1000
0001
0010
0001
0100
0010
,
1000
0001
0100
0010
1000
0100
0010
0001
0100
0010
0100
0001
0010
0100
1000
0001
,
0010
0100
1000
0010
1000
0001
0100
0010
1000
0001
0100
0010
1000
0100
0010
0001
,
1000
0100
0010
0001
0010
0100
1000
0001
1000
0010
0100
0001
1000
0001
0010
0100
,
1000
0001
1000
0100
0010
0001
0100
0010
0100
0001
0010
0100
1000
0010
0100
0010
,
1000
0001
0100
0010
1000
0001
0010
0001
0100
0010
0100
0001
1000
0001
0010
0100
,
1000
0001
0100
0010
1000
0010
0100
0001
0010
0100
1000
0100
0010
0001
0100
0001
,
1000
0100
0010
0001
1000
0010
1000
0100
0010
0001
0100
0001
0010
0100
1000
0001
,
0100
0010
0100
0001
1000
0010
0100
0010
1000
0100
0010
0001
0100
0010
1000
0001
,
0010
0001
0100
0010
1000
0100
1000
0001
0100
0010
1000
0100
0010
0001
0100
0010
,
1000
0100
0010
0001
0100
0010
0100
0001
0010
0100
1000
0010
0100
0010
1000
0100
,
0010
0001
1000
0100
1000
0010
0100
0001
0010
0001
1000
0010
1000
0001
0100
0001
,
0010
0100
1000
0100
0010
0001
0100
0010
1000
0010
0100
0001
0010
0100
1000
0100
,
0010
0001
0100
0010
1000
0010
0100
0001
1000
0100
0010
0001
1000
0100
0010
0001
,
0100
0010
1000
0001
0100
0010
1000
0010
0100
0001
0100
0010
1000
0100
0010
0001
,
0100
0010
1000
0010
0100
0001
0010
0100
1000
0001
0010
0001
0100
0001
1000
0010
,
1000
0001
0100
0010
1000
0100
0010
0001
0100
0010
1000
0001
0010
0001
0100
0010
,
1000
0001
0100
0010
1000
0100
0010
0001
0100
0010
0100
0001
0010
0100
1000
0001
,
0010
0100
1000
0010
1000
0001
0100
0010
1000
0001
0100
0010
1000
0100
0010
0001
,
1000
0100
0010
0001
0010
0100
1000
0001
1000
0010
0100
0001
1000
0001
0010
0100
,
1000
0001
1000
0100
0010
0001
0100
0010
0100
0001
0010
0100
1000
0010
0100
0010
,
1000
0001
0100
0010
1000
0001
0010
0001
0100
0010
0100
0001
1000
0001
0010
0100
,
1000
0001
0100
0010
1000
0010
0100
0001
0010
0100
1000
0100
0010
0001
0100
0001
,
1000
0100
0010
0001
1000
0010
1000
0100
0010
0001
0100
0001
0010
0100
1000
0001
,
0100
0010
0100
0001
1000
0010
0100
0010
1000
0100
0010
0001
0100
0010
1000
0001
,
0010
0001
0100
0010
1000
0100
1000
0001
0100
0010
1000
0100
0010
0001
0100
0010
,
1000
0100
0010
0001
0100
0010
0100
0001
0010
0100
1000
0010
0100
0010
1000
0100
,
0010
0001
1000
0100
1000
0010
0100
0001
0010
0001
1000
0010
1000
0001
0100
0001
,
0010
0100
1000
0100
0010
0001
0100
0010
1000
0010
0100
0001
0010
0100
1000
0100
,
0010
0001
0100
0010
1000
0010
0100
0001
1000
0100
0010
0001
1000
0100
0010
0001
,
0100
0010
1000
0001
0100
0010
1000
0010
0100
0001
0100
0010
1000
0100
0010
0001
,
0100
0010
1000
0010
0100
0001
0010
0100
1000
0001
0010
0001
0100
0001
1000
0010
,
1000
0001
0100
0010
1000
0100
0010
0001
0100
0010
1000
0001
0010
0001
0100
0010
,
1000
0001
0100
0010
1000
0100
0010
0001
0100
0010
0100
0001
0010
0100
1000
0001
,
1000
0001
1000
0001
1000
0001
1000
0001
,
1001
0100
0010
0001
0010
0100
1000
0001
1000
0010
0100
0001
1000
0001
0010
0100
,
1000
0001
1000
0100
0010
0001
0100
0010
0100
0001
0010
0100
1000
0010
0100
0010
,
1000
0001
0100
0010
1000
0001
0010
0001
0100
0010
0100
0001
1000
0001
0010
0100
,
1000
0001
0100
0010
1000
0010
0100
0001
0010
0100
1000
0100
0010
0001
0100
0001
,
1000
0100
0010
0001
1000
0010
1000
0100
0010
0001
0100
0001
0010
0100
1000
0001
,
0100
0010
0100
0001
1000
0010
0100
0010
1000
0100
0010
0001
0100
0010
1000
0001
,
0010
0001
0100
0010
1000
0100
1000
0001
0100
0010
1000
0100
0010
0001
0100
0010
,
1000
0100
0010
0001
0100
0010
0100
0001
0010
0100
1000
0010
0100
0010
1000
0100
,
0010
0001
1000
0100
1000
0010
0100
0001
0010
0001
1000
0010
1000
0001
0100
0001
,
0010
0100
1000
0100
0010
0001
0100
0010
1000
0010
0100
0001
0010
0100
1000
0100
,
0010
0001
0100
0010
1000
0010
0100
0001
1000
0100
0010
0001
1000
0100
0010
0001
,
0100
0010
1000
0001
0100
0010
1000
0010
0100
0001
0100
0010
1000
0100
0010
0001
,
0100
0010
1000
0010
0100
0001
0010
0100
1000
0001
0010
0001
0100
0001
1000
0010
,
1000
0001
0100
0010
1000
0100
0010
0001
0100
0010
1000
0001
0010
0001
0100
0010
,
1000
0001
0100
0010
1000
0100
0010
0001
0100
0010
0100
0001
0010
0100
1000
0001
,
0010
0100
1000
0010
1000
0001
0100
0010
1000
0001
0100
0010
1000
0100
0010
0001
,
1000
0100
0010
0001
0010
0100
1000
0001
1000
0010
0100
0001
1000
0001
0010
0100
,
1000
0001
1000
0100
0010
0001
0100
0010
0100
0001
0010
0100
1000
0010
0100
0010
,
1000
0001
0100
0010
1000
0001
0010
0001
0100
0010
0100
0001
1000
0001
0010
0100
,
1000
0001
0100
0010
1000
0010
0100
0001
0010
0100
1000
0100
0010
0001
0100
0001
,
1000
0100
0010
0001
1000
0010
1000
0100
0010
0001
0100
0001
0010
0100
1000
0001
,
0100
0010
0100
0001
1000
0010
0100
0010
1000
0100
0010
0001
0100
0010
1000
0001
,
0010
0001
0100
0010
1000
0100
1000
0001
0100
0010
1000
0100
0010
0001
0100
0010
,
1000
0100
0010
0001
0100
0010
0100
0001
0010
0100
1000
0010
0100
0010
1000
0100
,
0010
0001
1000
0100
1000
0010
0100
0001
0010
0001
1000
0010
1000
0001
0100
0001
,
0010
0100
1000
0100
0010
0001
0100
0010
1000
0010
0100
0001
0010
0100
1000
0100
,
0010
0001
0100
0010
1000
0010
0100
0001
1000
0100
0010
0001
1000
0100
0010
0001
,
0100
0010
1000
0001
0100
0010
1000
0010
0100
0001
0100
0010
1000
0100
0010
0001
,
0100
0010
1000
0010
0100
0001
0010
0100
1000
0001
0010
0001
0100
0001
1000
0010
,
1000
0001
0100
0010
1000
0100
0010
0001
0100
0010
1000
0001
0010
0001
0100
0010
,
1000
0001
0100
0010
1000
0100
0010
0001
0100
0010
0100
0001
0010
0100
1000
0001
,
0010
0100
1000
0010
1000
0001
0100
0010
1000
0001
0100
0010
1000
0100
0010
0001
,
1000
0100
0010
0001
0010
0100
1000
0001
1000
0010
0100
0001
1000
0001
0010
0100
,
1000
0001
1000
0100
0010
0001
0100
0010
0100
0001
0010
0100
1000
0010
0100
0010
,
1000
0001
0100
0010
1000
0001
0010
0001
0100
0010
0100
0001
1000
0001
0010
0100
,
1000
0001
0100
0010
1000
0010
0100
0001
0010
0100
1000
0100
0010
0001
0100
0001
,
1000
0100
0010
0001
1000
0010
1000
0100
0010
0001
0100
0001
0010
0100
1000
0001
,
0100
0010
0100
0001
1000
0010
0100
0010
1000
0100
0010
0001
0100
0010
1000
0001
,
0010
0001
0100
0010
1000
0100
1000
0001
0100
0010
1000
0100
0010
0001
0100
0010
,
1000
0100
0010
0001
0100
0010
0100
0001
0010
0100
1000
0010
0100
0010
1000
0100
,
0010
0001
1000
0100
1000
0010
0100
0001
0010
0001
1000
0010
1000
0001
0100
0001
,
0010
0100
1000
0100
0010
0001
0100
0010
1000
0010
0100
0001
0010
0100
1000
0100
,
0010
0001
0100
0010
1000
0010
0100
0001
1000
0100
0010
0001
1000
0100
0010
0001
,
0100
0010
1000
0001
0100
0010
1000
0010
0100
0001
0100
0010
1000
0100
0010
0001
,
0100
0010
1000
0010
0100
0001
0010
0100
1000
0001
0010
0001
0100
0001
1000
0010
,
1000
0001
0100
0010
1000
0100
0010
0001
0100
0010
1000
0001
0010
0001
0100
0010
,
1000
0001
0100
0010
1000
0100
0010
0001
0100
0010
0100
0001
0010
0100
1000
0001
,
0010
0100
1000
0010
1000
0001
0100
0010
1000
0001
0100
0010
1000
0100
0010
0001
,
1000
0100
0010
0001
0010
0100
1000
0001
1000
0010
0100
0001
1000
0001
0010
0100
,
1000
0001
1000
0100
0010
0001
0100
0010
0100
0001
0010
0100
1000
0010
0100
0010
,
1000
0001
0100
0010
1000
0001
0010
0001
0100
0010
0100
0001
1000
0001
0010
0100
,
1000
0001
0100
0010
1000
0010
0100
0001
0010
0100
1000
0100
0010
0001
0100
0001
,
1000
0100
0010
0001
1000
0010
1000
0100
0010
0001
0100
0001
0010
0100
1000
0001
,
0100
0010
0100
0001
1000
0010
0100
0010
1000
0100
0010
0001
0100
0010
1000
0001
,
0010
0001
0100
0010
1000
0100
1000
0001
0100
0010
1000
0100
0010
0001
0100
0010
,
1000
0100
0010
0001
0100
0010
0100
0001
0010
0100
1000
0010
0100
0010
1000
0100
,
0010
0001
1000
0100
1000
0010
0100
0001
0010
0001
1000
0010
1000
0001
0100
0001
,
0010
0100
1000
0100
0010
0001
0100
0010
1000
0010
0100
0001
0010
0100
1000
0100
,
0010
0001
0100
0010
1000
0010
0100
0001
1000
0100
0010
0001
1000
0100
0010
0001
,
0100
0010
1000
0001
0100
0010
1000
0010
0100
0001
0100
0010
1000
0100
0010
0001
,
0100
0010
1000
0010
0100
0001
0010
0100
1000
0001
0010
0001
0100
0001
1000
0010
,
1000
0001
0100
0010
1000
0100
0010
0001
0100
0010
1000
0001
0010
0001
0100
0010
,
1000
0001
0100
0010
1000
0100
0010
0001
0100
0010
0100
0001
0010
0100
1000
0001
,
0010
0100
1000
0010
1000
0001
0100
0010
1000
0001
0100
0010
1000
0100
0010
0001
,
1000
0100
0010
0001
0010
0100
1000
0001
1000
0010
0100
0001
1000
0001
0010
0100
,
1000
0001
1000
0100
0010
0001
0100
0010
0100
0001
0010
0100
1000
0010
0100
0010
,
1000
0001
0100
0010
1000
0001
0010
0001
0100
0010
0100
0001
1000
0001
0010
0100
,
1000
0001
0100
0010
1000
0010
0100
0001
0010
0100
1000
0100
0010
0001
0100
0001
,
1000
0100
0010
0001
1000
0010
1000
0100
0010
0001
0100
0001
0010
0100
1000
0001
,
0100
0010
0100
0001
1000
0010
0100
0010
1000
0100
0010
0001
0100
0010
1000
0001
,
0010
0001
0100
0010
1000
0100
1000
0001
0100
0010
1000
0100
0010
0001
0100
0010
,
1000
0100
0010
0001
0100
0010
0100
0001
0010
0100
1000
0010
0100
0010
1000
0100
,
0010
0001
1000
0100
1000
0010
0100
0001
0010
0001
1000
0010
1000
0001
0100
0001
,
0010
0100
1000
0100
0010
0001
0100
0010
1000
0010
0100
0001
0010
0100
1000
0100
,
0010
0001
0100
0010
1000
0010
0100
0001
1000
0100
0010
0001
1000
0100
0010
0001
,
0100
0010
1000
0001
0100
0010
1000
0010
0100
0001
0100
0010
1000
0100
0010
0001
,
0100
0010
1000
0010
0100
0001
0010
0100
1000
0001
0010
0001
0100
0001
1000
0010
,
1000
0001
0100
0010
1000
0100
0010
0001
0100
0010
1000
0001
0010
0001
0100
0010
,
1000
0001
0100
0010
1000
0100
0010
0001
0100
0010
0100
0001
0010
0100
1000
0001
,
0010
0100
1000
0010
1000
0001
0100
0010
1000
0001
0100
0010
1000
0100
0010
0001
,
1000
0100
0010
0001
0010
0100
1000
0001
1000
0010
0100
0001
1000
0001
0010
0100
,
1000
0001
1000
0100
0010
0001
0100
0010
0100
0001
0010
0100
1000
0010
0100
0010
,
1000
0001
0100
0010
1000
0001
0010
0001
0100
0010
0100
0001
1000
0001
0010
0100
,
1000
0001
0100
0010
1000
0010
0100
0001
0010
0100
1000
0100
0010
0001
0100
0001
,
1000
0100
0010
0001
1000
0010
1000
0100
0010
0001
0100
0001
0010
0100
1000
0001
,
0100
0010
0100
0001
1000
0010
0100
0010
1000
0100
0010
0001
0100
0010
1000
0001
,
0010
0001
0100
0010
1000
0100
1000
0001
0100
0010
1000
0100
0010
0001
0100
0010
,
1000
0100
0010
0001
0100
0010
0100
0001
0010
0100
1000
0010
0100
0010
1000
0100
,
0010
0001
1000
0100
1000
0010
0100
0001
0010
0001
1000
0010
1000
0001
0100
0001
,
0010
0100
1000
0100
0010
0001
0100
0010
1000
0010
0100
0001
0010
0100
1000
0100
,
0010
0001
0100
0010
1000
0010
0100
0001
1000
0100
0010
0001
1000
0100
0010
0001
,
0100
0010
1000
0001
0100
0010
1000
0010
0100
0001
0100
0010
1000
0100
0010
0001
,
0100
0010
1000
0010
0100
0001
0010
0100
1000
0001
0010
0001
0100
0001
1000
0010
,
1000
0001
0100
0010
1000
0100
0010
0001
0100
0010
1000
0001
0010
0001
0100
0010
,
1000
0001
0100
0010
1000
0100
0010
0001
0100
0010
0100
0001
0010
0100
1000
0001
,
0010
0100
1000
0010
1000
0001
0100
0010
1000
0001
0100
0010
1000
0100
0010
0001
,
1000
0100
0010
0001
0010
0100
1000
0001
1000
0010
0100
0001
1000
0001
0010
0100
,
1000
0001
1000
0100
0010
0001
0100
0010
0100
0001
0010
0100
1000
0010
0100
0010
,
1000
0001
0100
0010
1000
0001
0010
0001
0100
0010
0100
0001
1000
0001
0010
0100
,
1000
0001
0100
0010
1000
0010
0100
0001
0010
0100
1000
0100
0010
0001
0100
0001
,
1000
0100
0010
0001
1000
0010
1000
0100
0010
0001
0100
0001
0010
0100
1000
0001
,
0100
0010
0100
0001
1000
0010
0100
0010
1000
0100
0010
0001
0100
0010
1000
0001
,
0010
0001
0100
0010
1000
0100
1000
0001
0100
0010
1000
0100
0010
0001
0100
0010
,
1000
0001
0100
0010
1000
0001
1000
0100
0010
0001
0100
0001
0010
0100
1000
0010
,
1000
0001
0100
0010
1000
0100
0010
0001
0100
0010
0100
0001
0010
0100
1000
0001
,
0010
0100
1000
0010
1000
0001
0100
0010
1000
0001
0100
0010
1000
0100
0010
0001
,
1000
0100
0010
0001
0010
0100
1000
0001
1000
0010
0100
0001
1000
0001
0010
0100
,
1000
0001
1000
0100
0010
0001
0100
0010
0100
0001
0010
0100
1000
0010
0100
0010
,
1000
0001
0100
0010
1000
0001
0010
0001
0100
0010
0100
0001
1000
0001
0010
0100
,
1000
0001
0100
0010
1000
0010
0100
0001
0010
0100
1000
0100
0010
0001
0100
0001
,
1000
0100
0010
0001
1000
0010
1000
0100
0010
0001
0100
0001
0010
0100
1000
0001
,
0100
0010
0100
0001
1000
0010
0100
0010
1000
0100
0010
0001
0100
0010
1000
0001
,
0010
0001
0100
0010
1000
0100
1000
0001
0100
0010
1000
0100
0010
0001
0100
0010
,
1000
0100
0010
0001
0100
0010
0100
0001
0010
0100
1000
0010
0100
0010
1000
0100
,
0010
0001
1000
0100
1000
0010
0100
0001
0010
0001
1000
0010
1000
0001
0100
0001
,
0010
0100
1000
0100
0010
0001
0100
0010
1000
0010
0100
0001
0010
0100
1000
0100
,
0010
0001
0100
0010
1000
0010
0100
0001
1000
0100
0010
0001
1000
0100
0010
0001
,
0100
0010
1000
0001
0100
0010
1000
0010
0100
0001
0100
0010
1000
0100
0010
0001
,
0100
0010
1000
0010
0100
0001
0010
0100
1000
0001
0010
0001
0100
0001
1000
0010
,
1000
0001
0100
0010
1000
0100
0010
0001
0100
0010
1000
0001
0010
0001
0100
0010
,
1000
0001
0100
0010
1000
0100
0010
0001
0100
0010
0100
0001
0010
0100
1000
0001
,
0010
0100
1000
0010
1000
0001
0100
0010
1000
0001
0100
0010
1000
0100
0010
0001
,
1000
0100
0010
0001
0010
0100
1000
0001
1000
0010
0100
0001
1000
0001
0010
0100
,
1000
0001
1000
0100
0010
0001
0100
0010
0100
0001
0010
0100
1000
0010
0100
0010
,
1000
0001
0100
0010
1000
0001
0010
0001
0100
0010
0100
0001
1000
0001
0010
0100
,
1000
0001
0100
0010
1000
0010
0100
0001
0010
0100
1000
0100
0010
0001
0100
0001
,
1000
0100
0010
0001
1000
0010
1000
0100
0010
0001
0100
0001
0010
0100
1000
0001
,
0100
0010
0100
0001
1000
0010
0100
0010
1000
0100
0010
0001
0100
0010
1000
0001
,
0010
0001
0100
0010
1000
0100
1000
0001
0100
0010
1000
0100
0010
0001
0100
0010
,
1000
0001
0100
0010
1000
0001
1000
0100
0010
0001
0100
0001
0010
0100
1000
0010
,
2002
0000
0000
0000
,
3003
0000
0000
0000
,
0000
0000
0000
0000
,
0000
MMMM
0000
0000
,
0000
0000
0000
0000
,
0000
0000
0000
0000
,
0000
0000
0000
0000
,
0000
0000
0000
0000
,
0000
0000
0000
0000
,
0000
0000
0000
0000
,
0000
0000
0000
0000
,
0000
0000
0000
0000
,
0000
0000
0000
0000
,
0000
0000
0000
0000
0000
0000
0000
0000
1000
0100
0010
0001
1000
0010
1000
0100
,
0010
0001
0100
0001
0010
0100
1000
0001
0100
0010
0100
0001
1000
0010
0100
0010
,
1000
0100
0010
0001
0100
0010
1000
0001
0010
0001
0100
0010
1000
0100
1000
0001
,
0100
0010
1000
0100
0010
0001
0100
0010
1000
0100
0010
0001
0100
0010
0100
0001
,
0010
0100
1000
0010
0100
0010
1000
0100
0010
0001
1000
0100
1000
0010
0100
0001
,
0010
0001
1000
0010
1000
0001
0100
0001
0010
0100
1000
0100
0010
0001
0100
0010
,
1000
0010
0100
0001
0010
0100
1000
0100
0010
0001
0100
0010
1000
0010
0100
0001
,
1000
0100
0010
0001
1000
0100
0010
0001
0100
0010
1000
0001
0100
0010
1000
0010
,
0100
0001
0100
0010
1000
0100
0010
0001
0100
0010
1000
0010
0100
0001
0010
0100
,
1000
0001
0010
0001
0100
0001
1000
0010
1000
0001
0100
0010
1000
0100
0010
0001
,
0100
0010
1000
0001
0010
0001
0100
0010
1000
0001
0100
0010
1000
0100
0010
0001
,
0100
0010
0100
0001
0010
0100
1000
0001
0010
0100
1000
0010
1000
0001
0100
0010
,
1000
0001
0100
0010
1000
0100
0010
0001
1000
0100
0010
0001
0010
0100
1000
0001
,
1000
0010
0100
0001
1000
0001
0010
0100
1000
0001
1000
0100
0010
0001
0100
0010
,
0100
0001
0010
0100
1000
0010
0100
0010
1000
0001
0100
0010
1000
0001
0010
0001
,
0100
0010
0100
0001
1000
0001
0010
0100
1000
0001
0100
0010
1000
0010
0100
0001
,
0010
0100
1000
0100
0010
0001
0100
0001
1000
0100
0010
0001
1000
0010
1000
0100
,
0010
0001
0100
0001
0010
0100
1000
0001
0100
0010
0100
0001
1000
0010
0100
0010
,
1000
0100
0010
0001
0100
0010
1000
0001
0010
0001
0100
0010
1000
0100
1000
0001
,
0100
0010
1000
0100
0010
0001
0100
0010
1000
0100
0010
0001
0100
0010
0100
0001
,
0010
0100
1000
0010
0100
0010
1000
0100
0010
0001
1000
0100
1000
0010
0100
0001
,
0010
0001
1000
0010
1000
0001
0100
0001
0010
0100
1000
0100
0010
0001
0100
0010
,
1000
0010
0100
0001
0010
0100
1000
0100
0010
0001
0100
0010
1000
0010
0100
0001
,
1000
0100
0010
0001
1000
0100
0010
0001
0100
0010
1000
0001
0100
0010
1000
0010
,
0100
0001
0100
0010
1000
0100
0010
0001
0100
0010
1000
0010
0100
0001
0010
0100
,
1000
0001
0010
0001
0100
0001
1000
0010
1000
0001
0100
0010
1000
0100
0010
0001
,
0100
0010
1000
0001
0010
0001
0100
0010
1000
0001
0100
0010
1000
0100
0010
0001
,
0100
0010
0100
0001
0010
0100
1000
0001
0010
0100
1000
0010
1000
0001
0100
0010
,
1000
0001
0100
0010
1000
0100
0010
0001
1000
0100
0010
0001
0010
0100
1000
0001
,
1000
0010
0100
0001
1000
0001
0010
0100
1000
0001
1000
0100
0010
0001
0100
0010
,
0100
0001
0010
0100
1000
0010
0100
0010
1000
0001
0100
0010
1000
0001
0010
0001
,
0100
0010
0100
0001
1000
0001
0010
0100
1000
0001
0100
0010
1000
0010
0100
0001
,
0010
0100
1000
0100
0010
0001
0100
0001
1000
0100
0010
0001
1000
0010
1000
0100
,
0010
0001
0100
0001
0010
0100
1000
0001
0100
0010
0100
0001
1000
0010
0100
0010
,
1000
0100
0010
0001
0100
0010
1000
0001
0010
0001
0100
0010
1000
0100
1000
0001
,
0100
0010
1000
0100
0010
0001
0100
0010
1000
0100
0010
0001
0100
0010
0100
0001
,
0010
0100
1000
0010
0100
0010
1000
0100
0010
0001
1000
0100
1000
0010
0100
0001
,
0010
0001
1000
0010
1000
0001
0100
0001
0010
0100
1000
0100
0010
0001
0100
0010
,
1000
0010
0100
0001
0010
0100
1000
0100
0010
0001
0100
0010
1000
0010
0100
0001
,
1000
0100
0010
0001
1000
0100
0010
0001
0100
0010
1000
0001
0100
0010
1000
0010
,
0100
0001
0100
0010
1000
0100
0010
0001
0100
0010
1000
0010
0100
0001
0010
0100
,
1000
0001
0010
0001
0100
0001
1000
0010
1000
0001
0100
0010
1000
0100
0010
0001
,
0100
0010
1000
0001
0010
0001
0100
0010
1000
0001
0100
0010
1000
0100
0010
0001
,
0100
0010
0100
0001
0010
0100
1000
0001
0010
0100
1000
0010
1000
0001
0100
0010
,
1000
0001
0100
0010
1000
0100
0010
0001
1000
0100
0010
0001
0010
0100
1000
0001
,
1000
0010
0100
0001
1000
0001
0010
0100
1000
0001
1000
0100
0010
0001
0100
0010
,
0100
0001
0010
0100
1000
0010
0100
0010
1000
0001
0100
0010
1000
0001
0010
0001
,
0100
0010
0100
0001
1000
0001
0010
0100
1000
0001
0100
0010
1000
0010
0100
0001
,
0010
0100
1000
0100
0010
0001
0100
0001
1000
0100
0010
0001
1000
0010
1000
0100
,
0010
0001
0100
0001
0010
0100
1000
0001
0100
0010
0100
0001
1000
0010
0100
0010
,
1000
0100
0010
0001
0100
0010
1000
0001
0010
0001
0100
0010
1000
0100
1000
0001
,
0100
0010
1000
0100
0010
0001
0100
0010
1000
0100
0010
0001
0100
0010
0100
0001
,
0010
0100
1000
0010
0100
0010
1000
0100
0010
0001
1000
0100
1000
0010
0100
0001
,
0010
0001
1000
0010
1000
0001
0100
0001
0010
0100
1000
0100
0010
0001
0100
0010
,
1000
0010
0100
0001
0010
0100
1000
0100
0010
0001
0100
0010
1000
0010
0100
0001
,
1000
0100
0010
0001
1000
0100
0010
0001
0100
0010
1000
0001
0100
0010
1000
0010
,
0100
0001
0100
0010
1000
0100
0010
0001
0100
0010
1000
0010
0100
0001
0010
0100
,
1000
0001
0010
0001
0100
0001
1000
0010
1000
0001
0100
0010
1000
0100
0010
0001
,
0100
0010
1000
0001
0010
0001
0100
0010
1000
0001
0100
0010
1000
0100
0010
0001
,
0100
0010
0100
0001
0010
0100
1000
0001
0010
0100
1000
0010
1000
0001
0100
0010
,
1000
0001
0100
0010
1000
0100
0010
0001
1000
0100
0010
0001
0010
0100
1000
0001
,
1000
0010
0100
0001
1000
0001
0010
0100
1000
0001
1000
0100
0010
0001
0100
0010
,
0100
0001
0010
0100
1000
0010
0100
0010
1000
0001
0100
0010
1000
0001
0010
0001
,
0100
0010
0100
0001
1000
0001
0010
0100
1000
0001
0100
0010
1000
0010
0100
0001
,
0010
0100
1000
0100
0010
0001
0100
0001
1000
0100
0010
0001
1000
0010
1000
0100
,
0010
0001
0100
0001
0010
0100
1000
0001
0100
0010
0100
0001
1000
0010
0100
0010
,
1000
0100
0010
0001
0100
0010
1000
0001
0010
0001
0100
0010
1000
0100
1000
0001
,
0100
0010
1000
0100
0010
0001
0100
0010
1000
0100
0010
0001
0100
0010
0100
0001
,
0010
0100
1000
0010
0100
0010
1000
0100
0010
0001
1000
0100
1000
0010
0100
0001
,
0010
0001
1000
0010
1000
0001
0100
0001
0010
0100
1000
0100
0010
0001
0100
0010
,
1000
0010
0100
0001
0010
0100
1000
0100
0010
0001
0100
0010
1000
0010
0100
0001
,
1000
0100
0010
0001
1000
0100
0010
0001
0100
0010
1000
0001
0100
0010
1000
0010
,
0100
0001
0100
0010
1000
0100
0010
0001
0100
0010
1000
0010
0100
0001
0010
0100
,
1000
0001
0010
0001
0100
0001
1000
0010
1000
0001
0100
0010
1000
0100
0010
0001
,
0100
0010
1000
0001
0010
0001
0100
0010
1000
0001
0100
0010
1000
0100
0010
0001
,
0100
0010
0100
0001
0010
0100
1000
0001
0010
0100
1000
0010
1000
0001
0100
0010
,
1000
0001
0100
0010
1000
0100
0010
0001
1000
0100
0010
0001
0010
0100
1000
0001
,
1000
0010
0100
0001
1000
0001
0010
0100
1000
0001
1000
0100
0010
0001
0100
0010
,
0100
0001
0010
0100
1000
0010
0100
0010
1000
0001
0100
0010
1000
0001
0010
0001
,
0100
0010
0100
0001
1000
0001
0010
0100
1000
0001
0100
0010
1000
0010
0100
0001
,
0010
0100
1000
0100
0010
0001
0100
0001
1000
0100
0010
0001
1000
0010
1000
0100
,
0010
0001
0100
0001
0010
0100
1000
0001
0100
0010
0100
0001
1000
0010
0100
0010
,
1000
0100
0010
0001
0100
0010
1000
0001
0010
0001
0100
0010
1000
0100
1000
0001
,
0100
0010
1000
0100
0010
0001
0100
0010
1000
0100
0010
0001
0100
0010
0100
0001
,
0010
0100
1000
0010
0100
0010
1000
0100
0010
0001
1000
0100
1000
0010
0100
0001
,
0010
0001
1000
0010
1000
0001
0100
0001
0010
0100
1000
0100
0010
0001
0100
0010
,
1000
0010
0100
0001
0010
0100
1000
0100
0010
0001
0100
0010
1000
0010
0100
0001
,
1000
0100
0010
0001
1000
0100
0010
0001
0100
0010
1000
0001
0100
0010
1000
0010
,
0100
0001
0100
0010
1000
0100
0010
0001
0100
0010
1000
0010
0100
0001
0010
0100
,
1000
0001
0010
0001
0100
0001
1000
0010
1000
0001
0100
0010
1000
0100
0010
0001
,
0100
0010
1000
0001
0010
0001
0100
0010
1000
0001
0100
0010
1000
0100
0010
0001
,
0100
0010
0100
0001
0010
0100
1000
0001
0010
0100
1000
0010
1000
0001
0100
0010
,
1000
0001
0100
0010
1000
0100
0010
0001
1000
0100
0010
0001
0010
0100
1000
0001
,
1000
0010
0100
0001
1000
0001
0010
0100
1000
0001
1000
0100
0010
0001
0100
0010
,
0100
0001
0010
0100
1000
0010
0100
0010
1000
0001
0100
0010
1000
0001
0010
0001
,
0100
0010
0100
0001
1000
0001
0010
0100
1000
0001
0100
0010
1000
0010
0100
0001
,
0010
0100
1000
0100
0010
0001
0100
0001
1000
0100
0010
0001
1000
0010
1000
0100
,
0010
0001
0100
0001
0010
0100
1000
0001
0100
0010
0100
0001
1000
0010
0100
0010
,
1000
0100
0010
0001
0100
0010
1000
0001
0010
0001
0100
0010
1000
0100
1000
0001
,
0100
0010
1000
0100
0010
0001
0100
0010
1000
0100
0010
0001
0100
0010
0100
0001
,
0010
0100
1000
0010
0100
0010
1000
0100
0010
0001
1000
0100
1000
0010
0100
0001
,
0010
0001
1000
0010
1000
0001
0100
0001
0010
0100
1000
0100
0010
0001
0100
0010
,
1000
0010
0100
0001
0010
0100
1000
0100
0010
0001
0100
0010
1000
0010
0100
0001
,
1000
0100
0010
0001
1000
0100
0010
0001
0100
0010
1000
0001
0100
0010
1000
0010
,
0100
0001
0100
0010
1000
0100
0010
0001
0100
0010
1000
0010
0100
0001
0010
0100
,
1000
0001
0010
0001
0100
0001
1000
0010
1000
0001
0100
0010
1000
0100
0010
0001
,
0100
0010
1000
0001
0010
0001
0100
0010
1000
0001
0100
0010
1000
0100
0010
0001
,
0100
0010
0100
0001
0010
0100
1000
0001
0010
0100
1000
0010
1000
0001
0100
0010
,
1000
0001
0100
0010
1000
0100
0010
0001
1000
0100
0010
0001
0010
0100
1000
0001
,
1000
0010
0100
0001
1000
0001
0010
0100
1000
0001
1000
0100
0010
0001
0100
0010
,
0100
0001
0010
0100
1000
0010
0100
0010
1000
0001
0100
0010
1000
0001
0010
0001
,
0100
0010
0100
0001
1000
0001
0010
0100
1000
0001
0100
0010
1000
0010
0100
0001
,
0010
0100
1000
0100
0010
0001
0100
0001
1000
0100
0010
0001
1000
0010
1000
0100
,
0010
0001
0100
0001
0010
0100
1000
0001
0100
0010
0100
0001
1000
0010
0100
0010
,
1000
0100
0010
0001
0100
0010
1000
0001
0010
0001
0100
0010
1000
0100
1000
0001
,
0100
0010
1000
0100
0010
0001
0100
0010
1000
0100
0010
0001
0100
0010
0100
0001
,
0010
0100
1000
0010
0100
0010
1000
0100
0010
0001
1000
0100
1000
0010
0100
0001
,
0010
0001
1000
0010
1000
0001
0100
0001
0010
0100
1000
0100
0010
0001
0100
0010
,
1000
0010
0100
0001
0010
0100
1000
0100
0010
0001
0100
0010
1000
0010
0100
0001
,
1000
0100
0010
0001
1000
0100
0010
0001
0100
0010
1000
0001
0100
0010
1000
0010
,
0100
0001
0100
0010
1000
0100
0010
0001
0100
0010
1000
0010
0100
0001
0010
0100
,
1000
0001
0010
0001
0100
0001
1000
0010
1000
0001
0100
0010
1000
0100
0010
0001
,
0100
0010
1000
0001
0010
0001
0100
0010
1000
0001
0100
0010
1000
0100
0010
0001
,
0100
0010
0100
0001
0010
0100
1000
0001
0010
0100
1000
0010
1000
0001
0100
0010
,
1000
0001
0100
0010
1000
0100
0010
0001
1000
0100
0010
0001
0010
0100
1000
0001
,
1000
0010
0100
0001
1000
0001
0010
0100
1000
0001
1000
0100
0010
0001
0100
0010
,
0100
0001
0010
0100
1000
0010
0100
0010
1000
0001
0100
0010
1000
0001
0010
0001
,
0100
0010
0100
0001
1000
0001
0010
0100
1000
0001
0100
0010
1000
0010
0100
0001
,
0010
0100
1000
0100
0010
0001
0100
0001
1000
0100
0010
0001
1000
0010
1000
0100
,
0010
0001
0100
0001
0010
0100
1000
0001
0100
0010
0100
0001
1000
0010
0100
0010
,
1000
0100
0010
0001
0100
0010
1000
0001
0010
0001
0100
0010
1000
0100
1000
0001
,
0100
0010
1000
0100
0010
0001
0100
0010
1000
0100
0010
0001
0100
0010
0100
0001
,
0010
0100
1000
0010
0100
0010
1000
0100
0010
0001
1000
0100
1000
0010
0100
0001
,
0010
0001
1000
0010
1000
0001
0100
0001
0010
0100
1000
0100
0010
0001
0100
0010
,
1000
0010
0100
0001
0010
0100
1000
0100
0010
0001
0100
0010
1000
0010
0100
0001
,
1000
0100
0010
0001
1000
0100
0010
0001
0100
0010
1000
0001
0100
0010
1000
0010
,
0100
0001
0100
0010
1000
0100
0010
0001
0100
0010
1000
0010
0100
0001
0010
0100
,
1000
0001
0010
0001
0100
0001
1000
0010
1000
0001
0100
0010
1000
0100
0010
0001
,
0100
0010
1000
0001
0010
0001
0100
0010
1000
0001
0100
0010
1000
0100
0010
0001
,
0100
0010
0100
0001
0010
0100
1000
0001
0010
0100
1000
0010
1000
0001
0100
0010
,
1000
0001
0100
0010
1000
0100
0010
0001
1000
0100
0010
0001
0010
0100
1000
0001
,
1000
0010
0100
0001
1000
0001
0010
0100
1000
0001
1000
0100
0010
0001
0100
0010
,
0100
0001
0010
0100
1000
0010
0100
0010
1000
0001
0100
0010
1000
0001
0010
0001
,
0100
0010
0100
0001
1000
0001
0010
0100
1000
0001
0100
0010
1000
0010
0100
0001
,
0010
0100
1000
0100
0010
0001
0100
0001
1000
0100
0010
0001
1000
0010
1000
0100
,
0010
0001
0100
0001
0010
0100
1000
0001
0100
0010
0100
0001
1000
0010
0100
0010
,
1000
0100
0010
0001
0100
0010
1000
0001
0010
0001
0100
0010
1000
0100
1000
0001
,
0100
0010
1000
0100
0010
0001
0100
0010
1000
0100
0010
0001
0100
0010
0100
0001
,
0010
0100
1000
0010
0100
0010
1000
0100
0010
0001
1000
0100
1000
0010
0100
0001
,
0010
0001
1000
0010
1000
0001
0100
0001
0010
0100
1000
0100
0010
0001
0100
0010
,
1000
0010
0100
0001
0010
0100
1000
0100
0010
0001
0100
0010
1000
0010
0100
0001
,
1000
0100
0010
0001
1000
0100
0010
0001
0100
0010
1000
0001
0100
0010
1000
0010
,
0100
0001
0100
0010
1000
0100
0010
0001
0100
0010
1000
0010
0100
0001
0010
0100
,
1000
0001
0010
0001
0100
0001
1000
0010
1000
0001
0100
0010
1000
0100
0010
0001
,
0100
0010
1000
0001
0010
0001
0100
0010
1000
0001
0100
0010
1000
0100
0010
0001
,
0100
0010
0100
0001
0010
0100
1000
0001
0010
0100
1000
0010
1000
0001
0100
0010
,
1000
0001
0100
0010
1000
0100
0010
0001
1000
0100
0010
0001
0010
0100
1000
0001
,
1000
0010
0100
0001
1000
0001
0010
0100
1000
0001
1000
0100
0010
0001
0100
0010
,
0100
0001
0010
0100
1000
0010
0100
0010
1000
0001
0100
0010
1000
0001
0010
0001
,
0100
0010
0100
0001
1000
0001
0010
0100
1000
0001
0100
0010
1000
0010
0100
0001
,
0010
0100
1000
0100
0010
0001
0100
0001
1000
0100
0010
0001
1000
0010
1000
0100
,
0010
0001
0100
0001
0010
0100
1000
0001
0100
0010
0100
0001
1000
0010
0100
0010
,
1000
0100
0010
0001
0100
0010
1000
0001
0010
0001
0100
0010
1000
0100
1000
0001
,
0100
0010
1000
0100
0010
0001
0100
0010
1000
0100
0010
0001
0100
0010
0100
0001
,
0010
0100
1000
0010
0100
0010
1000
0100
0010
0001
1000
0100
1000
0010
0100
0001
,
0010
0001
1000
0010
1000
0001
0100
0001
0010
0100
1000
0100
0010
0001
0100
0010
,
1000
0010
0100
0001
0010
0100
1000
0100
0010
0001
0100
0010
1000
0010
0100
0001
,
1000
0100
0010
0001
1000
0100
0010
0001
0100
0010
1000
0001
0100
0010
1000
0010
,
0100
0001
0100
0010
1000
0100
0010
0001
0100
0010
1000
0010
0100
0001
0010
0100
,
1000
0001
0010
0001
0100
0001
1000
0010
1000
0001
0100
0010
1000
0100
0010
0001
,
0100
0010
1000
0001
0010
0001
0100
0010
1000
0001
0100
0010
1000
0100
0010
0001
,
0100
0010
0100
0001
0010
0100
1000
0001
0010
0100
1000
0010
1000
0001
0100
0010
,
1000
0001
0100
0010
1000
0100
0010
0001
1000
0100
0010
0001
0010
0100
1000
0001
,
1000
0010
0100
0001
1000
0001
0010
0100
1000
0001
1000
0100
0010
0001
0100
0010
,
0100
0001
0010
0100
1000
0010
0100
0010
1000
0001
0100
0010
1000
0001
0010
0001
,
0100
0010
0100
0001
1000
0001
0010
0100
1000
0001
0100
0010
1000
0010
0100
0001
,
0010
0100
1000
0100
0010
0001
0100
0001
1000
0100
0010
0001
1000
0010
1000
0100
,
0010
0001
0100
0001
0010
0100
1000
0001
0100
0010
0100
0001
1000
0010
0100
0010
,
1000
0100
0010
0001
0100
0010
1000
0001
0010
0001
0100
0010
1000
0100
1000
0001
,
0100
0010
1000
0100
0010
0001
0100
0010
1000
0100
0010
0001
0100
0010
0100
0001
,
0010
0100
1000
0010
0100
0010
1000
0100
0010
0001
1000
0100
1000
0010
0100
0001
,
0010
0001
1000
0010
1000
0001
0100
0001
0010
0100
1000
0100
0010
0001
0100
0010
,
1000
0010
0100
0001
0010
0100
1000
0100
0010
0001
0100
0010
1000
0010
0100
0001
,
1000
0100
0010
0001
1000
0100
0010
0001
0100
0010
1000
0001
0100
0010
1000
0010
,
0100
0001
0100
0010
1000
0100
0010
0001
0100
0010
1000
0010
0100
0001
0010
0100
,
1000
0001
0010
0001
0100
0001
1000
0010
1000
0001
0100
0010
1000
0100
0010
0001
,
0100
0010
1000
0001
0010
0001
0100
0010
1000
0001
0100
0010
1000
0100
0010
0001
,
0100
0010
0100
0001
0010
0100
1000
0001
0010
0100
1000
0010
1000
0001
0100
0010
,
1000
0001
0100
0010
1000
0100
0010
0001
1000
0100
0010
0001
0010
0100
1000
0001
,
1000
0010
0100
0001
1000
0001
0010
0100
1000
0001
1000
0100
0010
0001
0100
0010
,
0100
0001
0010
0100
1000
0010
0100
0010
1000
0001
0100
0010
1000
0001
0010
0001
,
0100
0010
0100
0001
1000
0001
0010
0100
1000
0001
0100
0010
1000
0010
0100
0001
,
0010
0100
1000
0100
0010
0001
0100
0001
1000
0100
0010
0001
1000
0010
1000
0100
,
0010
0001
0100
0001
0010
0100
1000
0001
0100
0010
0100
0001
1000
0010
0100
0010
,
1000
0100
0010
0001
0100
0010
1000
0001
0010
0001
0100
0010
1000
0100
1000
0001
,
0100
0010
1000
0100
0010
0001
0100
0010
1000
0100
0010
0001
0100
0010
0100
0001
,
0010
0100
1000
0010
0100
0010
1000
0100
0010
0001
1000
0100
1000
0010
0100
0001
,
0010
0001
1000
0010
1000
0001
0100
0001
0010
0100
1000
0100
0010
0001
0100
0010
,
1000
0010
0100
0001
0010
0100
1000
0100
0010
0001
0100
0010
1000
0010
0100
0001
,
1000
0100
0010
0001
1000
0100
0010
0001
0100
0010
1000
0001
0100
0010
1000
0010
,
0100
0001
0100
0010
1000
0100
0010
0001
0100
0010
1000
0010
0100
0001
0010
0100
,
1000
0001
0010
0001
0100
0001
1000
0010
1000
0001
0100
0010
1000
0100
0010
0001
,
0100
0010
1000
0001
0010
0001
0100
0010
1000
0001
0100
0010
1000
0100
0010
0001
,
0100
0010
0100
0001
0010
0100
1000
0001
0010
0100
1000
0010
1000
0001
0100
0010
,
1000
0001
0100
0010
1000
0100
0010
0001
1000
0100
0010
0001
0010
0100
1000
0001
,
1000
0010
0100
0001
1000
0001
0010
0100
1000
0001
1000
0100
0010
0001
0100
0010
,
0100
0001
0010
0100
1000
0010
0100
0010
1000
0001
0100
0010
1000
0001
0010
0001
,
0100
0010
0100
0001
1000
0001
0010
0100
1000
0001
0100
0010
1000
0010
0100
0001
,
0010
0100
1000
0100
0010
0001
0100
0001
1000
0100
0010
0001
1000
0010
1000
0100
,
0010
0001
0100
0001
0010
0100
1000
0001
0100
0010
0100
0001
1000
0010
0100
0010
,
1000
0100
0010
0001
0100
0010
1000
0001
0010
0001
0100
0010
1000
0100
1000
0001
,
0100
0010
1000
0100
0010
0001
0100
0010
1000
0100
0010
0001
0100
0010
0100
0001
,
0010
0100
1000
0010
0100
0010
1000
0100
0010
0001
1000
0100
1000
0010
0100
0001
,
0010
0001
1000
0010
1000
0001
0100
0001
0010
0100
1000
0100
0010
0001
0100
0010
,
1000
0010
0100
0001
0010
0100
1000
0100
0010
0001
0100
0010
1000
0010
0100
0001
,
1000
0100
0010
0001
1000
0100
0010
0001
0100
0010
1000
0001
0100
0010
1000
0010
,
0100
0001
0100
0010
1000
0100
0010
0001
0100
0010
1000
0010
0100
0001
0010
0100
,
1000
0001
0010
0001
0100
0001
1000
0010
1000
0001
0100
0010
1000
0100
0010
0001
,
0100
0010
1000
0001
0010
0001
0100
0010
1000
0001
0100
0010
1000
0100
0010
0001
,
0100
0010
0100
0001
0010
0100
1000
0001
0010
0100
1000
0010
1000
0001
0100
0010
,
1000
0001
0100
0010
1000
0100
0010
0001
1000
0100
0010
0001
0010
0100
1000
0001
,
1000
0010
0100
0001
1000
0001
0010
0100
1000
0001
1000
0100
0010
0001
0100
0010
,
0100
0001
0010
0100
1000
0010
0100
0010
1000
0001
0100
0010
1000
0001
0010
0001
,
0100
0010
0100
0001
1000
0001
0010
0100
1000
0001
0100
0010
1000
0010
0100
0001
,
0010
0100
1000
0100
0010
0001
0100
0001
1000
0100
0010
0001
1000
0010
1000
0100
,
0010
0001
0100
0001
0010
0100
1000
0001
0100
0010
0100
0001
1000
0010
0100
0010
,
1000
0100
0010
0001
0100
0010
1000
0001
0010
0001
0100
0010
1000
0100
1000
0001
,
0100
0010
1000
0100
0010
0001
0100
0010
1000
0100
0010
0001
0100
0010
0100
0001
,
0010
0100
1000
0010
0100
0010
1000
0100
0010
0001
1000
0100
1000
0010
0100
0001
,
0010
0001
1000
0010
1000
0001
0100
0001
0010
0100
1000
0100
0010
0001
0100
0010
,
1000
0010
0100
0001
0010
0100
1000
0100
0010
0001
0100
0010
1000
0010
0100
0001
,
1000
0100
0010
0001
1000
0100
0010
0001
0100
0010
1000
0001
0100
0010
1000
0010
,
0100
0001
0100
0010
1000
0100
0010
0001
0100
0010
1000
0010
0100
0001
0010
0100
,
1000
0001
0010
0001
0100
0001
1000
0010
1000
0001
0100
0010
1000
0100
0010
0001
,
0100
0010
1000
0001
0010
0001
0100
0010
1000
0001
0100
0010
1000
0100
0010
0001
,
0100
0010
0100
0001
0010
0100
1000
0001
0010
0100
1000
0010
1000
0001
0100
0010
,
1000
0001
0100
0010
1000
0100
0010
0001
1000
0100
0010
0001
0010
0100
1000
0001
,
1000
0010
0100
0001
1000
0001
0010
0100
1000
0001
1000
0100
0010
0001
0100
0010
,
0100
0001
0010
0100
1000
0010
0100
0010
1000
0001
0100
0010
1000
0001
0010
0001
,
0100
0010
0100
0001
1000
0001
0010
0100
1000
0001
0100
0010
1000
0010
0100
0001
,
0010
0100
1000
0100
0010
0001
0100
0001
1000
0100
0010
0001
1000
0010
1000
0100
,
0010
0001
0100
0001
0010
0100
1000
0001
0100
0010
0100
0001
1000
0010
0100
0010
,
1000
0100
0010
0001
0100
0010
1000
0001
0010
0001
0100
0010
1000
0100
1000
0001
,
0100
0010
1000
0100
0010
0001
0100
0010
1000
0100
0010
0001
0100
0010
0100
0001
,
0010
0100
1000
0010
0100
0010
1000
0100
0010
0001
1000
0100
1000
0010
0100
0001
,
0010
0001
1000
0010
1000
0001
0100
0001
0010
0100
1000
0100
0010
0001
0100
0010
,
1000
0010
0100
0001
0010
0100
1000
0100
0010
0001
0100
0010
1000
0010
0100
0001
,
1000
0100
0010
0001
1000
0100
0010
0001
0100
0010
1000
0001
0100
0010
1000
0010
,
0100
0001
0100
0010
1000
0100
0010
0001
0100
0010
1000
0010
0100
0001
0010
0100
,
1000
0001
0010
0001
0100
0001
1000
0010
1000
0001
0100
0010
1000
0100
0010
0001
,
0100
0010
1000
0001
0010
0001
0100
0010
1000
0001
0100
0010
1000
0100
0010
0001
,
0100
0010
0100
0001
0010
0100
1000
0001
0010
0100
1000
0010
1000
0001
0100
0010
,
1000
0001
0100
0010
1000
0100
0010
0001
1000
0100
0010
0001
0010
0100
1000
0001
,
1000
0010
0100
0001
1000
0001
0010
0100
1000
0001
1000
0100
0010
0001
0100
0010
,
0100
0001
0010
0100
1000
0010
0100
0010
1000
0001
0100
0010
1000
0001
0010
0001
,
0100
0010
0100
0001
1000
0001
0010
0100
1000
0001
0100
0010
1000
0010
0100
0001
,
0010
0100
1000
0100
0010
0001
0100
0001
1000
0100
0010
0001
1000
0010
1000
0100
,
0010
0001
0100
0001
0010
0100
1000
0001
0100
0010
0100
0001
1000
0010
0100
0010
,
1000
0100
0010
0001
0100
0010
1000
0001
0010
0001
0100
0010
1000
0100
1000
0001
,
0100
0010
1000
0100
0010
0001
0100
0010
1000
0100
0010
0001
0100
0010
0100
0001
,
0010
0100
1000
0010
0100
0010
1000
0100
0010
0001
1000
0100
1000
0010
0100
0001
,
0010
0001
1000
0010
1000
0001
0100
0001
0010
0100
1000
0100
0010
0001
0100
0010
,
1000
0010
0100
0001
0010
0100
1000
0100
0010
0001
0100
0010
1000
0010
0100
0001
,
1000
0100
0010
0001
1000
0100
0010
0001
0100
0010
1000
0001
0100
0010
1000
0010
,
0100
0001
0100
0010
1000
0100
0010
0001
0100
0010
1000
0010
0100
0001
0010
0100
,
1000
0001
0010
0001
0100
0001
1000
0010
1000
0001
0100
0010
1000
0100
0010
0001
,
0100
0010
1000
0001
0010
0001
0100
0010
1000
0001
0100
0010
1000
0100
0010
0001
,
0100
0010
0100
0001
0010
0100
1000
0001
0010
0100
1000
0010
1000
0001
0100
0010
,
1000
0001
0100
0010
1000
0100
0010
0001
1000
0100
0010
0001
0010
0100
1000
0001
,
1000
0010
0100
0001
1000
0001
0010
0100
1000
0001
1000
0100
0010
0001
0100
0010
,
0100
0001
0010
0100
1000
0010
0100
0010
1000
0001
0100
0010
1000
0001
0010
0001
,
0100
0010
0100
0001
1000
0001
0010
0100
1000
0001
0100
0010
1000
0010
0100
0001
,
0010
0100
1000
0100
0010
0001
0100
0001
1000
0100
0010
0001
1000
0010
1000
0100
,
0010
0001
0100
0001
0010
0100
1000
0001
0100
0010
0100
0001
1000
0010
0100
0010
,
1000
0100
0010
0001
0100
0010
1000
0001
0010
0001
0100
0010
1000
0100
1000
0001
,
0100
0010
1000
0100
0010
0001
0100
0010
1000
0001
0100
0010
1000
0001
1000
0100
,
0010
0001
0100
0001
0010
0100
1000
0010
1000
0100
0010
0001
0100
0010
1000
0001
,
0010
0001
0100
0010
1000
0100
1000
0001
0100
0010
1000
0100
0010
0001
0100
0010
,
1000
0100
0010
0001
0100
0010
0100
0001
0010
0100
1000
0010
0100
0010
1000
0100
,
0010
0001
1000
0100
1000
0010
0100
0001
0010
0001
1000
0010
1000
0001
0100
0001
,
0010
0100
1000
0100
0010
0001
0100
0010
1000
0010
0100
0001
0010
0100
1000
0100
,
0010
0001
0100
0010
1000
0010
0100
0001
1000
0100
0010
0001
1000
0100
0010
0001
,
0100
0010
1000
0001
0100
0010
1000
0010
0100
0001
0100
0010
1000
0100
0010
0001
,
0100
0010
1000
0010
0100
0001
0010
0100
1000
0001
0010
0001
0100
0001
1000
0010
,
1000
0001
0100
0010
1000
0100
0010
0001
0100
0010
1000
0001
0010
0001
0100
0010
,
1000
0001
0100
0010
1000
0100
0010
0001
0100
0010
0100
0001
0010
0100
1000
0001
,
0010
0100
1000
0010
1000
0001
0100
0010
1000
0001
0100
0010
1000
0100
0010
0001
,
1000
0100
0010
0001
0010
0100
1000
0001
1000
0010
0100
0001
1000
0001
0010
0100
,
1000
0001
1000
0100
0010
0001
0100
0010
0100
0001
0010
0100
1000
0010
0100
0010
,
1000
0001
0100
0010
1000
0001
0010
0001
0100
0010
0100
0001
1000
0001
0010
0100
,
1000
0001
0100
0010
1000
0010
0100
0001
0010
0100
1000
0100
0010
0001
0100
0001
,
1000
0100
0010
0001
1000
0010
1000
0100
0010
0001
0100
0001
0010
0100
1000
0001
,
0100
0010
0100
0001
1000
0010
0100
0010
1000
0100
0010
0001
0100
0010
1000
0001
,
0010
0001
0100
0010
1000
0100
1000
0001
0100
0010
1000
0100
0010
0001
0100
0010
,
1000
0100
0010
0001
0100
0010
0100
0001
0010
0100
1000
0010
0100
0010
1000
0100
,
0010
0001
1000
0100
1000
0010
0100
0001
0010
0001
1000
0010
1000
0001
0100
0001
,
0010
0100
1000
0100
0010
0001
0100
0010
1000
0010
0100
0001
0010
0100
1000
0100
,
0010
0001
0100
0010
1000
0010
0100
0001
1000
0100
0010
0001
1000
0100
0010
0001
,
0100
0010
1000
0001
0100
0010
1000
0010
0100
0001
0100
0010
1000
0100
0010
0001
,
0100
0010
1000
0010
0100
0001
0010
0100
1000
0001
0010
0001
0100
0001
1000
0010
,
1000
0001
0100
0010
1000
0100
0010
0001
0100
0010
1000
0001
0010
0001
0100
0010
,
1000
0001
0100
0010
1000
0100
0010
0001
0100
0010
0100
0001
0010
0100
1000
0001
,
0010
0100
1000
0010
1000
0001
0100
0010
1000
0001
0100
0010
1000
0100
0010
0001
,
1000
0100
0010
0001
0010
0100
1000
0001
1000
0010
0100
0001
1000
0001
0010
0100
,
1000
0001
1000
0100
0010
0001
0100
0010
0100
0001
0010
0100
1000
0010
0100
0010
,
1000
0001
0100
0010
1000
0001
0010
0001
0100
0010
0100
0001
1000
0001
0010
0100
,
1000
0001
0100
0010
1000
0010
0100
0001
0010
0100
1000
0100
0010
0001
0100
0001
,
1000
0100
0010
0001
1000
0010
1000
0100
0010
0001
0100
0001
0010
0100
1000
0001
,
0100
0010
0100
0001
1000
0010
0100
0010
1000
0100
0010
0001
0100
0010
1000
0001
,
0010
0001
0100
0010
1000
0100
1000
0001
0100
0010
1000
0100
0010
0001
0100
0010
,
1000
0100
0010
0001
0100
0010
0100
0001
0010
0100
1000
0010
0100
0010
1000
0100
,
0010
0001
1000
0100
1000
0010
0100
0001
0010
0001
1000
0010
1000
0001
0100
0001
,
0010
0100
1000
0100
0010
0001
0100
0010
1000
0010
0100
0001
0010
0100
1000
0100
,
0010
0001
0100
0010
1000
0010
0100
0001
1000
0100
0010
0001
1000
0100
0010
0001
,
0100
0010
1000
0001
0100
0010
1000
0010
0100
0001
0100
0010
1000
0100
0010
0001
,
0100
0010
1000
0010
0100
0001
0010
0100
1000
0001
0010
0001
0100
0001
1000
0010
,
1000
0001
0100
0010
1000
0100
0010
0001
0100
0010
1000
0001
0010
0001
0100
0010
,
1000
0001
0100
0010
1000
0100
0010
0001
0100
0010
0100
0001
0010
0100
1000
0001
,
0010
0100
1000
0010
1000
0001
0100
0010
1000
0001
0100
0010
1000
0100
0010
0001
,
1000
0100
0010
0001
0010
0100
1000
0001
1000
0010
0100
0001
1000
0001
0010
0100
,
1000
0001
1000
0100
0010
0001
0100
0010
0100
0001
0010
0100
1000
0010
0100
0010
,
1000
0001
0100
0010
1000
0001
0010
0001
0100
0010
0100
0001
1000
0001
0010
0100
,
1000
0001
0100
0010
1000
0010
0100
0001
0010
0100
1000
0100
0010
0001
0100
0001
,
1000
0100
0010
0001
1000
0010
1000
0100
0010
0001
0100
0001
0010
0100
1000
0001
,
0100
0010
0100
0001
1000
0010
0100
0010
1000
0100
0010
0001
0100
0010
1000
0001
,
0010
0001
0100
0010
1000
0100
1000
0001
0100
0010
1000
0100
0010
0001
0100
0010
,
1000
0100
0010
0001
0100
0010
0100
0001
0010
0100
1000
0010
0100
0010
1000
0100
,
0010
0001
1000
0100
1000
0010
0100
0001
0010
0001
1000
0010
1000
0001
0100
0001
,
0010
0100
1000
0100
0010
0001
0100
0010
1000
0010
0100
0001
0010
0100
1000
0100
,
0010
0001
0100
0010
1000
0010
0100
0001
1000
0100
0010
0001
1000
0100
0010
0001
,
0100
0010
1000
0001
0100
0010
1000
0010
0100
0001
0100
0010
1000
0100
0010
0001
,
0100
0010
1000
0010
0100
0001
0010
0100
1000
0001
0010
0001
0100
0001
1000
0010
,
1000
0001
0100
0010
1000
0100
0010
0001
0100
0010
1000
0001
0010
0001
0100
0010
,
1000
0001
0100
0010
1000
0100
0010
0001
0100
0010
0100
0001
0010
0100
1000
0001
,
0010
0100
1000
0010
1000
0001
0100
0010
1000
0001
0100
0010
1000
0100
0010
0001
,
1000
0100
0010
0001
0010
0100
1000
0001
1000
0010
0100
0001
1000
0001
0010
0100
,
1000
0001
1000
0100
0010
0001
0100
0010
0100
0001
0010
0100
1000
0010
0100
0010
,
1000
0001
0100
0010
1000
0001
0010
0001
0100
0010
0100
0001
1000
0001
0010
0100
,
1000
0001
0100
0010
1000
0010
0100
0001
0010
0100
1000
0100
0010
0001
0100
0001
,
1000
0100
0010
0001
1000
0010
1000
0100
0010
0001
0100
0001
0010
0100
1000
0001
,
0100
0010
0100
0001
1000
0010
0100
0010
1000
0100
0010
0001
0100
0010
1000
0001
,
0010
0001
0100
0010
1000
0100
1000
0001
0100
0010
1000
0100
0010
0001
0100
0010
,
1000
0100
0010
0001
0100
0010
0100
0001
0010
0100
1000
0010
0100
0010
1000
0100
,
0010
0001
1000
0100
1000
0010
0100
0001
0010
0001
1000
0010
1000
0001
0100
0001
,
0010
0100
1000
0100
0010
0001
0100
0010
1000
0010
0100
0001
0010
0100
1000
0100
,
0010
0001
0100
0010
1000
0010
0100
0001
1000
0100
0010
0001
1000
0100
0010
0001
,
0100
0010
1000
0001
0100
0010
1000
0010
0100
0001
0100
0010
1000
0100
0010
0001
,
0100
0010
1000
0010
0100
0001
0010
0100
1000
0001
0010
0001
0100
0001
1000
0010
,
1000
0001
0100
0010
1000
0100
0010
0001
0100
0010
1000
0001
0010
0001
0100
0010
,
1000
0001
0100
0010
1000
0100
0010
0001
0100
0010
0100
0001
0010
0100
1000
0001
,
0010
0100
1000
0010
1000
0001
0100
0010
1000
0001
0100
0010
1000
0100
0010
0001
,
1000
0100
0010
0001
0010
0100
1000
0001
1000
0010
0100
0001
1000
0001
0010
0100
,
1000
0001
1000
0100
0010
0001
0100
0010
0100
0001
0010
0100
1000
0010
0100
0010
,
1000
0001
0100
0010
1000
0001
0010
0001
0100
0010
0100
0001
1000
0001
0010
0100
,
1000
0001
0100
0010
1000
0010
0100
0001
0010
0100
1000
0100
0010
0001
0100
0001
,
1000
0100
0010
0001
1000
0010
1000
0100
0010
0001
0100
0001
0010
0100
1000
0001
,
0100
0010
0100
0001
1000
0010
0100
0010
1000
0100
0010
0001
0100
0010
1000
0001
,
0010
0001
0100
0010
1000
0100
1000
0001
0100
0010
1000
0100
0010
0001
0100
0010
,
1000
0001
0100
0010
1000
0001
1000
0100
0010
0001
0100
0001
0010
0100
1000
0010
,
0010
0001
1000
0100
1000
0010
0100
0001
0010
0001
1000
0010
1000
0001
0100
0001
,
0010
0100
1000
0100
0010
0001
0100
0010
1000
0010
0100
0001
0010
0100
1000
0100
,
0010
0001
0100
0010
1000
0010
0100
0001
1000
0100
0010
0001
1000
0100
0010
0001
,
0100
0010
1000
0001
0100
0010
1000
0010
0100
0001
0100
0010
1000
0100
0010
0001
,
0100
0010
1000
0010
0100
0001
0010
0100
1000
0001
0010
0001
0100
0001
1000
0010
,
1000
0001
0100
0010
1000
0100
0010
0001
0100
0010
1000
0001
0010
0001
0100
0010
,
1000
0001
0100
0010
1000
0100
0010
0001
0100
0010
0100
0001
0010
0100
1000
0001
,
0010
0100
1000
0010
1000
0001
0100
0010
1000
0001
0100
0010
1000
0100
0010
0001
,
1000
0100
0010
0001
0010
0100
1000
0001
1000
0010
0100
0001
1000
0001
0010
0100
,
1000
0001
1000
0100
0010
0001
0100
0010
0100
0001
0010
0100
1000
0010
0100
0010
,
1000
0001
0100
0010
1000
0001
0010
0001
0100
0010
0100
0001
1000
0001
0010
0100
,
1000
0001
0100
0010
1000
0010
0100
0001
0010
0100
1000
0100
0010
0001
0100
0001
,
1000
0100
0010
0001
1000
0010
1000
0100
0010
0001
0100
0001
0010
0100
1000
0001
,
0100
0010
0100
0001
1000
0010
0100
0010
1000
0100
0010
0001
0100
0010
1000
0001
,
0010
0001
0100
0010
1000
0100
1000
0001
0100
0010
1000
0100
0010
0001
0100
0010
,
1000
0001
0100
0010
1000
0001
1000
0100
0010
0001
0100
0001
0010
0100
1000
0010
,
0100
0001
1000
0100
0010
0001
0100
0010
2002
0000
0000
0000
0000
0000
0000
0000
,
3003
0000
0000
0000
;

//---------------dance-single - ----------------
#NOTES:
     dance-single:
     :
     Easy:
     4:
     0.166,0.208,0.002,0.002,0.000,2524.000,4.000,4.000,0.000,0.000:
0000
0000
0000
0000
,
0000
0000
0000
0000
,
0000
0000
0000
0000
,
0000
0000
0000
0000
,
1000
0000
0010
0000
,
0100
0000
0001
0000
,
1000
0000
0010
0000
,
1000
0000
0100
0000
,
0010
0000
0001
0000
,
0100
0000
0010
0000
,
1000
0000
0100
0000
,
0001
0000
0100
0000
,
0010
0000
1000
0000
,
0010
0000
0001
0000
,
0100
0000
0010
0000
,
1000
0000
0100
0000
,
0010
0000
0001
0000
,
0100
0000
0010
0000
,
1000
0000
0001
0000
,
0100
0000
1000
0000
,
0010
0000
0100
0000
,
0001
0000
0010
0000
,
0100
0000
1000
0000
,
0001
0000
1000
0000
,
0010
0000
0100
0000
,
0001
0000
0010
0000
,
1000
0000
0010
0000
,
0100
0000
0001
0000
,
0010
0000
1000
0000
,
0001
0000
0100
0000
,
1000
0000
0010
0000
,
0100
0000
0001
0000
,
1000
0000
0010
0000
,
1000
0000
0100
0000
,
0010
0000
0001
0000
,
0100
0000
0010
0000
,
1000
0000
0100
0000
,
0001
0000
0100
0000
,
0010
0000
1000
0000
,
0010
0000
0001
0000
,
0100
0000
0010
0000
,
1000
0000
0100
0000
,
0010
0000
0001
0000
,
0100
0000
0010
0000
,
1000
0000
0001
0000
,
0100
0000
1000
0000
,
0010
0000
0100
0000
,
0001
0000
0010
0000
,
0100
0000
1000
0000
,
0001
0000
1000
0000
,
0010
0000
0100
0000
,
0001
0000
0010
0000
,
1000
0000
0010
0000
,
0100
0000
0001
0000
,
0010
0000
1000
0000
,
0001
0000
0100
0000
,
1000
0000
0010
0000
,
0100
0000
0001
0000
,
1000
0000
0010
0000
,
1000
0000
0100
0000
,
0010
0000
0001
0000
,
0100
0000
0010
0000
,
1000
0000
0100
0000
,
0001
0000
0100
0000
,
0010
0000
1000
0000
,
0010
0000
0001
0000
,
0100
0000
0010
0000
,
1000
0000
0100
0000
,
0010
0000
0001
0000
,
0100
0000
0010
0000
,
1000
0000
0001
0000
,
0100
0000
1000
0000
,
0010
0000
0100
0000
,
0001
0000
0010
0000
,
0100
0000
1000
0000
,
0001
0000
1000
0000
,
0010
0000
0100
0000
,
0001
0000
0010
0000
,
1000
0000
0010
0000
,
0100
0000
0001
0000
,
0010
0000
1000
0000
,
0001
0000
0100
0000
,
1000
0000
0010
0000
,
0100
0000
0001
0000
,
1000
0000
0010
0000
,
1000
0000
0100
0000
,
0010
0000
0001
0000
,
0100
0000
0010
0000
,
1000
0000
0100
0000
,
0001
0000
0100
0000
,
0010
0000
1000
0000
,
0010
0000
0001
0000
,
0100
0000
0010
0000
,
1000
0000
0100
0000
,
0010
0000
0001
0000
,
0100
0000
0010
0000
,
1000
0000
0001
0000
,
0100
0000
1000
0000
,
0010
0000
0100
0000
,
0001
0000
0010
0000
,
0100
0000
1000
0000
,
0001
0000
1000
0000
,
0010
0000
0100
0000
,
0001
0000
0010
0000
,
1000
0000
0010
0000
,
0100
0000
0001
0000
,
0010
0000
1000
0000
,
0001
0000
0100
0000
,
1000
0000
0010
0000
,
0100
0000
0001
0000
,
1000
0000
0010
0000
,
1000
0000
0100
0000
,
0010
0000
0001
0000
,
0100
0000
0010
0000
,
1000
0000
0100
0000
,
0001
0000
0100
0000
,
0010
0000
1000
0000
,
0010
0000
0001
0000
,
0100
0000
0010
0000
,
1000
0000
0100
0000
,
0010
0000
0001
0000
,
0100
0000
0010
0000
,
1000
0000
0001
0000
,
0100
0000
1000
0000
,
0010
0000
0100
0000
,
0001
0000
0010
0000
,
0100
0000
1000
0000
,
0001
0000
1000
0000
,
0010
0000
0100
0000
,
0001
0000
0010
0000
,
1000
0000
0010
0000
,
0100
0000
0001
0000
,
0010
0000
1000
0000
,
0001
0000
0100
0000
,
1000
0000
0010
0000
,
0100
0000
0001
0000
,
1000
0000
0010
0000
,
1000
0000
0100
0000
,
0010
0000
0001
0000
,
0100
0000
0010
0000
,
1000
0000
0100
0000
,
0001
0000
0100
0000
,
0010
0000
1000
0000
,
0010
0000
0001
0000
,
0100
0000
0010
0000
,
1000
0000
0100
0000
,
0010
0000
0001
0000
,
0100
0000
0010
0000
,
1000
0000
0001
0000
,
0100
0000
1000
0000
,
0010
0000
0100
0000
,
0001
0000
0010
0000
,
0100
0000
1000
0000
,
0001
0000
1000
0000
,
0010
0000
0100
0000
,
0001
0000
0010
0000
,
1000
0000
0010
0000
,
0100
0000
0001
0000
,
0010
0000
1000
0000
,
0001
0000
0100
0000
,
1000
0000
0010
0000
,
0100
0000
0001
0000
,
1000
0000
0010
0000
,
1000
0000
0100
0000
,
0010
0000
0001
0000
,
0100
0000
0010
0000
,
1000
0000
0100
0000
,
0001
0000
0100
0000
,
0010
0000
1000
0000
,
0010
0000
0001
0000
,
0100
0000
0010
0000
,
1000
0000
0100
0000
,
0010
0000
0001
0000
,
0100
0000
0010
0000
,
1000
0000
0001
0000
,
0100
0000
1000
0000
,
0010
0000
0100
0000
,
0001
0000
0010
0000
,
0100
0000
1000
0000
,
0001
0000
1000
0000
,
0010
0000
0100
0000
,
0001
0000
0010
0000
,
1000
0000
0010
0000
,
0100
0000
0001
0000
,
0010
0000
1000
0000
,
0001
0000
0100
0000
,
1000
0000
0010
0000
,
0100
0000
0001
0000
,
1000
0000
0010
0000
,
1000
0000
0100
0000
,
0010
0000
0001
0000
,
0100
0000
0010
0000
,
1000
0000
0100
0000
,
0001
0000
0100
0000
,
0010
0000
1000
0000
,
0010
0000
0001
0000
,
0100
0000
0010
0000
,
1000
0000
0100
0000
,
0010
0000
0001
0000
,
0100
0000
0010
0000
,
1000
0000
0001
0000
,
0100
0000
1000
0000
,
0010
0000
0100
0000
,
0001
0000
0010
0000
,
0100
0000
1000
0000
,
0001
0000
1000
0000
,
0010
0000
0100
0000
,
0001
0000
0010
0000
,
1000
0000
0010
0000
,
0100
0000
0001
0000
,
0010
0000
1000
0000
,
0001
0000
1000
0000
,
0010
0000
0100
0000
,
0001
0000
1000
0000
,
0010
0000
1000
0000
,
0100
0000
0010
0000
,
0001
0000
0100
0000
,
0010
0000
1000
0000
,
0100
0000
0001
0000
,
0100
0000
0010
0000
,
1000
0000
0010
0000
,
0001
0000
0100
0000
,
0010
0000
1000
0000
,
0100
0000
0010
0000
,
0001
0000
0100
0000
,
0010
0000
1000
0000
,
0001
0000
0100
0000
,
1000
0000
0010
0000
,
0100
0000
0001
0000
,
0010
0000
0100
0000
,
1000
0000
0001
0000
,
1000
0000
0010
0000
,
0100
0000
0001
0000
,
0010
0000
1000
0000
,
0010
0000
0100
0000
,
0001
0000
0010
0000
,
1000
0000
0001
0000
,
0100
0000
1000
0000
,
0010
0000
0100
0000
,
0001
0000
1000
0000
,
0010
0000
1000
0000
,
0100
0000
0010
0000
,
0001
0000
0100
0000
,
0010
0000
1000
0000
,
0100
0000
0001
0000
,
0100
0000
0010
0000
,
1000
0000
0010
0000
,
0001
0000
0100
0000
,
0010
0000
1000
0000
,
0100
0000
0010
0000
,
0001
0000
0100
0000
,
0010
0000
1000
0000
,
0001
0000
0100
0000
,
1000
0000
0010
0000
,
0100
0000
0001
0000
,
0010
0000
0100
0000
,
1000
0000
0001
0000
,
1000
0000
0010
0000
,
0100
0000
0001
0000
,
0010
0000
1000
0000
,
0010
0000
0100
0000
,
0001
0000
0010
0000
,
1000
0000
0001
0000
,
0100
0000
1000
0000
,
0010
0000
0100
0000
,
0001
0000
1000
0000
,
0010
0000
1000
0000
,
0100
0000
0010
0000
,
0001
0000
0100
0000
,
0010
0000
1000
0000
,
0100
0000
0001
0000
,
0100
0000
0010
0000
,
1000
0000
0010
0000
,
0001
0000
0100
0000
,
0010
0000
1000
0000
,
0100
0000
0010
0000
,
0001
0000
0100
0000
,
0010
0000
1000
0000
,
0001
0000
0100
0000
,
1000
0000
0010
0000
,
1001
0000
0000
0000
,
0000
0000
0000
0000
,
0000
0000
0000
0000
,
0000
0000
0000
0000
,
0000
0000
0000
0000
,
1000
0000
0010
0000
,
0100
0000
0001
0000
,
1000
0000
0010
0000
,
1000
0000
0100
0000
,
0010
0000
0001
0000
,
0100
0000
0010
0000
,
1000
0000
0100
0000
,
0001
0000
0100
0000
,
0010
0000
1000
0000
,
0010
0000
0001
0000
,
0100
0000
0010
0000
,
1000
0000
0100
0000
,
0010
0000
0001
0000
,
0100
0000
0010
0000
,
1000
0000
0001
0000
,
0100
0000
1000
0000
,
0010
0000
0100
0000
,
0001
0000
0010
0000
,
0100
0000
1000
0000
,
0001
0000
1000
0000
,
0010
0000
0100
0000
,
0001
0000
0010
0000
,
1000
0000
0010
0000
,
0100
0000
0001
0000
,
0010
0000
1000
0000
,
0001
0000
0100
0000
,
1000
0000
0010
0000
,
0100
0000
0001
0000
,
1000
0000
0010
0000
,
1000
0000
0100
0000
,
0010
0000
0001
0000
,
0100
0000
0010
0000
,
1000
0000
0100
0000
,
0001
0000
0100
0000
,
0010
0000
1000
0000
,
0010
0000
0001
0000
,
0100
0000
0010
0000
,
1000
0000
0100
0000
,
0010
0000
0001
0000
,
0100
0000
0010
0000
,
1000
0000
0001
0000
,
0100
0000
1000
0000
,
0010
0000
0100
0000
,
0001
0000
0010
0000
,
0100
0000
1000
0000
,
0001
0000
1000
0000
,
0010
0000
0100
0000
,
0001
0000
0010
0000
,
1000
0000
0010
0000
,
0100
0000
0001
0000
,
0010
0000
1000
0000
,
0001
0000
0100
0000
,
1000
0000
0010
0000
,
0100
0000
0001
0000
,
1000
0000
0010
0000
,
1000
0000
0100
0000
,
0010
0000
0001
0000
,
0100
0000
0010
0000
,
1000
0000
0100
0000
,
0001
0000
0100
0000
,
0010
0000
1000
0000
,
0010
0000
0001
0000
,
0100
0000
0010
0000
,
1000
0000
0100
0000
,
0010
0000
0001
0000
,
0100
0000
0010
0000
,
1000
0000
0001
0000
,
0100
0000
1000
0000
,
0010
0000
0100
0000
,
0001
0000
0010
0000
,
0100
0000
1000
0000
,
0001
0000
1000
0000
,
0010
0000
0100
0000
,
0001
0000
0010
0000
,
1000
0000
0010
0000
,
0100
0000
0001
0000
,
0010
0000
1000
0000
,
0001
0000
0100
0000
,
1000
0000
0010
0000
,
0100
0000
0001
0000
,
1000
0000
0010
0000
,
1000
0000
0100
0000
,
0010
0000
0001
0000
,
0100
0000
0010
0000
,
1000
0000
0100
0000
,
0001
0000
0100
0000
,
0010
0000
1000
0000
,
0010
0000
0001
0000
,
0100
0000
0010
0000
,
1000
0000
0100
0000
,
0010
0000
0001
0000
,
0100
0000
0010
0000
,
1000
0000
0001
0000
,
0100
0000
1000
0000
,
0010
0000
0100
0000
,
0001
0000
0010
0000
,
0100
0000
1000
0000
,
0001
0000
1000
0000
,
0010
0000
0100
0000
,
0001
0000
0010
0000
,
1000
0000
0010
0000
,
0100
0000
0001
0000
,
0010
0000
1000
0000
,
0001
0000
0100
0000
,
1000
0000
0010
0000
,
0100
0000
0001
0000
,
1000
0000
0010
0000
,
1000
0000
0100
0000
,
0010
0000
0001
0000
,
0100
0000
0010
0000
,
1000
0000
0100
0000
,
0001
0000
0100
0000
,
0010
0000
1000
0000
,
0010
0000
0001
0000
,
0100
0000
0010
0000
,
1000
0000
0100
0000
,
0010
0000
0001
0000
,
0100
0000
0010
0000
,
1000
0000
0001
0000
,
0100
0000
1000
0000
,
0010
0000
0100
0000
,
0001
0000
0010
0000
,
0100
0000
1000
0000
,
0001
0000
1000
0000
,
0010
0000
0100
0000
,
0001
0000
0010
0000
,
1000
0000
0010
0000
,
0100
0000
0001
0000
,
0010
0000
1000
0000
,
0001
0000
0100
0000
,
1000
0000
0010
0000
,
0100
0000
0001
0000
,
1000
0000
0010
0000
,
1000
0000
0100
0000
,
0010
0000
0001
0000
,
0100
0000
0010
0000
,
1000
0000
0100
0000
,
0001
0000
0100
0000
,
0010
0000
1000
0000
,
0010
0000
0001
0000
,
0100
0000
0010
0000
,
1000
0000
0100
0000
,
0010
0000
0001
0000
,
0100
0000
0010
0000
,
1000
0000
0001
0000
,
0100
0000
1000
0000
,
0010
0000
0100
0000
,
0001
0000
0010
0000
,
0100
0000
1000
0000
,
0001
0000
1000
0000
,
0010
0000
0100
0000
,
0001
0000
0010
0000
,
1000
0000
0010
0000
,
0100
0000
0001
0000
,
0010
0000
1000
0000
,
0001
0000
0100
0000
,
1000
0000
0010
0000
,
0100
0000
0001
0000
,
1000
0000
0010
0000
,
1000
0000
0100
0000
,
0010
0000
0001
0000
,
0100
0000
0010
0000
,
1000
0000
0100
0000
,
0001
0000
0100
0000
,
0010
0000
1000
0000
,
0010
0000
0001
0000
,
0100
0000
0010
0000
,
1000
0000
0100
0000
,
0010
0000
0001
0000
,
0100
0000
0010
0000
,
1000
0000
0001
0000
,
0100
0000
1000
0000
,
0010
0000
0100
0000
,
0001
0000
0010
0000
,
0100
0000
1000
0000
,
0001
0000
1000
0000
,
0010
0000
0100
0000
,
0001
0000
0010
0000
,
1000
0000
0010
0000
,
0100
0000
0001
0000
,
0010
0000
1000
0000
,
0001
0000
0100
0000
,
1000
0000
0010
0000
,
0100
0000
0001
0000
,
1000
0000
0010
0000
,
1000
0000
0100
0000
,
0010
0000
0001
0000
,
0100
0000
0010
0000
,
1000
0000
0100
0000
,
0001
0000
0100
0000
,
0010
0000
1000
0000
,
0010
0000
0001
0000
,
0100
0000
0010
0000
,
1000
0000
0100
0000
,
0010
0000
0001
0000
,
0100
0000
0010
0000
,
1000
0000
0001
0000
,
0100
0000
1000
0000
,
0010
0000
0100
0000
,
0001
0000
0010
0000
,
0100
0000
1000
0000
,
0001
0000
1000
0000
,
0010
0000
0100
0000
,
0001
0000
0010
0000
,
1000
0000
0010
0000
,
0100
0000
0001
0000
,
0010
0000
1000
0000
,
0001
0000
1000
0000
,
0010
0000
0100
0000
,
0001
0000
1000
0000
,
0010
0000
1000
0000
,
0100
0000
0010
0000
,
0001
0000
0100
0000
,
0010
0000
1000
0000
,
0100
0000
0001
0000
,
0100
0000
0010
0000
,
1000
0000
0010
0000
,
0001
0000
0100
0000
,
0010
0000
1000
0000
,
0100
0000
0010
0000
,
0001
0000
0100
0000
,
0010
0000
1000
0000
,
0001
0000
0100
0000
,
1000
0000
0010
0000
,
0100
0000
0001
0000
,
0010
0000
0100
0000
,
1000
0000
0001
0000
,
1000
0000
0010
0000
,
0100
0000
0001
0000
,
0010
0000
1000
0000
,
0010
0000
0100
0000
,
0001
0000
0010
0000
,
1000
0000
0001
0000
,
0100
0000
1000
0000
,
0010
0000
0100
0000
,
0001
0000
1000
0000
,
0010
0000
1000
0000
,
0100
0000
0010
0000
,
0001
0000
0100
0000
,
0010
0000
1000
0000
,
0100
0000
0001
0000
,
0100
0000
0010
0000
,
1000
0000
0010
0000
,
0001
0000
0100
0000
,
0010
0000
1000
0000
,
0100
0000
0010
0000
,
0001
0000
0100
0000
,
0010
0000
1000
0000
,
0001
0000
0100
0000
,
1000
0000
0010
0000
,
0100
0000
0001
0000
,
0010
0000
0100
0000
,
1000
0000
0001
0000
,
1000
0000
0010
0000
,
0100
0000
0001
0000
,
0010
0000
1000
0000
,
0010
0000
0100
0000
,
0001
0000
0010
0000
,
1000
0000
0001
0000
,
0100
0000
1000
0000
,
0010
0000
0100
0000
,
0001
0000
1000
0000
,
0010
0000
1000
0000
,
0100
0000
0010
0000
,
0001
0000
0100
0000
,
0010
0000
1000
0000
,
0100
0000
0001
0000
,
0100
0000
0010
0000
,
1000
0000
0010
0000
,
0001
0000
0100
0000
,
0010
0000
1000
0000
,
0100
0000
0010
0000
,
0001
0000
0100
0000
,
0010
0000
1000
0000
,
0001
0000
0100
0000
,
1000
0000
0010
0000
,
0100
0000
0001
0000
,
0010
0000
1000
0000
,
0010
0000
0100
0000
,
0001
0000
0010
0000
,
1000
0000
0001
0000
,
0100
0000
1000
0000
,
0010
0000
0100
0000
,
0001
0000
1000
0000
,
0010
0000
1000
0000
,
0100
0000
0010
0000
,
0001
0000
0100
0000
,
0010
0000
1000
0000
,
0100
0000
0001
0000
,
0100
0000
0010
0000
,
1000
0000
0010
0000
,
0001
0000
0100
0000
,
0010
0000
1000
0000
,
0100
0000
0010
0000
,
0001
0000
0100
0000
,
0010
0000
1000
0000
,
0001
0000
0100
0000
,
1000
0000
0001
0000
,
1000
0000
0010
0000
,
0100
0000
0010
0000
,
1000
0000
0001
0000
,
0100
0000
0010
0000
,
0100
0000
0001
0000
,
0010
0000
0100
0000
,
1000
0000
0010
0000
,
0100
0000
0001
0000
,
1000
0000
0010
0000
,
1001
0000
0000
0000
,
0000
0000
0000
0000
,
0000
0000
0000
0000
,
0000
0000
0000
0000
,
0000
0000
0000
0000
,
0000
0000
0000
0000
,
0000
0000
0000
0000
,
0000
0000
0000
0000
,
0000
0000
0000
0000
,
1000
0000
0010
0000
,
0100
0000
0001
0000
,
1000
0000
0010
0000
,
1000
0000
0100
0000
,
0010
0000
0001
0000
,
0100
0000
0010
0000
,
1000
0000
0100
0000
,
0001
0000
0100
0000
,
0010
0000
1000
0000
,
0010
0000
0001
0000
,
0100
0000
0010
0000
,
1000
0000
0100
0000
,
0010
0000
0001
0000
,
0100
0000
0010
0000
,
1000
0000
0001
0000
,
0100
0000
1000
0000
,
0010
0000
0100
0000
,
0001
0000
0010
0000
,
0100
0000
1000
0000
,
0001
0000
1000
0000
,
0010
0000
0100
0000
,
0001
0000
0010
0000
,
1000
0000
0010
0000
,
0100
0000
0001
0000
,
0010
0000
1000
0000
,
0001
0000
0100
0000
,
1000
0000
0010
0000
,
0100
0000
0001
0000
,
1000
0000
0010
0000
,
1000
0000
0100
0000
,
0010
0000
0001
0000
,
0100
0000
0010
0000
,
1000
0000
0100
0000
,
0001
0000
0100
0000
,
0010
0000
1000
0000
,
0010
0000
0001
0000
,
0100
0000
0010
0000
,
1000
0000
0100
0000
,
0010
0000
0001
0000
,
0100
0000
0010
0000
,
1000
0000
0001
0000
,
0100
0000
1000
0000
,
0010
0000
0100
0000
,
0001
0000
0010
0000
,
0100
0000
1000
0000
,
0001
0000
1000
0000
,
0010
0000
0100
0000
,
0001
0000
0010
0000
,
1000
0000
0010
0000
,
0100
0000
0001
0000
,
0010
0000
1000
0000
,
0001
0000
0100
0000
,
1000
0000
0010
0000
,
0100
0000
0001
0000
,
1000
0000
0010
0000
,
1000
0000
0100
0000
,
0010
0000
0001
0000
,
0100
0000
0010
0000
,
1000
0000
0100
0000
,
0001
0000
0100
0000
,
0010
0000
1000
0000
,
0010
0000
0001
0000
,
0100
0000
0010
0000
,
1000
0000
0100
0000
,
0010
0000
0001
0000
,
0100
0000
0010
0000
,
1000
0000
0001
0000
,
0100
0000
1000
0000
,
0010
0000
0100
0000
,
0001
0000
0010
0000
,
0100
0000
1000
0000
,
0001
0000
1000
0000
,
0010
0000
0100
0000
,
0001
0000
0010
0000
,
1000
0000
0010
0000
,
0100
0000
0001
0000
,
0010
0000
1000
0000
,
0001
0000
0100
0000
,
1000
0000
0010
0000
,
0100
0000
0001
0000
,
1000
0000
0010
0000
,
1000
0000
0100
0000
,
0010
0000
0001
0000
,
0100
0000
0010
0000
,
1000
0000
0100
0000
,
0001
0000
0100
0000
,
0010
0000
1000
0000
,
0010
0000
0001
0000
,
0100
0000
0010
0000
,
1000
0000
0100
0000
,
0010
0000
0001
0000
,
0100
0000
0010
0000
,
1000
0000
0001
0000
,
0100
0000
1000
0000
,
0010
0000
0100
0000
,
0001
0000
0010
0000
,
0100
0000
1000
0000
,
0001
0000
1000
0000
,
0010
0000
0100
0000
,
0001
0000
0010
0000
,
1000
0000
0010
0000
,
0100
0000
0001
0000
,
0010
0000
1000
0000
,
0001
0000
0100
0000
,
1000
0000
0010
0000
,
0100
0000
0001
0000
,
1000
0000
0010
0000
,
1000
0000
0100
0000
,
0010
0000
0001
0000
,
0100
0000
0010
0000
,
1000
0000
0100
0000
,
0001
0000
0100
0000
,
0010
0000
1000
0000
,
0010
0000
0001
0000
,
0100
0000
0010
0000
,
1000
0000
0100
0000
,
0010
0000
0001
0000
,
0100
0000
0010
0000
,
1000
0000
0001
0000
,
0100
0000
1000
0000
,
0010
0000
0100
0000
,
0001
0000
0010
0000
,
0100
0000
1000
0000
,
0001
0000
1000
0000
,
0010
0000
0100
0000
,
0001
0000
0010
0000
,
1000
0000
0010
0000
,
0100
0000
0001
0000
,
0010
0000
1000
0000
,
0001
0000
0100
0000
,
1000
0000
0010
0000
,
0100
0000
0001
0000
,
1000
0000
0010
0000
,
1000
0000
0100
0000
,
0010
0000
0001
0000
,
0100
0000
0010
0000
,
1000
0000
0100
0000
,
0001
0000
0100
0000
,
0010
0000
1000
0000
,
0010
0000
0001
0000
,
0100
0000
0010
0000
,
1000
0000
0100
0000
,
0010
0000
0001
0000
,
0100
0000
0010
0000
,
1000
0000
0001
0000
,
0100
0000
1000
0000
,
0010
0000
0100
0000
,
0001
0000
0010
0000
,
0100
0000
1000
0000
,
0001
0000
1000
0000
,
0010
0000
0100
0000
,
0001
0000
0010
0000
,
1000
0000
0010
0000
,
0100
0000
0001
0000
,
0010
0000
1000
0000
,
0001
0000
0100
0000
,
1000
0000
0010
0000
,
0100
0000
0001
0000
,
1000
0000
0010
0000
,
1000
0000
0100
0000
,
0010
0000
0001
0000
,
0100
0000
0010
0000
,
1000
0000
0100
0000
,
0001
0000
0100
0000
,
0010
0000
1000
0000
,
0010
0000
0001
0000
,
0100
0000
0010
0000
,
1000
0000
0100
0000
,
0010
0000
0001
0000
,
0100
0000
0010
0000
,
1000
0000
0001
0000
,
0100
0000
1000
0000
,
0010
0000
0100
0000
,
0001
0000
0010
0000
,
0100
0000
1000
0000
,
0001
0000
1000
0000
,
0010
0000
0100
0000
,
0001
0000
0010
0000
,
1000
0000
0010
0000
,
0100
0000
0001
0000
,
0010
0000
1000
0000
,
0001
0000
0100
0000
,
1000
0000
0010
0000
,
0100
0000
0001
0000
,
1000
0000
0010
0000
,
1000
0000
0100
0000
,
0010
0000
0001
0000
,
0100
0000
0010
0000
,
1000
0000
0100
0000
,
0001
0000
0100
0000
,
0010
0000
1000
0000
,
0010
0000
0001
0000
,
0100
0000
0010
0000
,
1000
0000
0100
0000
,
0010
0000
0001
0000
,
0100
0000
0010
0000
,
1000
0000
0001
0000
,
0100
0000
1000
0000
,
0010
0000
0100
0000
,
0001
0000
0010
0000
,
0100
0000
1000
0000
,
0001
0000
1000
0000
,
0010
0000
0100
0000
,
0001
0000
0010
0000
,
1000
0000
0010
0000
,
0100
0000
0001
0000
,
0010
0000
1000
0000
,
0001
0000
1000
0000
,
0010
0000
0100
0000
,
0001
0000
1000
0000
,
0010
0000
1000
0000
,
0100
0000
0010
0000
,
0001
0000
0100
0000
,
0010
0000
1000
0000
,
0100
0000
0001
0000
,
0100
0000
0010
0000
,
1000
0000
0010
0000
,
0001
0000
0100
0000
,
0010
0000
1000
0000
,
0100
0000
0010
0000
,
0001
0000
0100
0000
,
0010
0000
1000
0000
,
0001
0000
0100
0000
,
1000
0000
0010
0000
,
0100
0000
0001
0000
,
0010
0000
0100
0000
,
1000
0000
0001
0000
,
1000
0000
0010
0000
,
0100
0000
0001
0000
,
0010
0000
1000
0000
,
0010
0000
0100
0000
,
0001
0000
0010
0000
,
1000
0000
0001
0000
,
0100
0000
1000
0000
,
0010
0000
0100
0000
,
0001
0000
1000
0000
,
0010
0000
1000
0000
,
0100
0000
0010
0000
,
0001
0000
0100
0000
,
0010
0000
1000
0000
,
0100
0000
0001
0000
,
0100
0000
0010
0000
,
1000
0000
0010
0000
,
0001
0000
0100
0000
,
0010
0000
1000
0000
,
0100
0000
0010
0000
,
0001
0000
0100
0000
,
0010
0000
1000
0000
,
0001
0000
0100
0000
,
1000
0000
0010
0000
,
0100
0000
0001
0000
,
0010
0000
0100
0000
,
1000
0000
0001
0000
,
1000
0000
0010
0000
,
0100
0000
0001
0000
,
0010
0000
1000
0000
,
0010
0000
0100
0000
,
0001
0000
0010
0000
,
1000
0000
0001
0000
,
0100
0000
1000
0000
,
0010
0000
0100
0000
,
0001
0000
1000
0000
,
0010
0000
1000
0000
,
0100
0000
0010
0000
,
0001
0000
0100
0000
,
0010
0000
1000
0000
,
0100
0000
0001
0000
,
0100
0000
0010
0000
,
1000
0000
0010
0000
,
0001
0000
0100
0000
,
0010
0000
1000
0000
,
0100
0000
0010
0000
,
0001
0000
0100
0000
,
0010
0000
1000
0000
,
0001
0000
0100
0000
,
1000
0000
0010
0000
,
0100
0000
0001
0000
,
0010
0000
1000
0000
,
0010
0000
0100
0000
,
0001
0000
0010
0000
,
1000
0000
0001
0000
,
0100
0000
1000
0000
,
0010
0000
0100
0000
,
0001
0000
1000
0000
,
0010
0000
1000
0000
,
0100
0000
0010
0000
,
0001
0000
0100
0000
,
0010
0000
1000
0000
,
0100
0000
0001
0000
,
0100
0000
0010
0000
,
1000
0000
0010
0000
,
0001
0000
0100
0000
,
0010
0000
1000
0000
,
0100
0000
0010
0000
,
0001
0000
0100
0000
,
0010
0000
1000
0000
,
0001
0000
0100
0000
,
1000
0000
0001
0000
,
1000
0000
0010
0000
,
0100
0000
0010
0000
,
1000
0000
0001
0000
,
0100
0000
0010
0000
,
2002
0000
0000
0000
,
3003
0000
0000
0000
,
0000
0000
0000
0000
,
0000
0000
0000
0000
,
0000
0000
0000
0000
,
0000
0000
0000
0000
,
0000
0000
0000
0000
,
0000
0000
0000
0000
,
0000
0000
0000
0000
,
0000
0000
0000
0000
,
0000
0000
0000
0000
,
0000
0000
0000
0000
,
0000
0000
0000
0000
,
0000
0000
1000
0000
,
0010
0000
0100
0000
,
0001
0000
1000
0000
,
0010
0000
1000
0000
,
0100
0000
0010
0000
,
0001
0000
0100
0000
,
0010
0000
1000
0000
,
0100
0000
0001
0000
,
0100
0000
0010
0000
,
1000
0000
0010
0000
,
0001
0000
0100
0000
,
0010
0000
1000
0000
,
0100
0000
0010
0000
,
0001
0000
0100
0000
,
0010
0000
1000
0000
,
0001
0000
0100
0000
,
1000
0000
0010
0000
,
0100
0000
0001
0000
,
0010
0000
0100
0000
,
1000
0000
0001
0000
,
1000
0000
0010
0000
,
0100
0000
0001
0000
,
0010
0000
1000
0000
,
0010
0000
0100
0000
,
0001
0000
0010
0000
,
1000
0000
0001
0000
,
0100
0000
1000
0000
,
0010
0000
0100
0000
,
0001
0000
1000
0000
,
0010
0000
1000
0000
,
0100
0000
0010
0000
,
0001
0000
0100
0000
,
0010
0000
1000
0000
,
0100
0000
0001
0000
,
0100
0000
0010
0000
,
1000
0000
0010
0000
,
0001
0000
0100
0000
,
0010
0000
1000
0000
,
0100
0000
0010
0000
,
0001
0000
0100
0000
,
0010
0000
1000
0000
,
0001
0000
0100
0000
,
1000
0000
0010
0000
,
0100
0000
0001
0000
,
0010
0000
0100
0000
,
1000
0000
0001
0000
,
1000
0000
0010
0000
,
0100
0000
0001
0000
,
0010
0000
1000
0000
,
0010
0000
0100
0000
,
0001
0000
0010
0000
,
1000
0000
0001
0000
,
0100
0000
1000
0000
,
0010
0000
0100
0000
,
0001
0000
1000
0000
,
0010
0000
1000
0000
,
0100
0000
0010
0000
,
0001
0000
0100
0000
,
0010
0000
1000
0000
,
0100
0000
0001
0000
,
0100
0000
0010
0000
,
1000
0000
0010
0000
,
0001
0000
0100
0000
,
0010
0000
1000
0000
,
0100
0000
0010
0000
,
0001
0000
0100
0000
,
0010
0000
1000
0000
,
0001
0000
0100
0000
,
1000
0000
0010
0000
,
0100
0000
0001
0000
,
0010
0000
0100
0000
,
1000
0000
0001
0000
,
1000
0000
0010
0000
,
0100
0000
0001
0000
,
0010
0000
1000
0000
,
0010
0000
0100
0000
,
0001
0000
0010
0000
,
1000
0000
0001
0000
,
0100
0000
1000
0000
,
0010
0000
0100
0000
,
0001
0000
1000
0000
,
0010
0000
1000
0000
,
0100
0000
0010
0000
,
0001
0000
0100
0000
,
0010
0000
1000
0000
,
0100
0000
0001
0000
,
0100
0000
0010
0000
,
1000
0000
0010
0000
,
0001
0000
0100
0000
,
0010
0000
1000
0000
,
0100
0000
0010
0000
,
0001
0000
0100
0000
,
0010
0000
1000
0000
,
0001
0000
0100
0000
,
1000
0000
0010
0000
,
0100
0000
0001
0000
,
0010
0000
0100
0000
,
1000
0000
0001
0000
,
1000
0000
0010
0000
,
0100
0000
0001
0000
,
0010
0000
1000
0000
,
0010
0000
0100
0000
,
0001
0000
0010
0000
,
1000
0000
0001
0000
,
0100
0000
1000
0000
,
0010
0000
0100
0000
,
0001
0000
1000
0000
,
0010
0000
1000
0000
,
0100
0000
0010
0000
,
0001
0000
0100
0000
,
0010
0000
1000
0000
,
0100
0000
0001
0000
,
0100
0000
0010
0000
,
1000
0000
0010
0000
,
0001
0000
0100
0000
,
0010
0000
1000
0000
,
0100
0000
0010
0000
,
0001
0000
0100
0000
,
0010
0000
1000
0000
,
0001
0000
0100
0000
,
1000
0000
0010
0000
,
0100
0000
0001
0000
,
0010
0000
0100
0000
,
1000
0000
0001
0000
,
1000
0000
0010
0000
,
0100
0000
0001
0000
,
0010
0000
1000
0000
,
0010
0000
0100
0000
,
0001
0000
0010
0000
,
1000
0000
0001
0000
,
0100
0000
1000
0000
,
0010
0000
0100
0000
,
0001
0000
1000
0000
,
0010
0000
1000
0000
,
0100
0000
0010
0000
,
0001
0000
0100
0000
,
0010
0000
1000
0000
,
0100
0000
0001
0000
,
0100
0000
0010
0000
,
1000
0000
0010
0000
,
0001
0000
0100
0000
,
0010
0000
1000
0000
,
0100
0000
0010
0000
,
0001
0000
0100
0000
,
0010
0000
1000
0000
,
0001
0000
0100
0000
,
1000
0000
0010
0000
,
0100
0000
0001
0000
,
0010
0000
0100
0000
,
1000
0000
0001
0000
,
1000
0000
0010
0000
,
0100
0000
0001
0000
,
0010
0000
1000
0000
,
0010
0000
0100
0000
,
0001
0000
0010
0000
,
1000
0000
0001
0000
,
0100
0000
1000
0000
,
0010
0000
0100
0000
,
0001
0000
1000
0000
,
0010
0000
1000
0000
,
0100
0000
0010
0000
,
0001
0000
0100
0000
,
0010
0000
1000
0000
,
0100
0000
0001
0000
,
0100
0000
0010
0000
,
1000
0000
0010
0000
,
0001
0000
0100
0000
,
0010
0000
1000
0000
,
0100
0000
0010
0000
,
0001
0000
0100
0000
,
0010
0000
1000
0000
,
0001
0000
0100
0000
,
1000
0000
0010
0000
,
0100
0000
0001
0000
,
0010
0000
0100
0000
,
1000
0000
0001
0000
,
1000
0000
0010
0000
,
0100
0000
0001
0000
,
0010
0000
1000
0000
,
0010
0000
0100
0000
,
0001
0000
0010
0000
,
1000
0000
0001
0000
,
0100
0000
1000
0000
,
0010
0000
0100
0000
,
0001
0000
1000
0000
,
0010
0000
1000
0000
,
0100
0000
0010
0000
,
0001
0000
0100
0000
,
0010
0000
1000
0000
,
0100
0000
0001
0000
,
0100
0000
0010
0000
,
1000
0000
0010
0000
,
0001
0000
0100
0000
,
0010
0000
1000
0000
,
0100
0000
0010
0000
,
0001
0000
0100
0000
,
0010
0000
1000
0000
,
0001
0000
0100
0000
,
1000
0000
0010
0000
,
0100
0000
0001
0000
,
0010
0000
0100
0000
,
1000
0000
0001
0000
,
1000
0000
0010
0000
,
0100
0000
0001
0000
,
0010
0000
1000
0000
,
0010
0000
0100
0000
,
0001
0000
0010
0000
,
1000
0000
0001
0000
,
1000
0000
0010
0000
,
0100
0000
0001
0000
,
1000
0000
0010
0000
,
1000
0000
0100
0000
,
0010
0000
0001
0000
,
0100
0000
0010
0000
,
1000
0000
0100
0000
,
0001
0000
0100
0000
,
0010
0000
1000
0000
,
0010
0000
0001
0000
,
0100
0000
0010
0000
,
1000
0000
0100
0000
,
0010
0000
0001
0000
,
0100
0000
0010
0000
,
1000
0000
0001
0000
,
0100
0000
1000
0000
,
0010
0000
0100
0000
,
0001
0000
0010
0000
,
0100
0000
1000
0000
,
0001
0000
1000
0000
,
0010
0000
0100
0000
,
0001
0000
0010
0000
,
1000
0000
0010
0000
,
0100
0000
0001
0000
,
0010
0000
1000
0000
,
0001
0000
0100
0000
,
1000
0000
0010
0000
,
0100
0000
0001
0000
,
1000
0000
0010
0000
,
1000
0000
0100
0000
,
0010
0000
0001
0000
,
0100
0000
0010
0000
,
1000
0000
0100
0000
,
0001
0000
0100
0000
,
0010
0000
1000
0000
,
0010
0000
0001
0000
,
0100
0000
0010
0000
,
1000
0000
0100
0000
,
0010
0000
0001
0000
,
0100
0000
0010
0000
,
1000
0000
0001
0000
,
0100
0000
1000
0000
,
0010
0000
0100
0000
,
0001
0000
0010
0000
,
0100
0000
1000
0000
,
0001
0000
1000
0000
,
0010
0000
0100
0000
,
0001
0000
0010
0000
,
1000
0000
0010
0000
,
0100
0000
0001
0000
,
0010
0000
1000
0000
,
0001
0000
0100
0000
,
1000
0000
0010
0000
,
0100
0000
0001
0000
,
1000
0000
0010
0000
,
1000
0000
0100
0000
,
0010
0000
0001
0000
,
0100
0000
0010
0000
,
1000
0000
0100
0000
,
0001
0000
0100
0000
,
0010
0000
1000
0000
,
0010
0000
0001
0000
,
0100
0000
0010
0000
,
1000
0000
0100
0000
,
0010
0000
0001
0000
,
0100
0000
0010
0000
,
1000
0000
0001
0000
,
0100
0000
1000
0000
,
0010
0000
0100
0000
,
0001
0000
0010
0000
,
1000
0000
0010
0000
,
0100
0000
0001
0000
,
0010
0000
1000
0000
,
0001
0000
0100
0000
,
1000
0000
0010
0000
,
0100
0000
0001
0000
,
1000
0000
0010
0000
,
1000
0000
0100
0000
,
0010
0000
0001
0000
,
0100
0000
0010
0000
,
1000
0000
0100
0000
,
0001
0000
0100
0000
,
0010
0000
1000
0000
,
0010
0000
0001
0000
,
0100
0000
0010
0000
,
1000
0000
0100
0000
,
0010
0000
0001
0000
,
0100
0000
0010
0000
,
1000
0000
0001
0000
,
0100
0000
1000
0000
,
0001
0000
1000
0000
,
0010
0000
0100
0000
,
0010
0000
1000
0000
,
0001
0000
0100
0000
,
0010
0000
0100
0000
,
0001
0000
0010
0000
,
0100
0000
1000
0000
,
0010
0000
0100
0000
,
0001
0000
1000
0000
,
0010
0000
0001
0000
,
1000
0000
0010
0000
,
0100
0000
0001
0000
,
0010
0000
1000
0000
,
0010
0000
0100
0000
,
0001
0000
0010
0000
,
1000
0000
0001
0000
,
0100
0000
1000
0000
,
0010
0000
0100
0000
,
0001
0000
1000
0000
,
0010
0000
1000
0000
,
0100
0000
0010
0000
,
0001
0000
0100
0000
,
0010
0000
1000
0000
,
0100
0000
0001
0000
,
0100
0000
0010
0000
,
1000
0000
0010
0000
,
0001
0000
0100
0000
,
0010
0000
1000
0000
,
0100
0000
0010
0000
,
0001
0000
0100
0000
,
0010
0000
1000
0000
,
0001
0000
0100
0000
,
1000
0000
0010
0000
,
0100
0000
0001
0000
,
0010
0000
1000
0000
,
0010
0000
0100
0000
,
0001
0000
0010
0000
,
1000
0000
0001
0000
,
0100
0000
1000
0000
,
0010
0000
0100
0000
,
0001
0000
1000
0000
,
0010
0000
1000
0000
,
0100
0000
0010
0000
,
0001
0000
0100
0000
,
0010
0000
1000
0000
,
0100
0000
0001
0000
,
0100
0000
0010
0000
,
1000
0000
0010
0000
,
0001
0000
0100
0000
,
0010
0000
1000
0000
,
0100
0000
0010
0000
,
0001
0000
0100
0000
,
0010
0000
1000
0000
,
0001
0000
0100
0000
,
1000
0000
0001
0000
,
1000
0000
0010
0000
,
0100
0000
0010
0000
,
1000
0000
0001
0000
,
0100
0000
0010
0000
,
0100
0000
0001
0000
,
0010
0000
0100
0000
,
1000
0000
0010
0000
,
0100
0000
1000
0000
,
0001
0000
0100
0000
,
1000
0000
0010
0000
,
0100
0000
0001
0000
,
0100
0000
0001
0000
,
1000
0000
0100
0000
,
1000
0000
0010
0000
,
0100
0000
0001
0000
,
0010
0000
0100
0000
,
1000
0000
0010
0000
,
0100
0000
0001
0000
,
1000
0000
0100
0000
,
0010
0000
0001
0000
,
0100
0000
0010
0000
,
1000
0000
0001
0000
,
0100
0000
2002
0000
,
3003
0000
0000
0000
;

//---------------dance-single - ----------------
#NOTES:
     dance-single:
     :
     Beginner:
     1:
     0.083,0.148,0.002,0.001,0.000,1264.000,4.000,2.000,0.000,0.000:
0000
0000
0000
0000
,
0000
0000
0000
0000
,
0000
0000
0000
0000
,
0000
0000
0000
0000
,
1000
0000
0000
0000
,
0001
0000
0000
0000
,
0100
0000
0000
0000
,
0010
0000
0000
0000
,
1000
0000
0000
0000
,
0100
0000
0000
0000
,
0010
0000
0000
0000
,
0001
0000
0000
0000
,
0100
0000
0000
0000
,
0010
0000
0000
0000
,
1000
0000
0000
0000
,
0100
0000
0000
0000
,
0010
0000
0000
0000
,
0001
0000
0000
0000
,
0100
0000
0000
0000
,
0010
0000
0000
0000
,
1000
0000
0000
0000
,
0100
0000
0000
0000
,
0010
0000
0000
0000
,
0001
0000
0000
0000
,
0100
0000
0000
0000
,
0010
0000
0000
0000
,
1000
0000
0000
0000
,
0010
0000
0000
0000
,
0001
0000
0000
0000
,
0100
0000
0000
0000
,
1000
0000
0000
0000
,
0001
0000
0000
0000
,
0100
0000
0000
0000
,
0010
0000
0000
0000
,
1000
0000
0000
0000
,
0100
0000
0000
0000
,
0010
0000
0000
0000
,
0001
0000
0000
0000
,
0100
0000
0000
0000
,
0010
0000
0000
0000
,
1000
0000
0000
0000
,
0100
0000
0000
0000
,
0010
0000
0000
0000
,
0001
0000
0000
0000
,
0100
0000
0000
0000
,
0010
0000
0000
0000
,
1000
0000
0000
0000
,
0100
0000
0000
0000
,
0010
0000
0000
0000
,
0001
0000
0000
0000
,
0100
0000
0000
0000
,
0010
0000
0000
0000
,
1000
0000
0000
0000
,
0010
0000
0000
0000
,
0001
0000
0000
0000
,
0100
0000
0000
0000
,
1000
0000
0000
0000
,
0001
0000
0000
0000
,
0100
0000
0000
0000
,
0010
0000
0000
0000
,
1000
0000
0000
0000
,
0100
0000
0000
0000
,
0010
0000
0000
0000
,
0001
0000
0000
0000
,
0100
0000
0000
0000
,
0010
0000
0000
0000
,
1000
0000
0000
0000
,
0100
0000
0000
0000
,
0010
0000
0000
0000
,
0001
0000
0000
0000
,
0100
0000
0000
0000
,
0010
0000
0000
0000
,
1000
0000
0000
0000
,
0100
0000
0000
0000
,
0010
0000
0000
0000
,
0001
0000
0000
0000
,
0100
0000
0000
0000
,
0010
0000
0000
0000
,
1000
0000
0000
0000
,
0010
0000
0000
0000
,
0001
0000
0000
0000
,
0100
0000
0000
0000
,
1000
0000
0000
0000
,
0001
0000
0000
0000
,
0100
0000
0000
0000
,
0010
0000
0000
0000
,
1000
0000
0000
0000
,
0100
0000
0000
0000
,
0010
0000
0000
0000
,
0001
0000
0000
0000
,
0100
0000
0000
0000
,
0010
0000
0000
0000
,
1000
0000
0000
0000
,
0100
0000
0000
0000
,
0010
0000
0000
0000
,
0001
0000
0000
0000
,
0100
0000
0000
0000
,
0010
0000
0000
0000
,
1000
0000
0000
0000
,
0100
0000
0000
0000
,
0010
0000
0000
0000
,
0001
0000
0000
0000
,
0100
0000
0000
0000
,
0010
0000
0000
0000
,
1000
0000
0000
0000
,
0010
0000
0000
0000
,
0001
0000
0000
0000
,
0100
0000
0000
0000
,
1000
0000
0000
0000
,
0001
0000
0000
0000
,
0100
0000
0000
0000
,
0010
0000
0000
0000
,
1000
0000
0000
0000
,
0100
0000
0000
0000
,
0010
0000
0000
0000
,
0001
0000
0000
0000
,
0100
0000
0000
0000
,
0010
0000
0000
0000
,
1000
0000
0000
0000
,
0100
0000
0000
0000
,
0010
0000
0000
0000
,
0001
0000
0000
0000
,
0100
0000
0000
0000
,
0010
0000
0000
0000
,
1000
0000
0000
0000
,
0100
0000
0000
0000
,
0010
0000
0000
0000
,
0001
0000
0000
0000
,
0100
0000
0000
0000
,
0010
0000
0000
0000
,
1000
0000
0000
0000
,
0010
0000
0000
0000
,
0001
0000
0000
0000
,
0100
0000
0000
0000
,
1000
0000
0000
0000
,
0001
0000
0000
0000
,
0100
0000
0000
0000
,
0010
0000
0000
0000
,
1000
0000
0000
0000
,
0100
0000
0000
0000
,
0010
0000
0000
0000
,
0001
0000
0000
0000
,
0100
0000
0000
0000
,
0010
0000
0000
0000
,
1000
0000
0000
0000
,
0100
0000
0000
0000
,
0010
0000
0000
0000
,
0001
0000
0000
0000
,
0100
0000
0000
0000
,
0010
0000
0000
0000
,
1000
0000
0000
0000
,
0100
0000
0000
0000
,
0010
0000
0000
0000
,
0001
0000
0000
0000
,
0100
0000
0000
0000
,
0010
0000
0000
0000
,
1000
0000
0000
0000
,
0010
0000
0000
0000
,
0001
0000
0000
0000
,
0100
0000
0000
0000
,
1000
0000
0000
0000
,
0001
0000
0000
0000
,
0100
0000
0000
0000
,
0010
0000
0000
0000
,
1000
0000
0000
0000
,
0100
0000
0000
0000
,
0010
0000
0000
0000
,
0001
0000
0000
0000
,
0100
0000
0000
0000
,
0010
0000
0000
0000
,
1000
0000
0000
0000
,
0100
0000
0000
0000
,
0010
0000
0000
0000
,
0001
0000
0000
0000
,
0100
0000
0000
0000
,
0010
0000
0000
0000
,
1000
0000
0000
0000
,
0100
0000
0000
0000
,
0010
0000
0000
0000
,
0001
0000
0000
0000
,
0100
0000
0000
0000
,
0010
0000
0000
0000
,
1000
0000
0000
0000
,
0010
0000
0000
0000
,
0001
0000
0000
0000
,
0100
0000
0000
0000
,
1000
0000
0000
0000
,
0001
0000
0000
0000
,
0100
0000
0000
0000
,
0010
0000
0000
0000
,
1000
0000
0000
0000
,
0100
0000
0000
0000
,
0010
0000
0000
0000
,
0001
0000
0000
0000
,
0100
0000
0000
0000
,
0010
0000
0000
0000
,
1000
0000
0000
0000
,
0100
0000
0000
0000
,
0010
0000
0000
0000
,
0001
0000
0000
0000
,
0100
0000
0000
0000
,
0010
0000
0000
0000
,
1000
0000
0000
0000
,
0100
0000
0000
0000
,
0010
0000
0000
0000
,
0001
0000
0000
0000
,
0100
0000
0000
0000
,
0010
0000
0000
0000
,
1000
0000
0000
0000
,
0010
0000
0000
0000
,
0001
0000
0000
0000
,
1000
0000
0000
0000
,
0001
0000
0000
0000
,
0100
0000
0000
0000
,
0010
0000
0000
0000
,
1000
0000
0000
0000
,
0100
0000
0000
0000
,
0010
0000
0000
0000
,
0001
0000
0000
0000
,
0100
0000
0000
0000
,
0010
0000
0000
0000
,
1000
0000
0000
0000
,
0100
0000
0000
0000
,
0010
0000
0000
0000
,
0001
0000
0000
0000
,
0100
0000
0000
0000
,
0010
0000
0000
0000
,
1000
0000
0000
0000
,
0100
0000
0000
0000
,
0010
0000
0000
0000
,
0001
0000
0000
0000
,
0100
0000
0000
0000
,
0010
0000
0000
0000
,
1000
0000
0000
0000
,
0010
0000
0000
0000
,
0001
0000
0000
0000
,
0100
0000
0000
0000
,
1000
0000
0000
0000
,
0001
0000
0000
0000
,
0100
0000
0000
0000
,
0010
0000
0000
0000
,
1000
0000
0000
0000
,
0100
0000
0000
0000
,
0010
0000
0000
0000
,
0001
0000
0000
0000
,
0100
0000
0000
0000
,
0010
0000
0000
0000
,
1000
0000
0000
0000
,
0100
0000
0000
0000
,
0010
0000
0000
0000
,
0001
0000
0000
0000
,
0100
0000
0000
0000
,
0010
0000
0000
0000
,
1000
0000
0000
0000
,
0100
0000
0000
0000
,
0010
0000
0000
0000
,
0001
0000
0000
0000
,
0100
0000
0000
0000
,
0010
0000
0000
0000
,
1000
0000
0000
0000
,
0010
0000
0000
0000
,
0001
0000
0000
0000
,
0100
0000
0000
0000
,
1000
0000
0000
0000
,
0001
0000
0000
0000
,
0100
0000
0000
0000
,
0010
0000
0000
0000
,
1000
0000
0000
0000
,
0100
0000
0000
0000
,
0010
0000
0000
0000
,
0001
0000
0000
0000
,
0100
0000
0000
0000
,
0010
0000
0000
0000
,
1000
0000
0000
0000
,
0100
0000
0000
0000
,
0010
0000
0000
0000
,
0001
0000
0000
0000
,
0100
0000
0000
0000
,
0010
0000
0000
0000
,
1000
0000
0000
0000
,
1001
0000
0000
0000
,
0000
0000
0000
0000
,
0000
0000
0000
0000
,
0000
0000
0000
0000
,
0000
0000
0000
0000
,
1000
0000
0000
0000
,
0001
0000
0000
0000
,
0100
0000
0000
0000
,
0010
0000
0000
0000
,
1000
0000
0000
0000
,
0100
0000
0000
0000
,
0010
0000
0000
0000
,
0001
0000
0000
0000
,
0100
0000
0000
0000
,
0010
0000
0000
0000
,
1000
0000
0000
0000
,
0100
0000
0000
0000
,
0010
0000
0000
0000
,
0001
0000
0000
0000
,
0100
0000
0000
0000
,
0010
0000
0000
0000
,
1000
0000
0000
0000
,
0100
0000
0000
0000
,
0010
0000
0000
0000
,
0001
0000
0000
0000
,
0100
0000
0000
0000
,
0010
0000
0000
0000
,
1000
0000
0000
0000
,
0010
0000
0000
0000
,
0001
0000
0000
0000
,
0100
0000
0000
0000
,
1000
0000
0000
0000
,
0001
0000
0000
0000
,
0100
0000
0000
0000
,
0010
0000
0000
0000
,
1000
0000
0000
0000
,
0100
0000
0000
0000
,
0010
0000
0000
0000
,
0001
0000
0000
0000
,
0100
0000
0000
0000
,
0010
0000
0000
0000
,
1000
0000
0000
0000
,
0100
0000
0000
0000
,
0010
0000
0000
0000
,
0001
0000
0000
0000
,
0100
0000
0000
0000
,
0010
0000
0000
0000
,
1000
0000
0000
0000
,
0100
0000
0000
0000
,
0010
0000
0000
0000
,
0001
0000
0000
0000
,
0100
0000
0000
0000
,
0010
0000
0000
0000
,
1000
0000
0000
0000
,
0010
0000
0000
0000
,
0001
0000
0000
0000
,
0100
0000
0000
0000
,
1000
0000
0000
0000
,
0001
0000
0000
0000
,
0100
0000
0000
0000
,
0010
0000
0000
0000
,
1000
0000
0000
0000
,
0100
0000
0000
0000
,
0010
0000
0000
0000
,
0001
0000
0000
0000
,
0100
0000
0000
0000
,
0010
0000
0000
0000
,
1000
0000
0000
0000
,
0100
0000
0000
0000
,
0010
0000
0000
0000
,
0001
0000
0000
0000
,
0100
0000
0000
0000
,
0010
0000
0000
0000
,
1000
0000
0000
0000
,
0100
0000
0000
0000
,
0010
0000
0000
0000
,
0001
0000
0000
0000
,
0100
0000
0000
0000
,
0010
0000
0000
0000
,
1000
0000
0000
0000
,
0010
0000
0000
0000
,
0001
0000
0000
0000
,
0100
0000
0000
0000
,
1000
0000
0000
0000
,
0001
0000
0000
0000
,
0100
0000
0000
0000
,
0010
0000
0000
0000
,
1000
0000
0000
0000
,
0100
0000
0000
0000
,
0010
0000
0000
0000
,
0001
0000
0000
0000
,
0100
0000
0000
0000
,
0010
0000
0000
0000
,
1000
0000
0000
0000
,
0100
0000
0000
0000
,
0010
0000
0000
0000
,
0001
0000
0000
0000
,
0100
0000
0000
0000
,
0010
0000
0000
0000
,
1000
0000
0000
0000
,
0100
0000
0000
0000
,
0010
0000
0000
0000
,
0001
0000
0000
0000
,
0100
0000
0000
0000
,
0010
0000
0000
0000
,
1000
0000
0000
0000
,
0010
0000
0000
0000
,
0001
0000
0000
0000
,
0100
0000
0000
0000
,
1000
0000
0000
0000
,
0001
0000
0000
0000
,
0100
0000
0000
0000
,
0010
0000
0000
0000
,
1000
0000
0000
0000
,
0100
0000
0000
0000
,
0010
0000
0000
0000
,
0001
0000
0000
0000
,
0100
0000
0000
0000
,
0010
0000
0000
0000
,
1000
0000
0000
0000
,
0100
0000
0000
0000
,
0010
0000
0000
0000
,
0001
0000
0000
0000
,
0100
0000
0000
0000
,
0010
0000
0000
0000
,
1000
0000
0000
0000
,
0100
0000
0000
0000
,
0010
0000
0000
0000
,
0001
0000
0000
0000
,
0100
0000
0000
0000
,
0010
0000
0000
0000
,
1000
0000
0000
0000
,
0010
0000
0000
0000
,
0001
0000
0000
0000
,
0100
0000
0000
0000
,
1000
0000
0000
0000
,
0001
0000
0000
0000
,
0100
0000
0000
0000
,
0010
0000
0000
0000
,
1000
0000
0000
0000
,
0100
0000
0000
0000
,
0010
0000
0000
0000
,
0001
0000
0000
0000
,
0100
0000
0000
0000
,
0010
0000
0000
0000
,
1000
0000
0000
0000
,
0100
0000
0000
0000
,
0010
0000
0000
0000
,
0001
0000
0000
0000
,
0100
0000
0000
0000
,
0010
0000
0000
0000
,
1000
0000
0000
0000
,
0100
0000
0000
0000
,
0010
0000
0000
0000
,
0001
0000
0000
0000
,
0100
0000
0000
0000
,
0010
0000
0000
0000
,
1000
0000
0000
0000
,
0010
0000
0000
0000
,
0001
0000
0000
0000
,
0100
0000
0000
0000
,
1000
0000
0000
0000
,
0001
0000
0000
0000
,
0100
0000
0000
0000
,
0010
0000
0000
0000
,
1000
0000
0000
0000
,
0100
0000
0000
0000
,
0010
0000
0000
0000
,
0001
0000
0000
0000
,
0100
0000
0000
0000
,
0010
0000
0000
0000
,
1000
0000
0000
0000
,
0100
0000
0000
0000
,
0010
0000
0000
0000
,
0001
0000
0000
0000
,
0100
0000
0000
0000
,
0010
0000
0000
0000
,
1000
0000
0000
0000
,
0100
0000
0000
0000
,
0010
0000
0000
0000
,
0001
0000
0000
0000
,
0100
0000
0000
0000
,
0010
0000
0000
0000
,
1000
0000
0000
0000
,
0010
0000
0000
0000
,
0001
0000
0000
0000
,
0100
0000
0000
0000
,
1000
0000
0000
0000
,
0001
0000
0000
0000
,
0100
0000
0000
0000
,
0010
0000
0000
0000
,
1000
0000
0000
0000
,
0100
0000
0000
0000
,
0010
0000
0000
0000
,
0001
0000
0000
0000
,
0100
0000
0000
0000
,
0010
0000
0000
0000
,
1000
0000
0000
0000
,
0100
0000
0000
0000
,
0010
0000
0000
0000
,
0001
0000
0000
0000
,
0100
0000
0000
0000
,
0010
0000
0000
0000
,
1000
0000
0000
0000
,
0100
0000
0000
0000
,
0010
0000
0000
0000
,
0001
0000
0000
0000
,
0100
0000
0000
0000
,
0010
0000
0000
0000
,
1000
0000
0000
0000
,
0010
0000
0000
0000
,
0001
0000
0000
0000
,
1000
0000
0000
0000
,
0001
0000
0000
0000
,
0100
0000
0000
0000
,
0010
0000
0000
0000
,
1000
0000
0000
0000
,
0100
0000
0000
0000
,
0010
0000
0000
0000
,
0001
0000
0000
0000
,
0100
0000
0000
0000
,
0010
0000
0000
0000
,
1000
0000
0000
0000
,
0100
0000
0000
0000
,
0010
0000
0000
0000
,
0001
0000
0000
0000
,
0100
0000
0000
0000
,
0010
0000
0000
0000
,
1000
0000
0000
0000
,
0100
0000
0000
0000
,
0010
0000
0000
0000
,
0001
0000
0000
0000
,
0100
0000
0000
0000
,
0010
0000
0000
0000
,
1000
0000
0000
0000
,
0010
0000
0000
0000
,
0001
0000
0000
0000
,
0100
0000
0000
0000
,
1000
0000
0000
0000
,
0001
0000
0000
0000
,
0100
0000
0000
0000
,
0010
0000
0000
0000
,
1000
0000
0000
0000
,
0100
0000
0000
0000
,
0010
0000
0000
0000
,
0001
0000
0000
0000
,
0100
0000
0000
0000
,
0010
0000
0000
0000
,
1000
0000
0000
0000
,
0100
0000
0000
0000
,
0010
0000
0000
0000
,
0001
0000
0000
0000
,
0100
0000
0000
0000
,
0010
0000
0000
0000
,
1000
0000
0000
0000
,
0100
0000
0000
0000
,
0010
0000
0000
0000
,
0001
0000
0000
0000
,
0100
0000
0000
0000
,
0010
0000
0000
0000
,
1000
0000
0000
0000
,
0010
0000
0000
0000
,
0001
0000
0000
0000
,
0100
0000
0000
0000
,
1000
0000
0000
0000
,
0001
0000
0000
0000
,
0100
0000
0000
0000
,
0010
0000
0000
0000
,
1000
0000
0000
0000
,
0100
0000
0000
0000
,
0010
0000
0000
0000
,
0001
0000
0000
0000
,
0100
0000
0000
0000
,
0010
0000
0000
0000
,
1000
0000
0000
0000
,
0100
0000
0000
0000
,
0010
0000
0000
0000
,
0001
0000
0000
0000
,
0100
0000
0000
0000
,
0010
0000
0000
0000
,
1000
0000
0000
0000
,
0100
0000
0000
0000
,
0010
0000
0000
0000
,
1000
0000
0000
0000
,
0100
0000
0000
0000
,
0010
0000
0000
0000
,
0001
0000
0000
0000
,
0100
0000
0000
0000
,
0010
0000
0000
0000
,
1000
0000
0000
0000
,
0100
0000
0000
0000
,
0010
0000
0000
0000
,
0001
0000
0000
0000
,
0100
0000
0000
0000
,
0010
0000
0000
0000
,
1000
0000
0000
0000
,
0010
0000
0000
0000
,
0001
0000
0000
0000
,
0100
0000
0000
0000
,
1000
0000
0000
0000
,
0001
0000
0000
0000
,
0100
0000
0000
0000
,
0010
0000
0000
0000
,
1000
0000
0000
0000
,
0100
0000
0000
0000
,
0010
0000
0000
0000
,
0001
0000
0000
0000
,
0100
0000
0000
0000
,
0010
0000
0000
0000
,
0001
0000
0000
0000
,
1000
0000
0000
0000
,
0010
0000
0000
0000
,
1001
0000
0000
0000
,
0000
0000
0000
0000
,
0000
0000
0000
0000
,
0000
0000
0000
0000
,
0000
0000
0000
0000
,
0000
0000
0000
0000
,
0000
0000
0000
0000
,
0000
0000
0000
0000
,
0000
0000
0000
0000
,
1000
0000
0000
0000
,
0001
0000
0000
0000
,
0100
0000
0000
0000
,
0010
0000
0000
0000
,
1000
0000
0000
0000
,
0100
0000
0000
0000
,
0010
0000
0000
0000
,
0001
0000
0000
0000
,
0100
0000
0000
0000
,
0010
0000
0000
0000
,
1000
0000
0000
0000
,
0100
0000
0000
0000
,
0010
0000
0000
0000
,
0001
0000
0000
0000
,
0100
0000
0000
0000
,
0010
0000
0000
0000
,
1000
0000
0000
0000
,
0100
0000
0000
0000
,
0010
0000
0000
0000
,
0001
0000
0000
0000
,
0100
0000
0000
0000
,
0010
0000
0000
0000
,
1000
0000
0000
0000
,
0010
0000
0000
0000
,
0001
0000
0000
0000
,
0100
0000
0000
0000
,
1000
0000
0000
0000
,
0001
0000
0000
0000
,
0100
0000
0000
0000
,
0010
0000
0000
0000
,
1000
0000
0000
0000
,
0100
0000
0000
0000
,
0010
0000
0000
0000
,
0001
0000
0000
0000
,
0100
0000
0000
0000
,
0010
0000
0000
0000
,
1000
0000
0000
0000
,
0100
0000
0000
0000
,
0010
0000
0000
0000
,
0001
0000
0000
0000
,
0100
0000
0000
0000
,
0010
0000
0000
0000
,
1000
0000
0000
0000
,
0100
0000
0000
0000
,
0010
0000
0000
0000
,
0001
0000
0000
0000
,
0100
0000
0000
0000
,
0010
0000
0000
0000
,
1000
0000
0000
0000
,
0010
0000
0000
0000
,
0001
0000
0000
0000
,
0100
0000
0000
0000
,
1000
0000
0000
0000
,
0001
0000
0000
0000
,
0100
0000
0000
0000
,
0010
0000
0000
0000
,
1000
0000
0000
0000
,
0100
0000
0000
0000
,
0010
0000
0000
0000
,
0001
0000
0000
0000
,
0100
0000
0000
0000
,
0010
0000
0000
0000
,
1000
0000
0000
0000
,
0100
0000
0000
0000
,
0010
0000
0000
0000
,
0001
0000
0000
0000
,
0100
0000
0000
0000
,
0010
0000
0000
0000
,
1000
0000
0000
0000
,
0100
0000
0000
0000
,
0010
0000
0000
0000
,
0001
0000
0000
0000
,
0100
0000
0000
0000
,
0010
0000
0000
0000
,
1000
0000
0000
0000
,
0010
0000
0000
0000
,
0001
0000
0000
0000
,
0100
0000
0000
0000
,
1000
0000
0000
0000
,
0001
0000
0000
0000
,
0100
0000
0000
0000
,
0010
0000
0000
0000
,
1000
0000
0000
0000
,
0100
0000
0000
0000
,
0010
0000
0000
0000
,
0001
0000
0000
0000
,
0100
0000
0000
0000
,
0010
0000
0000
0000
,
1000
0000
0000
0000
,
0100
0000
0000
0000
,
0010
0000
0000
0000
,
0001
0000
0000
0000
,
0100
0000
0000
0000
,
0010
0000
0000
0000
,
1000
0000
0000
0000
,
0100
0000
0000
0000
,
0010
0000
0000
0000
,
0001
0000
0000
0000
,
0100
0000
0000
0000
,
0010
0000
0000
0000
,
1000
0000
0000
0000
,
0010
0000
0000
0000
,
0001
0000
0000
0000
,
0100
0000
0000
0000
,
1000
0000
0000
0000
,
0001
0000
0000
0000
,
0100
0000
0000
0000
,
0010
0000
0000
0000
,
1000
0000
0000
0000
,
0100
0000
0000
0000
,
0010
0000
0000
0000
,
0001
0000
0000
0000
,
0100
0000
0000
0000
,
0010
0000
0000
0000
,
1000
0000
0000
0000
,
0100
0000
0000
0000
,
0010
0000
0000
0000
,
0001
0000
0000
0000
,
0100
0000
0000
0000
,
0010
0000
0000
0000
,
1000
0000
0000
0000
,
0100
0000
0000
0000
,
0010
0000
0000
0000
,
0001
0000
0000
0000
,
0100
0000
0000
0000
,
0010
0000
0000
0000
,
1000
0000
0000
0000
,
0010
0000
0000
0000
,
0001
0000
0000
0000
,
0100
0000
0000
0000
,
1000
0000
0000
0000
,
0001
0000
0000
0000
,
0100
0000
0000
0000
,
0010
0000
0000
0000
,
1000
0000
0000
0000
,
0100
0000
0000
0000
,
0010
0000
0000
0000
,
0001
0000
0000
0000
,
0100
0000
0000
0000
,
0010
0000
0000
0000
,
1000
0000
0000
0000
,
0100
0000
0000
0000
,
0010
0000
0000
0000
,
0001
0000
0000
0000
,
0100
0000
0000
0000
,
0010
0000
0000
0000
,
1000
0000
0000
0000
,
0100
0000
0000
0000
,
0010
0000
0000
0000
,
0001
0000
0000
0000
,
0100
0000
0000
0000
,
0010
0000
0000
0000
,
1000
0000
0000
0000
,
0010
0000
0000
0000
,
0001
0000
0000
0000
,
0100
0000
0000
0000
,
1000
0000
0000
0000
,
0001
0000
0000
0000
,
0100
0000
0000
0000
,
0010
0000
0000
0000
,
1000
0000
0000
0000
,
0100
0000
0000
0000
,
0010
0000
0000
0000
,
0001
0000
0000
0000
,
0100
0000
0000
0000
,
0010
0000
0000
0000
,
1000
0000
0000
0000
,
0100
0000
0000
0000
,
0010
0000
0000
0000
,
0001
0000
0000
0000
,
0100
0000
0000
0000
,
0010
0000
0000
0000
,
1000
0000
0000
0000
,
0100
0000
0000
0000
,
0010
0000
0000
0000
,
0001
0000
0000
0000
,
0100
0000
0000
0000
,
0010
0000
0000
0000
,
1000
0000
0000
0000
,
0010
0000
0000
0000
,
0001
0000
0000
0000
,
0100
0000
0000
0000
,
1000
0000
0000
0000
,
0001
0000
0000
0000
,
0100
0000
0000
0000
,
0010
0000
0000
0000
,
1000
0000
0000
0000
,
0100
0000
0000
0000
,
0010
0000
0000
0000
,
0001
0000
0000
0000
,
0100
0000
0000
0000
,
0010
0000
0000
0000
,
1000
0000
0000
0000
,
0100
0000
0000
0000
,
0010
0000
0000
0000
,
0001
0000
0000
0000
,
0100
0000
0000
0000
,
0010
0000
0000
0000
,
1000
0000
0000
0000
,
0100
0000
0000
0000
,
0010
0000
0000
0000
,
0001
0000
0000
0000
,
0100
0000
0000
0000
,
0010
0000
0000
0000
,
1000
0000
0000
0000
,
0010
0000
0000
0000
,
0001
0000
0000
0000
,
1000
0000
0000
0000
,
0001
0000
0000
0000
,
0100
0000
0000
0000
,
0010
0000
0000
0000
,
1000
0000
0000
0000
,
0100
0000
0000
0000
,
0010
0000
0000
0000
,
0001
0000
0000
0000
,
0100
0000
0000
0000
,
0010
0000
0000
0000
,
1000
0000
0000
0000
,
0100
0000
0000
0000
,
0010
0000
0000
0000
,
0001
0000
0000
0000
,
0100
0000
0000
0000
,
0010
0000
0000
0000
,
1000
0000
0000
0000
,
0100
0000
0000
0000
,
0010
0000
0000
0000
,
0001
0000
0000
0000
,
0100
0000
0000
0000
,
0010
0000
0000
0000
,
1000
0000
0000
0000
,
0010
0000
0000
0000
,
0001
0000
0000
0000
,
0100
0000
0000
0000
,
1000
0000
0000
0000
,
0001
0000
0000
0000
,
0100
0000
0000
0000
,
0010
0000
0000
0000
,
1000
0000
0000
0000
,
0100
0000
0000
0000
,
0010
0000
0000
0000
,
0001
0000
0000
0000
,
0100
0000
0000
0000
,
0010
0000
0000
0000
,
1000
0000
0000
0000
,
0100
0000
0000
0000
,
0010
0000
0000
0000
,
0001
0000
0000
0000
,
0100
0000
0000
0000
,
0010
0000
0000
0000
,
1000
0000
0000
0000
,
0100
0000
0000
0000
,
0010
0000
0000
0000
,
0001
0000
0000
0000
,
0100
0000
0000
0000
,
0010
0000
0000
0000
,
1000
0000
0000
0000
,
0010
0000
0000
0000
,
0001
0000
0000
0000
,
0100
0000
0000
0000
,
1000
0000
0000
0000
,
0001
0000
0000
0000
,
0100
0000
0000
0000
,
0010
0000
0000
0000
,
1000
0000
0000
0000
,
0100
0000
0000
0000
,
0010
0000
0000
0000
,
0001
0000
0000
0000
,
0100
0000
0000
0000
,
0010
0000
0000
0000
,
1000
0000
0000
0000
,
0100
0000
0000
0000
,
0010
0000
0000
0000
,
0001
0000
0000
0000
,
0100
0000
0000
0000
,
0010
0000
0000
0000
,
1000
0000
0000
0000
,
0100
0000
0000
0000
,
0010
0000
0000
0000
,
1000
0000
0000
0000
,
0100
0000
0000
0000
,
0010
0000
0000
0000
,
0001
0000
0000
0000
,
0100
0000
0000
0000
,
0010
0000
0000
0000
,
1000
0000
0000
0000
,
0100
0000
0000
0000
,
0010
0000
0000
0000
,
0001
0000
0000
0000
,
0100
0000
0000
0000
,
0010
0000
0000
0000
,
1000
0000
0000
0000
,
0010
0000
0000
0000
,
0001
0000
0000
0000
,
0100
0000
0000
0000
,
1000
0000
0000
0000
,
0001
0000
0000
0000
,
0100
0000
0000
0000
,
0010
0000
0000
0000
,
1000
0000
0000
0000
,
0100
0000
0000
0000
,
0010
0000
0000
0000
,
0100
0000
0000
0000
,
2002
0000
0000
0000
,
3003
0000
0000
0000
,
0000
0000
0000
0000
,
0000
0000
0000
0000
,
0000
0000
0000
0000
,
0000
0000
0000
0000
,
0000
0000
0000
0000
,
0000
0000
0000
0000
,
0000
0000
0000
0000
,
0000
0000
0000
0000
,
0000
0000
0000
0000
,
0000
0000
0000
0000
,
0000
0000
0000
0000
,
0000
0000
1000
0000
,
0000
0000
0001
0000
,
0000
0000
0100
0000
,
0000
0000
0010
0000
,
0000
0000
1000
0000
,
0000
0000
0100
0000
,
0000
0000
0010
0000
,
0000
0000
0001
0000
,
0000
0000
0100
0000
,
0000
0000
0010
0000
,
0000
0000
1000
0000
,
0000
0000
0100
0000
,
0000
0000
0010
0000
,
0000
0000
0001
0000
,
0000
0000
0100
0000
,
0000
0000
0010
0000
,
0000
0000
1000
0000
,
0000
0000
0100
0000
,
0000
0000
0010
0000
,
0000
0000
0001
0000
,
0000
0000
0100
0000
,
0000
0000
0010
0000
,
0000
0000
1000
0000
,
0000
0000
0010
0000
,
0000
0000
0001
0000
,
0000
0000
0100
0000
,
0000
0000
1000
0000
,
0000
0000
0001
0000
,
0000
0000
0100
0000
,
0000
0000
0010
0000
,
0000
0000
1000
0000
,
0000
0000
0100
0000
,
0000
0000
0010
0000
,
0000
0000
0001
0000
,
0000
0000
0100
0000
,
0000
0000
0010
0000
,
0000
0000
1000
0000
,
0000
0000
0100
0000
,
0000
0000
0010
0000
,
0000
0000
0001
0000
,
0000
0000
0100
0000
,
0000
0000
0010
0000
,
0000
0000
1000
0000
,
0000
0000
0100
0000
,
0000
0000
0010
0000
,
0000
0000
0001
0000
,
0000
0000
0100
0000
,
0000
0000
0010
0000
,
0000
0000
1000
0000
,
0000
0000
0010
0000
,
0000
0000
0001
0000
,
0000
0000
0100
0000
,
0000
0000
1000
0000
,
0000
0000
0001
0000
,
0000
0000
0100
0000
,
0000
0000
0010
0000
,
0000
0000
1000
0000
,
0000
0000
0100
0000
,
0000
0000
0010
0000
,
0000
0000
0001
0000
,
0000
0000
0100
0000
,
0000
0000
0010
0000
,
0000
0000
1000
0000
,
0000
0000
0100
0000
,
0000
0000
0010
0000
,
0000
0000
0001
0000
,
0000
0000
0100
0000
,
0000
0000
0010
0000
,
0000
0000
1000
0000
,
0000
0000
0100
0000
,
0000
0000
0010
0000
,
0000
0000
0001
0000
,
0000
0000
0100
0000
,
0000
0000
0010
0000
,
0000
0000
1000
0000
,
0000
0000
0010
0000
,
0000
0000
0001
0000
,
0000
0000
0100
0000
,
0000
0000
1000
0000
,
0000
0000
0001
0000
,
0000
0000
0100
0000
,
0000
0000
0010
0000
,
0000
0000
1000
0000
,
0000
0000
0100
0000
,
0000
0000
0010
0000
,
0000
0000
0001
0000
,
0000
0000
0100
0000
,
0000
0000
0010
0000
,
0000
0000
1000
0000
,
0000
0000
0100
0000
,
0000
0000
0010
0000
,
0000
0000
0001
0000
,
0000
0000
0100
0000
,
0000
0000
0010
0000
,
0000
0000
1000
0000
,
0000
0000
0100
0000
,
0000
0000
0010
0000
,
0000
0000
0001
0000
,
0000
0000
0100
0000
,
0000
0000
0010
0000
,
0000
0000
1000
0000
,
0000
0000
0010
0000
,
0000
0000
0001
0000
,
0000
0000
0100
0000
,
0000
0000
1000
0000
,
0000
0000
0001
0000
,
0000
0000
0100
0000
,
0000
0000
0010
0000
,
0000
0000
1000
0000
,
0000
0000
0100
0000
,
0000
0000
0010
0000
,
0000
0000
0001
0000
,
0000
0000
0100
0000
,
0000
0000
0010
0000
,
0000
0000
1000
0000
,
0000
0000
0100
0000
,
0000
0000
0010
0000
,
0000
0000
0001
0000
,
0000
0000
0100
0000
,
0000
0000
0010
0000
,
0000
0000
1000
0000
,
0000
0000
0100
0000
,
0000
0000
0010
0000
,
0000
0000
0001
0000
,
0000
0000
0100
0000
,
0000
0000
0010
0000
,
0000
0000
1000
0000
,
0000
0000
0010
0000
,
0000
0000
0001
0000
,
0000
0000
0100
0000
,
0000
0000
1000
0000
,
0000
0000
0001
0000
,
0000
0000
0100
0000
,
0000
0000
0010
0000
,
0000
0000
1000
0000
,
0000
0000
0100
0000
,
0000
0000
0010
0000
,
0000
0000
0001
0000
,
0000
0000
0100
0000
,
0000
0000
0010
0000
,
0000
0000
1000
0000
,
0000
0000
0100
0000
,
0000
0000
0010
0000
,
0000
0000
0001
0000
,
0000
0000
0100
0000
,
0000
0000
0010
0000
,
0000
0000
1000
0000
,
0000
0000
0100
0000
,
0000
0000
0010
0000
,
0000
0000
0001
0000
,
0000
0000
0100
0000
,
0000
0000
0010
0000
,
0000
0000
1000
0000
,
0000
0000
0010
0000
,
0000
0000
0001
0000
,
0000
0000
0100
0000
,
0000
0000
1000
0000
,
0000
0000
0001
0000
,
0000
0000
0100
0000
,
0000
0000
0010
0000
,
0000
0000
1000
0000
,
0000
0000
0100
0000
,
0000
0000
0010
0000
,
0000
0000
0001
0000
,
0000
0000
0100
0000
,
0000
0000
0010
0000
,
0000
0000
1000
0000
,
0000
0000
0100
0000
,
0000
0000
0010
0000
,
0000
0000
0001
0000
,
0000
0000
0100
0000
,
0000
0000
0010
0000
,
0000
0000
1000
0000
,
0000
0000
0100
0000
,
0000
0000
0010
0000
,
0000
0000
0001
0000
,
0000
0000
0100
0000
,
0000
0000
0010
0000
,
0000
0000
1000
0000
,
0000
0000
0010
0000
,
0000
0000
0001
0000
,
0000
0000
0100
0000
,
0000
0000
1000
0000
,
0000
0000
0001
0000
,
0000
0000
0100
0000
,
0000
0000
0010
0000
,
0000
0000
1000
0000
,
0000
0000
0100
0000
,
0000
0000
0010
0000
,
0000
0000
0001
0000
,
0000
0000
0100
0000
,
0000
0000
0010
0000
,
0000
0000
1000
0000
,
0000
0000
0100
0000
,
0000
0000
0010
0000
,
0000
0000
0001
0000
,
0000
0000
0100
0000
,
0000
0000
0010
0000
,
0000
0000
1000
0000
,
0000
0000
0100
0000
,
0000
0000
0010
0000
,
0000
0000
0001
0000
,
0000
0000
0100
0000
,
0000
0000
0010
0000
,
0000
0000
1000
0000
,
0000
0000
0010
0000
,
0000
0000
0001
0000
,
0000
0000
1000
0000
,
0000
0000
0001
0000
,
0000
0000
0100
0000
,
0000
0000
0010
0000
,
0000
0000
1000
0000
,
0000
0000
0100
0000
,
0000
0000
0010
0000
,
0000
0000
0001
0000
,
0000
0000
0100
0000
,
0000
0000
0010
0000
,
0000
0000
1000
0000
,
0000
0000
0100
0000
,
0000
0000
0010
0000
,
0000
0000
0001
0000
,
0000
0000
0100
0000
,
0000
0000
0010
0000
,
0000
0000
1000
0000
,
0000
0000
0100
0000
,
0000
0000
0010
0000
,
0000
0000
0001
0000
,
0000
0000
0100
0000
,
0000
0000
0010
0000
,
0000
0000
1000
0000
,
0000
0000
0010
0000
,
0000
0000
0001
0000
,
0000
0000
0100
0000
,
0000
0000
1000
0000
,
0000
0000
0001
0000
,
0000
0000
0100
0000
,
0000
0000
0010
0000
,
0000
0000
1000
0000
,
0000
0000
0100
0000
,
0000
0000
0010
0000
,
0000
0000
0001
0000
,
0000
0000
0100
0000
,
0000
0000
0010
0000
,
0000
0000
1000
0000
,
0000
0000
0100
0000
,
0000
0000
0010
0000
,
0000
0000
0001
0000
,
0000
0000
0100
0000
,
0000
0000
0010
0000
,
0000
0000
1000
0000
,
0000
0000
0100
0000
,
0000
0000
0010
0000
,
0000
0000
0001
0000
,
0000
0000
0100
0000
,
0000
0000
0010
0000
,
0000
0000
1000
0000
,
0000
0000
0010
0000
,
0000
0000
0001
0000
,
0000
0000
0100
0000
,
0000
0000
1000
0000
,
0000
0000
0001
0000
,
0000
0000
0100
0000
,
0000
0000
0010
0000
,
0000
0000
1000
0000
,
0000
0000
0100
0000
,
0000
0000
0010
0000
,
0000
0000
0001
0000
,
0000
0000
0100
0000
,
0000
0000
0010
0000
,
0000
0000
1000
0000
,
0000
0000
0100
0000
,
0000
0000
0010
0000
,
0000
0000
0001
0000
,
0000
0000
0100
0000
,
0000
0000
0010
0000
,
0000
0000
1000
0000
,
0000
0000
0100
0000
,
0000
0000
0010
0000
,
0000
0000
1000
0000
,
0000
0000
0100
0000
,
0000
0000
0010
0000
,
0000
0000
0001
0000
,
0000
0000
0100
0000
,
0000
0000
0010
0000
,
0000
0000
1000
0000
,
0000
0000
0100
0000
,
0000
0000
0010
0000
,
0000
0000
0001
0000
,
0000
0000
0100
0000
,
0000
0000
0010
0000
,
0000
0000
1000
0000
,
0000
0000
0010
0000
,
0000
0000
0001
0000
,
0000
0000
0100
0000
,
0000
0000
1000
0000
,
0000
0000
0001
0000
,
0000
0000
0100
0000
,
0000
0000
0010
0000
,
0000
0000
1000
0000
,
0000
0000
0100
0000
,
0000
0000
0010
0000
,
0000
0000
0001
0000
,
0000
0000
0100
0000
,
0000
0000
0010
0000
,
0000
0000
0001
0000
,
0000
0000
1000
0000
,
0000
0000
0010
0000
,
0000
0000
0100
0000
,
0000
0000
0010
0000
,
0000
0000
1000
0000
,
0000
0000
0100
0000
,
0000
0000
0010
0000
,
0000
0000
0001
0000
,
0000
0000
0100
0000
,
0000
0000
0010
0000
,
0000
0000
1000
0000
,
0000
0000
0010
0000
,
0000
0000
0001
0000
,
0000
0000
0100
0000
,
0000
0000
1000
0000
,
0000
0000
0001
0000
,
0000
0000
0100
0000
,
0000
0000
0010
0000
,
0000
0000
1000
0000
,
0000
0000
0100
0000
,
0000
0000
0010
0000
,
0000
0000
0001
0000
,
0000
0000
0100
0000
,
0000
0000
0010
0000
,
0000
0000
1000
0000
,
0000
0000
0100
0000
,
0000
0000
0010
0000
,
0000
0000
0001
0000
,
0000
0000
0100
0000
,
0000
0000
0010
0000
,
0000
0000
1000
0000
,
0000
0000
0100
0000
,
0000
0000
0010
0000
,
0000
0000
1000
0000
,
0000
0000
0100
0000
,
0000
0000
0010
0000
,
0000
0000
0001
0000
,
0000
0000
0100
0000
,
0000
0000
0010
0000
,
0000
0000
1000
0000
,
0000
0000
0100
0000
,
0000
0000
0010
0000
,
0000
0000
0001
0000
,
0000
0000
0100
0000
,
0000
0000
0010
0000
,
0000
0000
1000
0000
,
0000
0000
0010
0000
,
0000
0000
0001
0000
,
0000
0000
0100
0000
,
0000
0000
1000
0000
,
0000
0000
0001
0000
,
0000
0000
0100
0000
,
0000
0000
0010
0000
,
0000
0000
1000
0000
,
0000
0000
0100
0000
,
0000
0000
0010
0000
,
0000
0000
0001
0000
,
0000
0000
0100
0000
,
0000
0000
0010
0000
,
0000
0000
0001
0000
,
0000
0000
1000
0000
,
0000
0000
0010
0000
,
0000
0000
1000
0000
,
0000
0000
0010
0000
,
0000
0000
0100
0000
,
0000
0000
1000
0000
,
0000
0000
0001
0000
,
0000
0000
0100
0000
,
0000
0000
0010
0000
,
0000
0000
1000
0000
,
0000
0000
1001
0000
;
