#TITLE:VEC†LEGGENDARIA;
#SUBTITLE:;
#ARTIST:Rotteen;
#TITLETRANSLIT:;
#SUBTITLETRANSLIT:;
#ARTISTTRANSLIT:;
#CREDIT:owenviau1;
#BANNER:BN.png;
#BACKGROUND:BG.png;
#LYRICSPATH:;
#CDTITLE:../CDTitleOV1.png;
#MUSIC:VECLEGGENDARIA.ogg;
#OFFSET:-0.414;
#SAMPLESTART:62.796;
#SAMPLELENGTH:29.999;
#SELECTABLE:YES;
#BPMS:0.000=87.000,3.000=87.500,9.000=88.000,13.000=269.400,189.000=134.700,205.000=269.400;
#STOPS:;
#BGCHANGES:;
// cache tags:
#FIRSTBEAT:0.000;
#LASTBEAT:481.000;
#SONGFILENAME:Songs/owenviau1 Simfiles 07_final/VEC+LEGGENDARIA - [owenviau1] v1.0.8/VECLEGGENDARIA.sm;
#HASMUSIC:1;
#HASBANNER:1;
#MUSICLENGTH:118.047;
// end cache tags

//---------------dance-single - 2.10 (2) (owenviau1)----------------
#NOTES:
     dance-single:
     2.10 (2) (owenviau1):
     Beginner:
     2:
     0.224,0.662,0.271,0.085,0.000,143.000,32.000,10.000,0.000,0.000:
2000
3200
0320
0032
,
0000
0000
2003
3020
,
0230
0302
0000
0000
,
0003
1000
0000
0000
,
0000
0010
0000
0000
,
0000
1001
0000
0000
,
0000
0001
0000
0000
,
0000
0110
0000
0000
,
0000
1000
0000
0000
,
0000
0001
0000
0100
,
0000
0010
0000
1000
,
0000
0001
0000
0000
,
0000
1000
0000
0000
,
0000
0010
0000
0000
,
0000
0100
0000
0000
,
0000
0001
0000
0001
,
0000
1000
0000
1000
,
0000
0001
0000
0001
,
0000
1000
0000
1000
,
0000
0001
0000
0000
,
0000
1000
0000
0000
,
0000
0010
0000
0000
,
0000
0100
0000
0000
,
0000
1000
0000
0000
,
0000
0000
0010
0000
,
0000
0000
0100
0000
,
0000
0000
0001
0000
,
0000
0000
1000
0000
,
0000
0000
0100
0000
,
0000
0000
0010
0000
,
0000
0000
0001
0000
,
0000
1001
0000
0000
,
1000
0000
0000
0000
,
0010
0000
0000
0000
,
0100
0000
0000
0000
,
0001
0000
0000
0000
,
0010
0000
0000
0000
,
0100
0000
0000
0000
,
1000
0000
0000
0001
,
0000
1001
0000
0000
,
0000
0110
0000
0000
0000
0000
0000
0000
,
0000
0101
0000
0000
,
0000
1001
0000
0000
0000
0000
0000
0000
,
0000
1010
0000
0000
,
0000
0110
0000
0000
0000
0000
0000
0000
,
0000
0101
0000
0000
,
0000
1001
0000
0000
0000
0000
1000
0000
,
0000
0001
0000
0100
,
0000
0010
0000
0100
,
0100
0100
0000
0001
,
0000
1000
0000
0010
,
2000
3001
0000
0000
,
0000
0100
0000
0000
,
0000
0010
0000
0000
,
0000
1000
0000
0000
,
0000
0001
0000
0000
,
0000
0010
0000
0000
,
0000
0100
0000
0000
,
0000
1000
0000
0000
,
0000
0001
0000
0000
,
0000
0100
0000
0000
,
0000
0010
0000
0000
,
0000
1000
0000
0000
,
0000
0001
0000
0000
,
0000
0100
0000
0000
,
0000
0010
0000
0000
,
0000
1000
0000
0000
,
0000
1001
0000
0000
,
0000
1000
0000
0000
,
0000
0100
0000
0000
,
0000
0010
0000
0000
,
0000
0001
0000
0000
,
0000
0010
0000
0000
,
0000
0100
0000
0000
,
0000
1000
0000
0000
,
0000
1001
0000
0000
,
0000
0000
0000
0000
,
0000
0110
0000
0000
,
0000
0000
0000
0000
,
0000
1000
0000
0000
,
0000
0001
0000
0000
,
0000
0100
0000
0000
,
0000
0010
0000
0000
,
0000
0100
0000
0000
,
0000
0001
0000
0000
,
0000
0100
0000
0000
,
0000
0010
0000
0000
,
0000
1001
0000
0000
,
0000
1000
0000
0000
,
0000
0010
0000
0000
,
0000
0100
0000
0000
,
0000
0001
0000
0000
,
0000
1000
0000
0000
,
0000
0100
0000
0000
,
0000
0010
0000
0000
,
0000
1001
0000
0000
,
0000
0110
0000
0000
0000
0000
0000
0000
,
0000
0101
0000
0000
,
0000
1010
0000
0000
0000
0000
0000
0000
,
0000
0110
0000
0000
,
0000
0101
0000
0000
0000
0000
0000
0000
,
0000
0011
0000
0000
,
0000
0110
0000
0000
0000
0000
0000
0000
,
0000
1100
0000
0000
,
0000
1010
0000
0000
0000
0000
0000
0000
,
0000
1001
0000
0000
,
0000
0101
0000
0000
0000
1000
0000
0000
,
0000
1001
0000
0000
,
0000
0101
0000
0000
0000
0000
0000
0000
,
0000
1100
0000
0000
,
0000
0101
0000
0000
0000
0001
0000
0000
,
0000
0000
1000
0000
,
0000
1001
0000
0000
,
0000
0010
0000
0000
,
0000
0100
0000
0000
,
0000
0001
0000
0000
,
0000
1000
0000
1000
,
0000
0001
0000
0001
,
0000
0010
0000
0010
,
0000
0100
0000
0000
,
2000
3000
0000
0000
,
0000
0000
0000
0000
;

//---------------dance-single - 10.27 (10) (owenviau----------------
#NOTES:
     dance-single:
     10.27 (10) (owenviau:
     Easy:
     10:
     1.000,1.000,0.034,0.415,0.127,905.000,4.000,49.000,2.000,3.000:
2000
3200
0320
0032
,
0000
0000
2003
3020
,
0230
0302
0000
0000
,
0003
0000
1000
0100
0010
0001
0100
0010
,
1000
0001
0010
0100
1000
0001
0100
0010
,
0200
0000
1301
0001
1000
0100
0010
0001
,
0100
0010
0100
0001
1000
0010
1000
0001
,
0200
0000
1301
0001
0100
0010
1000
0001
,
0010
0001
0100
0010
1000
0001
1000
0010
,
0200
0000
1301
0001
1000
0100
1000
0010
,
0100
0001
1000
0100
0010
0001
0100
0010
,
0100
0001
1000
0100
0010
0001
0100
0010
,
1000
0001
0010
0001
0100
0010
1000
0001
,
0010
0001
0100
0010
1000
0001
0100
0010
,
1000
0001
1000
0100
0010
0001
0100
0001
,
2000
0000
3001
0010
0100
1000
0010
0100
,
0001
1000
0100
0010
0001
1000
0010
1000
,
0001
0010
0100
1000
0010
0100
0010
1000
,
0100
0010
0001
0100
0010
1000
0001
0010
,
0100
1000
0001
0010
0001
0100
0010
0100
,
0001
1000
0010
0100
0001
1000
0100
0010
,
0001
0100
0001
1000
0010
0100
0010
1000
,
0001
0010
0100
1000
0010
0100
0001
0000
,
0200
0000
0310
1000
0100
0010
0001
0100
,
0010
1000
0001
0100
0001
1000
0100
0010
,
0001
1000
0010
0100
0001
0010
0001
1000
,
0100
0010
0001
0100
0010
1000
0001
0100
,
0010
1000
0001
0010
0100
1000
0001
0100
,
0001
0010
0100
1000
0010
0100
0001
1000
,
0100
0010
0001
0010
0100
1000
0010
0100
,
0001
1000
0100
0010
0001
1000
0100
0010
,
0001
0100
0001
1000
0100
0010
0001
0100
,
0010
0100
0001
1000
0010
1000
0001
0100
,
0010
1000
0001
1000
0010
0100
0010
1000
,
0001
0010
0100
1000
0010
0100
0001
1000
,
0010
0100
0001
0100
0010
1000
0100
0010
,
0001
0100
0010
1000
0001
0100
0001
0010
,
0100
0010
0001
1000
0100
0010
0001
1000
,
0001
0100
0010
1000
0001
0010
0100
1000
,
0002
0000
1003
0100
0010
0001
0100
0010
,
1000
0001
0100
0001
1000
0010
0100
0010
,
1000
0001
0010
0001
0100
0010
1000
0100
,
0010
0001
0100
0010
1000
0001
0010
0100
,
1000
0001
0100
0001
1000
0010
1000
0001
,
1000
0100
0010
0001
0100
0010
1000
0010
,
0100
0001
0010
0001
1000
0100
1000
0010
,
0100
0001
1000
0100
0010
0001
1000
0010
,
0100
0000
0000
0000
0001
0000
0000
0000
0101
0000
0000
0000
0010
0000
1000
0000
0100
0000
0010
0000
0001
0000
0100
0000
0010
0000
1000
0001
0100
0000
0010
0000
,
1000
0100
1000
0001
0100
0010
1000
0100
0010
0001
0100
0010
1000
0010
0100
0001
,
1000
0000
0100
0000
0010
0000
0001
0000
0100
0000
0001
0000
1000
0000
0010
0000
0100
0000
0001
0000
0010
0000
0100
0000
1000
0000
0001
0100
0010
0000
1000
0000
,
0100
0010
0002
0000
1003
0010
0100
0010
1000
0001
0100
0010
1000
0100
0010
0001
,
0200
0000
0000
0000
0000
0000
0000
0000
0000
0000
0000
0300
1000
0000
0000
0000
0000
0000
0010
0000
0000
0000
0000
0000
0100
0000
0000
0000
0000
0000
0001
0000
0000
0000
0000
0000
0020
0000
0000
0000
0000
0000
0000
0000
0000
0000
0000
0000
,
0230
0000
1300
0001
0100
0010
2000
0000
,
3200
0000
0310
0001
1000
0001
0020
0000
,
0230
0000
1300
0001
0010
0100
2000
0000
,
3002
0000
1003
0010
0100
0001
0020
0000
,
0230
0000
1300
0001
0100
0010
2000
0000
,
3200
0000
0310
0001
1000
0010
0200
0000
,
0302
0000
1003
0001
0010
0100
2000
0000
,
3002
0000
1003
0100
0010
0001
0100
0010
,
0100
0001
1000
0010
0100
0001
1000
0100
,
0010
0001
1000
0010
1000
0100
0010
0001
,
0100
0010
1000
0001
0100
0001
1000
0010
,
0100
0010
1000
0001
0010
0001
1000
0100
,
0010
0001
0100
0010
0100
0001
1000
0100
,
0010
0001
1000
0100
1000
0010
0100
0001
,
1000
0100
0020
0000
0000
0000
0031
1000
,
0000
0000
1000
0100
0010
0001
0100
0010
,
0100
0001
1000
0010
0100
0001
1000
0100
,
0010
0001
0100
0001
1000
0100
0010
0001
,
0100
0010
1000
0001
0100
0001
0010
0100
,
1000
0010
0100
0010
1000
0100
1000
0001
,
0010
0100
1000
0010
0100
0001
1000
0100
,
0010
0001
1000
0100
0010
0001
1000
0100
,
0010
0001
0020
0000
1030
0001
0100
0010
,
0100
0001
2000
0000
0000
0000
0000
0000
,
0000
0000
3001
0100
0010
1000
0100
0010
,
0001
0100
0020
0000
0000
0000
0000
0000
,
0000
2030
0M00
3002
,
00M0
0000
0103
0010
1000
0100
0010
0001
,
1000
0010
1000
0001
0100
0010
1000
0001
,
0010
0001
0100
0010
1000
0100
0010
0001
,
0100
0010
1000
0001
0010
0100
1000
0001
,
0100
0001
0010
0100
1000
0010
1000
0001
,
0100
0010
0100
0001
1000
0010
0100
0010
,
1000
0001
0010
0001
1000
0100
0010
0001
,
0100
0010
1000
0001
0010
0001
0100
0010
,
1000
0100
1000
0001
0010
0100
1000
0010
,
0100
0001
1000
0100
0010
0001
1000
0001
,
0100
0010
1000
0010
0100
0001
0010
0001
,
1000
0100
0010
0001
0100
0010
1000
0001
,
0010
0001
1000
0010
1000
0100
0010
0001
,
0100
0010
1000
0001
0100
0001
1000
0100
,
0010
0001
0100
0010
1000
0001
0100
0010
,
0100
0001
2000
0000
3020
0000
0230
0000
,
0302
0000
1003
0100
0010
0001
0100
0010
,
1000
0001
0100
0001
1000
0010
0100
0010
,
1000
0001
0010
0001
0100
0010
1000
0100
,
0010
0001
0100
0010
1000
0001
0010
0100
,
1000
0001
0100
0001
1000
0010
1000
0001
,
1000
0100
0010
0001
0100
0010
1000
0010
,
0100
0001
0010
0001
1000
0100
1000
0010
,
0100
0001
1000
0100
0010
0001
1000
0010
,
0100
0001
1000
0100
0010
0001
0100
0010
,
1000
0001
0100
0001
1000
0010
0100
0010
,
1000
0001
0010
0001
0100
0010
1000
0100
,
0010
0002
0000
0003
0000
1000
0100
0010
,
0001
0100
0010
1000
0001
0100
0001
1000
,
0010
0100
0010
1000
0001
0010
0001
0100
,
0010
1000
0100
0010
0001
0100
0010
1000
,
0001
0020
0000
0030
0000
0100
1000
0001
,
0100
0010
0000
0000
2000
0000
3100
0010
,
0002
0000
1003
0100
0010
0001
0100
0010
,
1000
0001
0100
0001
1000
0010
0100
0010
,
1000
0001
0010
0001
0100
0010
1000
0100
,
0010
0001
0100
0010
1000
0001
0010
0100
,
1000
0001
0100
0001
1000
0010
1000
0001
,
1000
0100
0010
0001
0100
0010
1000
0010
,
0100
0001
0010
0001
1000
0100
1000
0010
,
0100
0000
0000
0000
0000
0000
0001
0000
0000
0000
0000
0000
2000
0000
0000
0000
0000
0000
0000
0000
0000
0000
0000
3000
0020
0000
0000
0000
0000
0000
0000
0000
0000
0000
0000
0030
0200
0000
0000
0000
0000
0000
0000
0000
0000
0000
0000
0300
,
0004
0003
0000
0000
,
0000
0000
0000
0000
;

//---------------dance-single - 13.35 (13+) (owenvia----------------
#NOTES:
     dance-single:
     13.35 (13+) (owenvia:
     Medium:
     13:
     1.000,1.000,0.491,0.424,0.500,983.000,58.000,50.000,2.000,12.000:
2000
3200
0320
0032
,
0000
0000
2003
3020
,
0230
0302
0000
0000
,
0003
0000
1000
0100
0010
0001
0100
0010
,
1000
0000
0001
0000
0010
0100
1000
0001
0100
0000
0010
1000
0001
0000
0010
0000
,
0200
0000
0000
0000
1301
0000
0010
0100
0001
0000
1000
0000
0010
0000
0100
0000
,
0010
0000
1000
0000
0001
0010
0100
1000
0001
0000
0100
0010
1000
0000
0001
0000
,
0200
0000
0000
0000
1301
0000
0010
1000
0010
0000
0100
0000
0001
0000
0010
0000
,
0100
0000
1000
0000
0001
0100
0010
1000
0010
0000
0100
0001
1000
0000
0010
0000
,
0200
0000
0000
0000
1301
0000
0010
0100
0010
0000
1000
0000
0001
0000
0100
0000
,
0001
0000
0010
0000
0100
1000
0001
0100
0010
0000
1000
0001
0100
0000
0010
0000
,
0100
0001
1000
0100
0010
0001
0100
0010
,
1000
0001
0010
0001
0100
0010
1000
0001
,
0010
0001
0100
0010
1000
0001
0100
0010
,
1000
0000
0001
0000
1000
0010
0100
0001
0010
0001
1000
0010
0100
0000
0001
0000
,
2000
0000
3001
0010
0100
1000
0010
0100
,
0001
1000
0100
0010
0001
1000
0010
1000
,
0001
0010
0100
1000
0010
0100
0010
1000
,
0100
0010
0001
0100
0010
1000
0001
0010
,
0100
1000
0001
0010
0001
0100
0010
0100
,
0001
1000
0010
0100
0001
1000
0100
0010
,
0001
0100
0001
1000
0010
0100
0010
1000
,
0001
0010
0100
1000
0010
0100
0001
0000
,
0200
0000
0310
1000
0100
0010
0001
0100
,
0010
1000
0001
0100
0001
1000
0100
0010
,
0001
0100
0001
1000
0010
0000
0100
0000
0001
0000
0010
0000
0001
0000
1000
0000
,
0100
0010
0001
0100
0010
1000
0001
0100
,
0010
1000
0010
0100
0001
0000
0010
0000
0100
0000
1000
0000
0001
0000
0100
0000
,
0001
0010
0100
1000
0010
0100
0001
1000
,
0100
0010
0001
0100
0001
0000
0010
0000
0100
0000
1000
0000
0010
0000
0100
0000
,
0001
0000
1000
0000
0100
0000
0010
0000
0001
0000
1000
0000
0100
0010
0001
1000
,
0010
0100
0001
1000
0100
0010
0001
0100
,
0010
0100
0001
1000
0010
1000
0001
0100
,
0010
1000
0001
0010
0100
0000
1000
0000
0010
0000
0100
0000
0010
0000
1000
0000
,
0001
0010
0100
1000
0010
0100
0001
1000
,
0010
0100
0010
1000
0001
0000
0100
0000
0010
0000
1000
0000
0100
0000
0010
0000
,
0001
0100
0010
1000
0001
0100
0001
0010
,
0100
1000
0010
0100
0001
0000
1000
0000
0100
0000
0010
0000
0001
1000
0100
0010
,
0001
0100
0010
1000
0001
0010
0100
1000
,
0002
0000
1103
1000
0010
0100
0001
1000
,
1010
0101
0001
1000
0100
0010
0001
0100
,
0010
1000
1100
0001
0100
0010
1000
0100
,
0110
0011
1000
0010
0100
0001
0100
0010
,
1000
0100
0110
0001
0100
0010
1000
0001
,
0101
1010
0100
0001
1000
0100
1000
0001
,
0100
0010
1010
0100
0001
1000
0100
0010
,
0001
0000
1001
0000
1010
0000
0100
0000
0001
0000
1000
0000
0100
0010
0001
1000
,
0010
0000
0000
0000
0100
0000
0000
0000
0101
0000
0000
0000
0010
0000
1000
0000
0100
0000
0010
0000
0001
0000
0100
0000
0010
0000
1000
0001
0100
0000
0010
0000
,
1000
0100
1000
0001
0100
0010
1000
0100
0010
0001
0100
0010
1000
0010
0100
0001
,
1000
0000
0100
0000
0010
0000
0001
0000
0100
0000
0001
0000
1000
0000
0010
0000
0100
0000
0001
0000
0010
0000
0100
0000
1000
0000
0001
0100
0010
0000
1000
0000
,
0100
0010
0002
0000
1003
0010
0100
0010
1000
0001
0100
0010
1000
0100
0010
0001
,
0200
0000
0000
0000
0000
0000
0000
0000
0000
0000
0000
0300
1010
0000
0000
0000
0000
0000
0010
0000
0000
0000
0000
0000
0100
0000
0000
0000
0000
0000
0001
0000
0000
0000
0000
0000
0021
0000
0000
0000
0000
0000
0000
0000
0000
0000
0000
0000
,
0230
0000
1301
0001
0100
0010
2010
0000
,
3200
0000
0311
0001
1000
0010
0120
0000
,
2030
0000
3101
0001
0010
0100
2100
0000
,
3002
0000
1013
0010
0100
0001
0021
0000
,
0230
0000
1301
0001
0100
0010
2010
0000
,
3200
0000
0311
0001
1000
0010
0120
0000
,
2030
0000
3101
0001
0010
0100
2100
0000
,
3002
0000
1003
0100
0010
0001
0100
0010
,
0100
0001
1000
0010
0100
0001
1000
0100
,
0010
0001
1000
0010
0100
0000
0001
0000
1000
0000
0100
0000
0010
0000
0001
0000
,
0100
0010
1000
0001
0100
0001
0010
0100
,
1000
0100
0010
0001
0100
0000
0010
0000
1000
0000
0100
0000
1000
0000
0001
0000
,
0010
0100
1000
0010
0100
0001
1000
0100
,
0010
0001
0010
0100
1000
0000
0010
0000
0100
0000
0001
0000
1000
0100
0010
0000
,
0001
0000
0100
0000
0020
0000
0000
0000
1030
0000
0100
0000
0010
0001
1000
0010
,
0100
0001
1000
0100
0010
0001
0100
0010
,
0100
0001
1000
0010
0100
0001
1000
0100
,
0010
0001
1000
0010
0100
0000
0001
0000
1000
0000
0100
0000
0010
0000
0001
0000
,
0100
0010
1000
0001
0100
0001
0010
0100
,
1000
0100
0010
0001
0100
0000
0010
0000
1000
0000
0100
0000
1000
0000
0001
0000
,
0010
0100
1000
0010
0100
0001
1000
0100
,
0010
0001
0100
0010
1000
0000
0100
0000
0010
0000
0001
0000
1000
0010
0100
0000
,
0001
0000
1000
0000
0020
0000
0000
0000
0130
0000
0001
0000
0100
0010
1000
0001
,
0100
0010
2010
0000
0000
0000
0000
0000
,
0000
0000
3001
0100
0010
1000
0100
0010
,
0001
0100
0120
0000
0000
0000
0000
0000
,
0000
2030
0M00
3002
,
00M0
0000
0103
0010
1000
0100
0010
0001
,
1000
0010
1000
0001
0100
0010
1000
0001
,
0010
0001
0100
0010
1000
0100
0010
0001
,
0100
0010
1000
0001
0010
0100
1000
0001
,
0100
0001
0010
0100
1000
0010
1000
0001
,
0100
0010
0100
0001
1000
0010
0100
0010
,
1000
0001
0010
0001
1000
0100
0010
0001
,
0100
0010
1000
0001
0010
0001
0100
0010
,
1000
0100
1000
0001
0010
0100
1000
0010
,
0100
0001
1000
0100
0010
0001
1000
0001
,
0100
0010
1000
0010
0100
0001
0010
0001
,
1000
0100
0010
0001
0100
0010
1000
0001
,
0010
0001
1000
0010
1000
0100
0010
0001
,
0100
0010
1000
0001
0100
0001
1000
0100
,
0010
0001
0100
0010
1000
0001
0100
0010
,
0100
0000
0001
0000
2000
0000
0000
0000
3020
0000
0000
0000
0130
0001
1000
0100
,
0020
0000
1031
1000
0010
0100
0001
1000
,
1010
0101
0001
1000
0100
0010
0001
0100
,
0010
1000
1100
0001
0100
0010
1000
0100
,
0110
0011
1000
0010
0100
0001
0100
0010
,
1000
0100
0110
0001
0100
0010
1000
0001
,
0101
1010
0100
0001
1000
0100
1000
0001
,
0100
0010
1010
0100
0001
1000
0100
0010
,
0001
0000
1001
0000
1010
0000
0100
0000
0001
0000
1000
0000
0100
0010
0001
1000
,
0010
0100
0101
0001
1000
0010
0100
0001
,
1001
1010
0001
1000
0100
0010
0001
0100
,
0010
1000
1100
0001
0100
0010
1000
0100
,
0110
0000
0022
0000
0000
0000
0033
0000
0000
0000
1000
0100
0010
0000
0001
0000
,
1000
0100
0110
0001
0100
0010
1000
0001
,
0101
1010
0100
0001
1000
0100
1000
0001
,
0100
0010
1010
0100
0001
1000
0100
0010
,
0001
0000
2002
0000
0000
0000
3003
0000
0000
0000
1000
0100
0010
0001
0100
0010
,
2000
0000
3000
0000
0001
0100
0040
4030
,
3002
0000
1003
0100
0010
0001
0100
0010
,
1000
0001
0100
0001
0010
0100
1000
0010
,
0100
0001
1000
0100
1000
0010
0100
0010
,
1000
0001
0100
0001
1000
0100
0010
0001
,
0100
0000
0000
0010
0000
0000
1000
0000
0001
0000
0100
0000
0010
0000
1000
0000
0100
0000
0010
0000
0001
0000
0100
0000
,
0010
1000
0001
0100
0001
1000
0010
0100
0010
1000
0001
0010
,
0100
1000
0010
0100
0001
1000
0100
0010
0001
0100
0001
1000
,
0010
0000
0000
0000
0100
0000
0000
0000
0001
0000
0000
0000
2000
0000
0000
0000
0000
0000
0000
0000
0000
0000
0000
3000
0020
0000
0000
0000
0000
0000
0000
0000
0000
0000
0000
0030
0200
0000
0000
0000
0000
0000
0000
0000
0000
0000
0000
0300
,
0004
0000
0000
0000
0000
0000
0000
0000
0000
0000
0000
0003
0000
0000
0000
0000
0000
0000
0000
0000
0000
0000
0000
0000
0000
0000
0000
0000
0000
0000
0000
0000
0000
0000
0000
0000
0000
0000
0000
0000
0000
0000
0000
0000
0000
0000
0000
0000
,
0000
0000
0000
0000
;

//---------------dance-single - 18.78 (19-) (owenvia----------------
#NOTES:
     dance-single:
     18.78 (19-) (owenvia:
     Hard:
     19:
     1.000,1.000,0.491,0.424,1.000,1190.000,58.000,50.000,2.000,12.000:
2000
3200
0320
0032
,
0000
0000
2003
3020
,
0230
0302
0000
0000
,
0003
0000
1000
0100
0010
0001
0100
0010
,
1000
0000
0001
0000
0010
0100
1000
0001
0100
0000
0010
1000
0001
0000
0010
0000
,
0200
0000
0000
0000
1301
0000
0010
0100
0001
0000
1000
0000
0010
0000
0100
0000
,
0010
0000
1000
0000
0001
0010
0100
1000
0001
0000
0100
0010
1000
0000
0001
0000
,
0200
0000
0000
0000
1301
0000
0010
1000
0010
0000
0100
0000
0001
0000
0010
0000
,
0100
0000
1000
0000
0001
0100
0010
1000
0010
0000
0100
0001
1000
0000
0010
0000
,
0200
0000
0000
0000
1301
0000
0010
0100
0010
0000
1000
0000
0001
0000
0100
0000
,
0001
0000
0010
0000
0100
1000
0001
0100
0010
0000
1000
0001
0100
0000
0010
0000
,
0100
0000
0001
0000
1000
0100
0010
0001
0100
0010
1000
0001
0010
0100
1000
0010
,
0100
0001
0100
0010
1000
0100
0010
0001
0100
0010
1000
0001
0100
0001
0010
0100
,
1000
0010
0100
0001
1000
0100
0010
0001
0100
0010
0100
0001
1000
0010
0100
0001
,
1000
0100
0010
0001
0100
0010
1000
0001
0010
0001
0100
0010
1000
0100
0010
0001
,
2000
0000
0000
0000
3001
0000
0010
0100
1000
0000
0001
0100
0010
0000
1000
0100
,
1000
0000
0001
0010
0100
0000
1000
0010
0100
0000
0001
1000
0100
0000
0010
0001
,
0100
0000
0010
1000
0010
0000
0100
0001
0100
0000
1000
0100
0010
0000
0001
0010
,
0100
0000
1000
0010
0100
0000
0001
0100
0001
0000
0010
0100
1000
0000
0001
0100
,
0010
0000
1000
0100
0010
0000
0001
0100
0001
0000
1000
0010
0100
0000
0001
0010
,
0100
0000
1000
0010
0100
0000
0001
1000
0001
0000
0100
0010
1000
0000
0001
0010
,
0100
0000
1000
0100
0010
0000
0001
0100
0010
0000
1000
0001
0100
0000
0010
1000
,
0001
0000
0010
0100
1000
0000
0100
0010
0001
0100
0010
1000
0001
0000
0000
0000
,
0200
0000
0310
1000
0100
0010
0001
0100
,
0010
1000
0001
0100
0001
1000
0100
0010
,
0001
0100
0001
1000
0010
0000
0100
0000
0001
0000
0010
0000
0001
0000
1000
0000
,
0100
0010
0001
0100
0010
1000
0001
0100
,
0010
1000
0010
0100
0001
0000
0010
0000
0100
0000
1000
0000
0001
0000
0100
0000
,
0001
0010
0100
1000
0010
0100
0001
1000
,
0100
0010
0001
0100
0001
0000
0010
0000
0100
0000
1000
0000
0010
0000
0100
0000
,
0001
0000
1000
0000
0100
0000
0010
0000
0001
0000
1000
0000
0100
0010
0001
1000
,
0010
0000
0100
0000
0001
1000
0100
0010
0001
0100
0010
1000
0001
0010
0100
1000
,
0010
0100
0010
1000
0001
0100
0001
0010
0100
1000
0010
0100
0001
1000
0010
1000
,
0100
0010
0001
0100
0010
1000
0001
0010
0001
0100
0010
1000
0100
0010
0001
1000
,
0010
1000
0100
0010
0001
1000
0010
1000
0100
0010
0001
0100
0010
1000
0001
0100
,
0001
1000
0010
1000
0001
0010
0100
1000
0010
0100
0001
1000
0010
1000
0100
0010
,
0001
0100
0010
1000
0001
0010
0100
1000
0010
0100
0010
1000
0001
0100
0001
0010
,
0100
1000
0010
0100
0001
1000
0010
1000
0100
0010
0001
0100
0010
1000
0001
0010
,
0001
0100
0010
1000
0100
0010
0001
1000
0010
1000
0100
0010
0001
1000
0010
0100
,
0002
0000
1103
1000
0010
0100
0001
1000
,
1010
0101
0001
1000
0100
0010
0001
0100
,
0010
1000
1100
0001
0100
0010
1000
0100
,
0110
0011
1000
0010
0100
0001
0100
0010
,
1000
0100
0110
0001
0100
0010
1000
0001
,
0101
1010
0100
0001
1000
0100
1000
0001
,
0100
0010
1010
0100
0001
1000
0100
0010
,
0001
0000
1001
0000
1010
0000
0100
0000
0001
0000
1000
0000
0100
0010
0001
1000
,
0010
0000
0000
0000
0100
0000
0000
0000
0101
0000
0000
0000
0010
0000
1000
0000
0100
0000
0010
0000
0001
0000
0100
0000
0010
0000
1000
0001
0100
0000
0010
0000
,
1000
0100
1000
0001
0100
0010
1000
0100
0010
0001
0100
0010
1000
0010
0100
0001
,
1000
0000
0100
0000
0010
0000
0001
0000
0100
0000
0001
0000
1000
0000
0010
0000
0100
0000
0001
0000
0010
0000
0100
0000
1000
0000
0001
0100
0010
0000
1000
0000
,
0100
0010
0002
0000
1003
0010
0100
0010
1000
0001
0100
0010
1000
0100
0010
0001
,
0200
0000
0000
0000
0000
0000
0000
0000
0000
0000
0000
0300
1010
0000
0000
0000
0000
0000
0010
0000
0000
0000
0000
0000
0100
0000
0000
0000
0000
0000
0001
0000
0000
0000
0000
0000
0021
0000
0000
0000
0000
0000
0000
0000
0000
0000
0000
0000
,
0230
0000
1301
0001
0100
0010
2010
0000
,
3200
0000
0311
0001
1000
0010
0120
0000
,
2030
0000
3101
0001
0010
0100
2100
0000
,
3002
0000
1013
0010
0100
0001
0021
0000
,
0230
0000
1301
0001
0100
0010
2010
0000
,
3200
0000
0311
0001
1000
0010
0120
0000
,
2030
0000
3101
0001
0010
0100
2100
0000
,
3002
0000
0000
0000
1003
0100
0010
0001
0100
0010
1000
0010
0100
0001
1000
0100
,
0010
0001
0100
0010
1000
0001
0100
0001
0010
0100
1000
0010
0100
0001
1000
0100
,
0010
0001
0100
0010
0100
0001
1000
0010
0100
0001
1000
0100
0010
0001
0010
0100
,
1000
0001
0010
0001
0100
0010
1000
0010
0100
0001
1000
0001
0100
0010
0100
0001
,
1000
0100
0010
0001
0100
0010
1000
0001
0010
0100
1000
0010
0100
0010
1000
0100
,
0010
0001
0100
0001
1000
0010
0100
0001
0100
0010
1000
0100
0010
0001
0100
0010
,
1000
0001
0010
0100
1000
0000
0010
0000
0100
0000
0001
0000
1000
0100
0010
0000
,
0001
0000
0100
0000
0020
0000
0000
0000
1030
0000
0100
0000
0010
0001
1000
0010
,
0100
0000
0001
0000
1000
0010
0100
0001
0010
0100
1000
0010
0100
0001
1000
0100
,
0010
0001
0100
0010
1000
0001
0100
0001
0010
0100
1000
0010
0100
0001
1000
0100
,
0010
0001
0100
0010
0100
0001
1000
0010
0100
0001
1000
0100
0010
0001
0010
0100
,
1000
0001
0010
0001
0100
0010
1000
0010
0100
0001
1000
0001
0100
0010
0100
0001
,
1000
0100
0010
0001
0100
0010
1000
0001
0010
0100
1000
0010
0100
0010
1000
0100
,
0010
0001
0100
0001
1000
0010
0100
0001
0100
0010
1000
0100
0010
0001
0100
0010
,
1000
0001
0010
0100
1000
0000
0100
0000
0010
0000
0001
0000
1000
0010
0100
0000
,
0001
0000
1000
0000
0020
0000
0000
0000
0130
0000
0001
0000
0100
0010
1000
0001
,
0100
0010
2010
0000
0000
0000
0000
0000
,
0000
0000
3001
0100
0010
1000
0100
0010
,
0001
0100
0120
0000
0000
0000
0000
0000
,
0000
2030
0M00
3002
,
00M0
0000
0103
0010
1000
0100
0010
0001
,
1000
0010
1000
0001
0100
0010
1000
0001
,
0010
0001
0100
0010
1000
0100
0010
0001
,
0100
0010
1000
0001
0010
0100
1000
0001
,
0100
0001
0010
0100
1000
0010
1000
0001
,
0100
0010
0100
0001
1000
0010
0100
0010
,
1000
0001
0010
0001
1000
0100
0010
0001
,
0100
0010
1000
0001
0010
0001
0100
0010
,
1000
0100
1000
0001
0010
0100
1000
0010
,
0100
0001
1000
0100
0010
0001
1000
0001
,
0100
0010
1000
0010
0100
0001
0010
0001
,
1000
0100
0010
0001
0100
0010
1000
0001
,
0010
0001
1000
0010
1000
0100
0010
0001
,
0100
0010
1000
0001
0100
0001
1000
0100
,
0010
0001
0100
0010
1000
0001
0100
0010
,
0100
0000
0001
0000
2000
0000
0000
0000
3020
0000
0000
0000
0130
0001
1000
0100
,
0020
0000
1031
1000
0010
0100
0001
1000
,
1010
0101
0001
1000
0100
0010
0001
0100
,
0010
1000
1100
0001
0100
0010
1000
0100
,
0110
0011
1000
0010
0100
0001
0100
0010
,
1000
0100
0110
0001
0100
0010
1000
0001
,
0101
1010
0100
0001
1000
0100
1000
0001
,
0100
0010
1010
0100
0001
1000
0100
0010
,
0001
0000
1001
0000
1010
0000
0100
0000
0001
0000
1000
0000
0100
0010
0001
1000
,
0010
0100
0101
0001
1000
0010
0100
0001
,
1001
1010
0001
1000
0100
0010
0001
0100
,
0010
1000
1100
0001
0100
0010
1000
0100
,
0110
0000
0022
0000
0000
0000
0033
0000
0000
0000
1000
0100
0010
0000
0001
0000
,
1000
0100
0110
0001
0100
0010
1000
0001
,
0101
1010
0100
0001
1000
0100
1000
0001
,
0100
0010
1010
0100
0001
1000
0100
0010
,
0001
0000
2002
0000
0000
0000
3003
0000
0000
0000
1000
0100
0010
0001
0100
0010
,
2000
0000
3000
0000
0001
0100
0040
4030
,
3002
0000
1003
0100
0010
0001
0100
0010
,
1000
0001
0100
0001
0010
0100
1000
0010
,
0100
0001
1000
0100
1000
0010
0100
0010
,
1000
0001
0100
0001
1000
0100
0010
0001
,
0100
0000
0010
0000
1000
0100
1000
0001
0100
0010
1000
0100
0010
0001
1000
0010
,
1000
0100
0010
0001
0100
0010
1000
0100
1000
0001
0010
0100
1000
0010
0100
0001
,
0100
0010
1000
0001
1000
0100
0010
0001
0100
0010
1000
0001
0010
0100
1000
0010
,
0100
0000
0000
0001
0000
0000
0010
0000
0000
0100
0000
0000
2000
0000
0000
0000
0000
0000
0000
0000
0000
0000
0000
3000
0020
0000
0000
0000
0000
0000
0000
0000
0000
0000
0000
0030
0200
0000
0000
0000
0000
0000
0000
0000
0000
0000
0000
0300
,
0004
0000
0000
0000
0000
0000
0000
0000
0000
0000
0000
0003
0000
0000
0000
0000
0000
0000
0000
0000
0000
0000
0000
0000
0000
0000
0000
0000
0000
0000
0000
0000
0000
0000
0000
0000
0000
0000
0000
0000
0000
0000
0000
0000
0000
0000
0000
0000
,
0000
0000
0000
0000
;

//---------------dance-single - 23.01 (23) (owenviau----------------
#NOTES:
     dance-single:
     23.01 (23) (owenviau:
     Challenge:
     23:
     1.000,1.000,0.491,0.424,1.000,1421.000,58.000,50.000,2.000,12.000:
2000
3200
0320
0032
,
0000
0000
2003
3020
,
0230
0302
0000
0000
,
0003
0000
1000
0100
0010
0001
0100
0010
,
1000
0000
0001
0000
0010
0100
1000
0001
0100
0000
0010
1000
0001
0000
0010
0000
,
0200
0000
0000
0000
1301
0000
0010
0100
0001
0000
1000
0000
0010
0000
0100
0000
,
0010
0000
1000
0000
0001
0010
0100
1000
0001
0000
0100
0010
1000
0000
0001
0000
,
0200
0000
0000
0000
1301
0000
0010
1000
0010
0000
0100
0000
0001
0000
0010
0000
,
0100
0000
1000
0000
0001
0100
0010
1000
0010
0000
0100
0001
1000
0000
0010
0000
,
0200
0000
0000
0000
1301
0000
0010
0100
0010
0000
1000
0000
0001
0000
0100
0000
,
0001
0000
0010
0000
0100
1000
0001
0100
0010
0000
1000
0001
0100
0000
0010
0000
,
0100
0000
0001
0000
1000
0100
0010
0001
0100
0010
1000
0001
0010
0100
1000
0010
,
0100
0001
0100
0010
1000
0100
0010
0001
0100
0010
1000
0001
0100
0001
0010
0100
,
1000
0010
0100
0001
1000
0100
0010
0001
0100
0010
0100
0001
1000
0010
0100
0001
,
1000
0100
0010
0001
0100
0010
1000
0001
0010
0001
0100
0010
1000
0100
0010
0001
,
2000
0000
0000
0000
3001
0100
0010
1000
0100
0010
0001
0100
0010
1000
0100
0010
,
0001
0100
0001
1000
0010
0100
0001
1000
0100
0010
0001
1000
0100
1000
0010
0100
,
0001
0010
0100
1000
0010
0100
0001
0100
0010
1000
0001
0100
0010
1000
0100
0010
,
0001
0100
0010
1000
0001
0010
0100
1000
0010
0100
0010
1000
0001
0100
0001
1000
,
0010
0100
0001
0100
0010
1000
0001
0010
0100
1000
0001
0100
0010
1000
0100
0010
,
0001
1000
0010
1000
0100
0010
0001
0100
0010
1000
0100
1000
0001
0010
0100
1000
,
0010
0100
0001
0100
0010
1000
0001
1000
0100
0010
0001
0100
0010
1000
0001
0010
,
0100
1000
0010
0100
0010
1000
0100
0010
0001
0100
0010
1000
0001
0000
0000
0000
,
0200
0000
0000
0000
0310
1000
0001
0100
0001
1000
0010
0100
0001
1000
0100
0010
,
0001
0100
0010
1000
0010
0100
0001
1000
0100
0010
0001
0100
0010
0100
0001
1000
,
0010
0100
0001
1000
0100
0010
0001
0100
0010
1000
0010
0100
0001
1000
0100
0010
,
0001
0100
0010
1000
0001
0010
0100
1000
0010
0100
0010
1000
0001
0100
0001
0010
,
0100
1000
0010
0100
0001
1000
0010
1000
0100
0010
0001
0100
0010
1000
0001
0010
,
0001
0100
0010
1000
0100
0010
0001
1000
0010
1000
0100
0010
0001
1000
0010
1000
,
0100
0010
0001
0100
0010
1000
0001
0100
0001
1000
0010
1000
0001
0010
0100
1000
,
0010
0100
0001
1000
0010
0000
0100
0000
0001
0000
1000
0000
0100
0010
0001
1000
,
0010
0000
0100
0000
0001
1000
0100
0010
0001
0100
0010
1000
0001
0010
0100
1000
,
0010
0100
0010
1000
0001
0100
0001
0010
0100
1000
0010
0100
0001
1000
0010
1000
,
0100
0010
0001
0100
0010
1000
0001
0010
0001
0100
0010
1000
0100
0010
0001
1000
,
0010
1000
0100
0010
0001
1000
0010
1000
0100
0010
0001
0100
0010
1000
0001
0100
,
0001
1000
0010
1000
0001
0010
0100
1000
0010
0100
0001
1000
0010
1000
0100
0010
,
0001
0100
0010
1000
0001
0010
0100
1000
0010
0100
0010
1000
0001
0100
0001
0010
,
0100
1000
0010
0100
0001
1000
0010
1000
0100
0010
0001
0100
0010
1000
0001
0010
,
0001
0100
0010
1000
0100
0010
0001
1000
0010
1000
0100
0010
0001
1000
0010
0100
,
0002
0000
1103
1000
0010
0100
0001
1000
,
1010
0101
0001
1000
0100
0010
0001
0100
,
0010
1000
1100
0001
0100
0010
1000
0100
,
0110
0011
1000
0010
0100
0001
0100
0010
,
1000
0100
0110
0001
0100
0010
1000
0001
,
0101
1010
0100
0001
1000
0100
1000
0001
,
0100
0010
1010
0100
0001
1000
0100
0010
,
0001
0000
1001
0000
1010
0000
0100
0000
0001
0000
1000
0000
0100
0010
0001
1000
,
0010
0000
0000
0000
0100
0000
0000
0000
0101
0000
0000
0000
0010
0000
1000
0000
0100
0000
0010
0000
0001
0000
0100
0000
0010
0000
1000
0001
0100
0000
0010
0000
,
1000
0100
1000
0001
0100
0010
1000
0100
0010
0001
0100
0010
1000
0010
0100
0001
,
1000
0000
0100
0000
0010
0000
0001
0000
0100
0000
0001
0000
1000
0000
0010
0000
0100
0000
0001
0000
0010
0000
0100
0000
1000
0000
0001
0100
0010
0000
1000
0000
,
0100
0010
0002
0000
1003
0010
0100
0010
1000
0001
0100
0010
1000
0100
0010
0001
,
0200
0000
0000
0000
0000
0000
0000
0000
0000
0000
0000
0300
1010
0000
0000
0000
0000
0000
0010
0000
0000
0000
0000
0000
0100
0000
0000
0000
0000
0000
0001
0000
0000
0000
0000
0000
0021
0000
0000
0000
0000
0000
0000
0000
0000
0000
0000
0000
,
0230
0000
1301
0001
0100
0010
2010
0000
,
3200
0000
0311
0001
1000
0010
0120
0000
,
2030
0000
3101
0001
0010
0100
2100
0000
,
3002
0000
1013
0010
0100
0001
0021
0000
,
0230
0000
1301
0001
0100
0010
2010
0000
,
3200
0000
0311
0001
1000
0010
0120
0000
,
2030
0000
3101
0001
0010
0100
2100
0000
,
3002
0000
0000
0000
1003
0100
0010
0001
0100
0010
1000
0010
0100
0001
1000
0100
,
0010
0001
0100
0010
1000
0001
0100
0001
0010
0100
1000
0010
0100
0001
1000
0100
,
0010
0001
0100
0010
0100
0001
1000
0010
0100
0001
1000
0100
0010
0001
0010
0100
,
1000
0001
0010
0001
0100
0010
1000
0010
0100
0001
1000
0001
0100
0010
0100
0001
,
1000
0100
0010
0001
0100
0010
1000
0001
0010
0100
1000
0010
0100
0010
1000
0100
,
0010
0001
0100
0001
1000
0010
0100
0001
0100
0010
1000
0100
0010
0001
0100
0010
,
1000
0001
0010
0100
1000
0000
0010
0000
0100
0000
0001
0000
1000
0100
0010
0000
,
0001
0000
0100
0000
0020
0000
0000
0000
1030
0000
0100
0000
0010
0001
1000
0010
,
0100
0000
0001
0000
1000
0010
0100
0001
0010
0100
1000
0010
0100
0001
1000
0100
,
0010
0001
0100
0010
1000
0001
0100
0001
0010
0100
1000
0010
0100
0001
1000
0100
,
0010
0001
0100
0010
0100
0001
1000
0010
0100
0001
1000
0100
0010
0001
0010
0100
,
1000
0001
0010
0001
0100
0010
1000
0010
0100
0001
1000
0001
0100
0010
0100
0001
,
1000
0100
0010
0001
0100
0010
1000
0001
0010
0100
1000
0010
0100
0010
1000
0100
,
0010
0001
0100
0001
1000
0010
0100
0001
0100
0010
1000
0100
0010
0001
0100
0010
,
1000
0001
0010
0100
1000
0000
0100
0000
0010
0000
0001
0000
1000
0010
0100
0000
,
0001
0000
1000
0000
0020
0000
0000
0000
0130
0000
0001
0000
0100
0010
1000
0001
,
0100
0010
2010
0000
0000
0000
0000
0000
,
0000
0000
3001
0100
0010
1000
0100
0010
,
0001
0100
0120
0000
0000
0000
0000
0000
,
0000
2030
0M00
3002
,
00M0
0000
0000
0000
0103
0010
1000
0100
0010
0001
0100
0010
1000
0010
0100
0001
,
0010
0100
1000
0010
0100
0001
1000
0100
0010
0001
0100
0010
0100
0001
1000
0010
,
0100
0001
1000
0100
0010
0001
0100
0010
1000
0010
0100
0001
1000
0100
0010
0001
,
0100
0010
1000
0001
0010
0100
1000
0010
0100
0010
1000
0001
0100
0001
0010
0100
,
1000
0010
0100
0001
1000
0010
1000
0100
0010
0001
0100
0010
1000
0001
0010
0001
,
0100
0010
1000
0100
0010
0001
1000
0010
1000
0100
0010
0001
1000
0010
1000
0100
,
0010
0001
0100
0010
1000
0001
0100
0001
1000
0010
1000
0001
0010
0100
1000
0010
,
0100
0001
1000
0100
0010
0001
0100
0010
1000
0010
0100
0001
1000
0100
0010
0001
,
0100
0010
0100
0001
1000
0010
0100
0001
1000
0100
0010
0001
0100
0010
1000
0010
,
0100
0001
1000
0100
0010
0001
0100
0010
1000
0001
0010
0100
1000
0010
0100
0010
,
1000
0001
0100
0001
0010
0100
1000
0010
0100
0001
1000
0010
1000
0100
0010
0001
,
0100
0010
1000
0001
0010
0001
0100
0010
1000
0100
0010
0001
1000
0010
1000
0100
,
0010
0001
1000
0010
1000
0100
0010
0001
0100
0010
1000
0001
0100
0001
1000
0010
,
1000
0001
0010
0100
1000
0010
0100
0001
1000
0100
0010
0001
0100
0010
0100
0001
,
1000
0100
0010
0001
0100
0010
1000
0001
0010
0100
1000
0010
0100
0001
0100
0010
,
1000
0100
0010
0001
2000
0000
0000
0000
3020
0000
0000
0000
0130
0001
1000
0100
,
0020
0000
1031
1000
0010
0100
0001
1000
,
1010
0101
0001
1000
0100
0010
0001
0100
,
0010
1000
1100
0001
0100
0010
1000
0100
,
0110
0011
1000
0010
0100
0001
0100
0010
,
1000
0100
0110
0001
0100
0010
1000
0001
,
0101
1010
0100
0001
1000
0100
1000
0001
,
0100
0010
1010
0100
0001
1000
0100
0010
,
0001
0000
1001
0000
1010
0000
0100
0000
0001
0000
1000
0000
0100
0010
0001
1000
,
0010
0100
0101
0001
1000
0010
0100
0001
,
1001
1010
0001
1000
0100
0010
0001
0100
,
0010
1000
1100
0001
0100
0010
1000
0100
,
0110
0000
0022
0000
0000
0000
0033
0000
0000
0000
1000
0100
0010
0000
0001
0000
,
1000
0100
0110
0001
0100
0010
1000
0001
,
0101
1010
0100
0001
1000
0100
1000
0001
,
0100
0010
1010
0100
0001
1000
0100
0010
,
0001
0000
2002
0000
0000
0000
3003
0000
0000
0000
1000
0100
0010
0001
0100
0010
,
2000
0000
3000
0000
0001
0100
0040
4030
,
3002
0000
0000
0000
1003
0100
0010
0001
0100
0010
1000
0100
0010
0001
0100
0001
,
1000
0010
0100
0001
1000
0100
0010
0001
1000
0100
1000
0010
0100
0001
0010
0100
,
1000
0010
0100
0001
0100
0010
1000
0001
0100
0010
1000
0100
0010
0001
0100
0010
,
1000
0001
0010
0100
1000
0010
0100
0010
1000
0001
0100
0001
1000
0010
0100
0001
,
0100
0010
1000
0001
0010
0100
1000
0001
0100
0010
1000
0100
0010
0001
1000
0010
,
1000
0100
0010
0001
0100
0010
1000
0100
1000
0001
0010
0100
1000
0010
0100
0001
,
0100
0010
1000
0001
1000
0100
0010
0001
0100
0010
1000
0001
0010
0100
1000
0010
,
0100
0000
0000
0001
0000
0000
0010
0000
0000
0100
0000
0000
2000
0000
0000
0000
0000
0000
0000
0000
0000
0000
0000
3000
0020
0000
0000
0000
0000
0000
0000
0000
0000
0000
0000
0030
0200
0000
0000
0000
0000
0000
0000
0000
0000
0000
0000
0300
,
0004
0000
0000
0000
0000
0000
0000
0000
0000
0000
0000
0003
0000
0000
0000
0000
0000
0000
0000
0000
0000
0000
0000
0000
0000
0000
0000
0000
0000
0000
0000
0000
0000
0000
0000
0000
0000
0000
0000
0000
0000
0000
0000
0000
0000
0000
0000
0000
,
0000
0000
0000
0000
;
