#TITLE:Calabria;
#SUBTITLE:;
#ARTIST:Enur (Featuring Natasja);
#TITLETRANSLIT:;
#SUBTITLETRANSLIT:;
#ARTISTTRANSLIT:;
#CREDIT:;
#BANNER:;
#BACKGROUND:;
#LYRICSPATH:;
#CDTITLE:;
#MUSIC:Calabria.ogg;
#OFFSET:-0.100;
#SAMPLESTART:47.711;
#SAMPLELENGTH:12.000;
#SELECTABLE:YES;
#BPMS:0.000=126.020,288.000=63.010;
#STOPS:;
#BGCHANGES:;
// cache tags:
#FIRSTBEAT:16.000;
#LASTBEAT:296.500;
#SONGFILENAME:Songs/lvsb tourney pack/Calabria/Calabria.sm;
#HASMUSIC:1;
#HASBANNER:0;
#MUSICLENGTH:105.000;
// end cache tags

//---------------dance-single - Blank----------------
#NOTES:
     dance-single:
     Blank:
     Challenge:
     10:
     1.000,1.000,0.610,1.000,0.914,652.000,64.000,129.000,25.000,0.000:

0000
0000
0000
0000
,
0000
0000
0000
0000
,
0000
0000
0000
0000
,
0000
0000
0000
0000
,
1000
0000
0001
0100
0001
0000
1000
0000
0001
0000
1000
0100
1000
0000
0001
0000
,
0200
0300
0000
0000
0200
0300
0000
0000
0200
0300
0000
0000
0200
0300
0000
0000
,
0001
0000
1000
0010
1000
0000
0010
0000
0100
0000
0001
1000
0001
0000
1001
0000
,
1000
0010
1000
0010
0100
0001
0100
0001
0010
0001
0010
0100
1000
0100
2000
0000
,
3002
0000
0000
0203
0000
0000
0000
0000
0320
0000
0000
0000
2030
0000
0000
0000
,
3200
0000
0000
0320
0000
0032
0000
0000
2003
0000
0000
3000
0202
0000
0000
0303
,
2000
0000
0000
3200
0000
0000
0000
0000
0320
0000
0000
0000
0032
0000
0000
0000
,
2003
0000
0000
3020
0000
0230
0000
0000
0320
0000
0000
0030
2002
0000
3003
0000
,
0001
0000
0000
1000
0100
0000
1000
0000
1100
0000
0000
0010
0001
0000
1000
0000
,
1001
0000
0000
0100
0001
0000
0100
0000
0110
0000
0000
0001
1000
0000
0010
0000
,
1010
0000
0000
1000
0100
0000
0010
0000
0011
0000
0000
1000
0010
0000
0100
0000
,
0201
0301
1002
1003
2100
3100
0210
0310
,
MMMM
0000
1000
0000
0010
0000
0100
0001
0010
0000
0100
1000
0200
0000
0300
0010
,
0002
0000
0103
1000
0100
0000
0010
0100
0020
0000
0030
0000
2001
0000
000M
0000
,
000M
0000
3001
0000
0100
0000
0010
1000
0100
0000
0001
0100
0002
0000
0003
0100
,
1000
0000
0010
0100
0002
0000
1003
0010
0200
0000
0300
0000
1002
0000
M000
0000
,
M000
0000
1003
0000
0100
0000
0010
0100
0010
0000
0001
0100
2000
0000
3000
0100
,
0001
0000
0010
0100
1000
0000
0100
0001
0200
0000
0300
0000
2010
0000
00M0
0000
,
00M0
0000
3010
0000
0100
0000
0001
0010
1000
0000
0010
0001
0200
0000
0300
0010
,
1000
0000
0100
0010
0100
0000
1000
0100
2000
0000
3001
0000
1001
0000
0101
0000
,
2100
0000
3001
0100
0001
0000
0010
0000
0100
0000
1000
0100
1000
0000
0010
0000
,
0100
0000
0001
0000
0010
0000
0100
0000
1000
0000
0010
0000
0001
0000
0010
0000
1000
0000
0100
0000
0000
0002
0000
0000
,
0103
0000
0010
0000
0100
0001
0100
0010
0001
0100
0000
0010
2000
0000
0000
3001
,
0100
0010
0100
0001
1000
0100
0010
0100
1000
0020
0030
0100
0002
0003
0000
0000
,
2002
3003
0100
0010
0100
0002
0000
0103
2000
0000
3100
0001
0020
0000
0032
0000
,
0003
0000
1000
0100
1000
0010
1000
0100
0001
0000
0100
1000
0010
0000
2002
0000
,
3003
0000
0000
0000
0001
0000
0100
0000
0001
0000
1000
0001
1000
0000
0001
0000
0100
0000
0010
0000
1000
0000
0001
0000
0100
0000
1000
0000
0100
0000
0001
0000
,
0020
0130
1000
0001
0100
1000
0100
0001
0020
0130
1000
0100
1000
0010
0100
0010
,
0200
0000
0300
0000
2002
0000
3003
0000
0001
0000
0000
0010
0100
0000
1000
0000
,
1000
0000
0001
0100
0020
0000
0030
0000
1000
0000
0000
0001
0100
0000
0010
0000
,
1000
0000
0001
0100
0020
0000
0030
0000
1000
0000
0000
0100
0010
0000
0001
0000
,
0100
0000
0001
0100
0002
0003
2002
3003
0100
0000
0010
0000
1000
0000
1000
0000
,
0001
0000
0000
0100
0010
0000
0100
0000
0001
0000
0010
0000
0100
0000
1000
0000
,
0010
0000
0000
0100
0001
0000
1000
0000
0100
0000
0001
0000
0100
0000
1000
0000
,
0010
0000
0000
0100
0001
0000
1000
0000
0010
0000
0001
0000
0010
0000
1000
0000
,
0001
0010
0001
0010
0100
1000
0100
1000
0010
1000
0010
1000
0001
0100
0002
0000
,
1003
0000
0100
0000
1100
0000
0000
0001
1000
0000
0010
0000
0101
0000
0100
0010
,
0100
0000
0100
0000
0101
0000
0000
1000
0100
0000
1000
0000
1100
0000
0100
1000
,
0100
0000
0100
0000
1001
0000
0000
1000
0001
0000
0100
0000
0110
0000
0100
0010
,
0100
0000
0100
0000
0101
0000
0000
0010
1000
0000
0100
0000
0110
0000
0010
0000
,
0012
0000
1003
0100
0001
0000
0100
0000
0010
0000
0001
0100
2000
0000
3000
0000
,
0110
0100
0101
0001
1001
1000
1010
1001
,
0100
0000
0001
1000
0020
0000
0130
0000
0001
0000
0100
0010
2000
0000
3000
0000
,
0102
0103
0210
0310
0201
0301
1002
1003
,
1002
0000
0103
0000
0100
0000
0010
1000
0010
0000
0100
1000
0200
0000
0300
0001
,
0010
0100
0010
0100
1000
0001
1000
0001
2000
0000
0M00
0000
310M
0000
1001
0000
,
0102
0000
1003
0000
0100
0000
1000
0100
1000
0000
0100
0001
0200
0000
0300
1000
,
0010
0100
0001
1000
0010
0100
0001
1000
0020
0000
0M00
0000
M13M
0000
1010
0000
,
2001
0000
3001
0000
0010
0000
0100
1000
0010
0000
0100
0001
0020
0000
0030
0100
,
1000
0010
0100
0001
0010
0100
1000
0010
0200
0000
000M
0000
M3M1
0000
0011
0000
,
2100
0000
3001
0000
0100
0000
0010
1000
0010
0000
0100
1000
0200
0000
0300
0001
,
0010
0100
1000
0010
1000
0100
0010
0001
0200
0000
00M0
0000
M31M
0000
2001
0000
,
3001
0000
0100
0010
2000
0000
0000
3010
0000
0100
0010
0001
0010
0100
1000
0100
,
0002
0000
0013
0100
1000
0000
1001
0000
0100
0010
0100
0001
0020
0000
0030
0000
,
MMMM
0000
1100
0000
0102
0000
4000
0000
3003
0000
0001
0100
0001
0000
2002
3003
,
2002
3003
0100
0010
0100
0000
0001
0010
0100
1000
0100
0000
0002
0000
0000
0000
,
0003
0000
0000
0100
0000
0000
1000
0000
0000
0010
0000
0000
0100
0000
0001
0000
0010
0000
0100
0000
0000
0200
0000
0000
,
0300
1000
0100
0000
1000
0000
0020
0000
0130
0001
0000
0001
0010
0000
0200
0000
,
0300
0000
0000
0000
1000
0000
0001
0000
1000
0000
0001
1000
0001
0000
1000
0000
0010
0000
0100
0000
0001
0000
0100
0000
2000
0000
3100
0000
0001
0000
0010
0000
,
0100
1000
0010
1000
0200
0310
0001
0100
0001
0100
0010
1000
0100
1000
0001
0010
,
0200
0000
0000
0300
2002
0000
3003
0000
0001
0000
0000
0100
0020
0030
1000
0000
,
0100
0000
0010
0001
0010
0000
0001
0000
0100
0000
0010
1000
0010
0000
0100
0000
,
0010
0000
0100
0010
0100
0000
0001
0000
0010
0000
0100
0001
0100
0000
0010
0000
,
0001
0000
0100
0010
0100
0000
0001
0000
0100
0000
0100
0000
0010
0000
0010
0000
,
1000
0000
0000
0100
2000
0000
3100
0000
0001
0000
0100
0000
1000
0000
0010
0000
,
0100
0000
0000
0001
0200
0000
0310
0000
1000
0000
0100
0000
0010
0000
0100
0000
,
0001
0000
0000
0100
0020
0000
0031
0000
0100
0000
1000
0000
0100
0000
0001
0000
,
1000
0000
0000
0001
0200
0000
0301
0000
1002
0000
1003
0000
2100
0000
3100
0000
,
0010
0000
0000
2200
3300
0000
0000
0000
0010
0000
0000
0000
0202
0303
0000
0000
0100
0000
0000
0010
0000
2020
3030
0000
0001
0000
0000
0000
0022
0033
0000
0000
,
1000
0000
0000
0220
0330
0000
0000
0000
0001
0000
0000
0000
0202
0303
0000
0000
1000
0000
0000
0100
0000
0022
0033
0000
0100
0000
2000
3000
0020
0030
0000
0000
,
2002
3003
0000
0000
0000
0000
0000
0000
0000
0000
0000
0000
0000
0000
0000
0000
;

//---------------dance-single - Blank----------------
#NOTES:
     dance-single:
     Blank:
     Hard:
     8:
     0.841,1.000,0.133,0.886,0.214,501.000,14.000,93.000,6.000,0.000:





0000
0000
0000
0000
,
0000
0000
0000
0000
,
0000
0000
0000
0000
,
0000
0000
0000
0000
,
1000
0100
1000
0001
0100
0010
0100
1000
,
0200
0300
0000
0000
0200
0300
0000
0000
0200
0300
0000
0000
0200
0300
0000
0000
,
0001
0100
0010
0100
0001
0010
0200
0300
,
1000
0000
1000
0000
0001
0000
0001
0000
0100
0010
0100
0000
0002
0000
0000
0000
,
2003
3020
0230
0302
,
0023
0230
2300
3002
,
2003
3200
0302
0203
,
2300
3020
0032
0023
,
1030
0100
1000
0010
0100
0010
0100
0001
,
0010
0001
0010
0100
1000
0100
1000
1000
,
0001
0100
0010
0100
0001
0010
0100
0010
,
1000
0010
0100
0001
0100
0010
0001
0100
,
0200
0310
1000
0100
0001
0100
1000
0010
,
0100
0000
0001
0000
1000
0000
0010
0100
0010
0000
0400
0000
0000
0000
0300
0000
,
0001
1000
0100
1000
0010
0001
0010
1000
,
0100
0000
1000
0000
0001
0000
0010
0100
0010
0000
0004
0000
0000
0000
0003
0000
,
1000
0001
0010
0100
0010
0001
1000
0100
,
0010
0000
0100
0000
1000
0000
0001
0100
0001
0000
4000
0000
0000
0000
3000
0000
,
0001
0100
1000
0100
0001
0010
0100
1000
,
0010
0000
0100
0000
0001
0000
0100
0010
0100
0000
0004
0000
0000
0000
0003
0000
,
M1MM
0000
0010
0000
1000
0000
0100
0000
1000
0000
0001
0100
0001
0000
1000
0000
,
0001
0000
1000
0000
0001
0000
0100
0000
0001
0000
0010
0000
0001
0000
0100
0000
0010
0000
1000
0000
0000
0100
0000
0000
,
1000
0000
0010
0000
0100
0001
0100
0000
0010
0000
0100
0000
0004
0000
0000
0000
,
1003
0100
0001
0100
1000
0100
0200
0000
,
0300
0000
0001
0000
0010
0000
1000
0000
0010
0000
0001
0100
0004
0000
0000
0000
,
0003
0000
1000
0000
0010
0000
0001
0000
0010
0000
1000
0100
4000
0000
0000
0000
,
3000
0000
0001
0010
0001
0000
0100
0000
0010
0000
1000
0100
1000
0000
0001
0000
,
0100
0000
0010
0100
0010
0000
0100
0000
0001
0000
0010
0100
0010
0000
0100
0000
,
0020
0032
0023
0230
,
2300
3020
0032
0203
,
2300
3020
0032
0203
,
2300
0000
3020
0000
0230
0302
0203
2300
,
3200
0302
0023
2030
,
3200
0302
0023
2030
,
3200
0302
0023
0230
,
1300
0001
1000
0000
0001
1000
0001
1000
0001
0000
2002
3003
2002
3003
0000
0000
,
0100
0001
0100
1000
0100
0001
0010
0100
,
1000
0010
0001
0010
1000
0100
0200
0300
,
0010
0001
0100
0010
1000
0100
0001
0100
,
1000
0000
0010
0000
0100
0000
0010
0000
1000
0000
0002
0003
0002
0000
0003
0000
,
1000
0000
0010
0100
0010
0000
0100
0000
0001
0000
1000
0001
1000
0000
0100
0000
,
0010
0001
0100
1000
0100
0001
0020
0030
,
0100
0000
1000
0001
1000
0000
0010
0000
0100
0000
0001
0100
0001
0000
1000
0000
,
0001
0000
0001
0000
1000
0000
1000
0000
0001
0100
0001
0100
0002
0000
0000
0000
,
MMM3
1000
0100
0010
0100
1000
0010
0100
,
0010
0000
1000
0000
0010
0000
0100
0001
0100
0000
0004
0000
0000
0000
0003
0000
,
1000
0100
0001
0100
1000
0001
0100
1000
,
0100
0000
0001
0000
1000
0000
0010
0100
0010
0000
0400
0000
0000
0000
0300
0000
,
0001
0100
0010
0100
0001
0010
1000
0010
,
0001
0000
0100
0000
0010
0000
1000
0100
1000
0000
0004
0000
0000
0000
0003
0000
,
0100
0010
1000
0100
1000
0010
0001
0010
,
1000
0000
0001
0000
0100
0000
0010
0100
0010
0000
4000
0000
0000
0000
3000
0000
,
0001
0000
0100
0001
0100
0000
0010
0000
1000
0000
0100
0000
1000
0000
0001
0000
,
0100
0000
0001
0100
0001
0000
1000
0000
0100
0000
0010
0000
0001
0000
0100
0000
,
0010
0000
0100
0000
0100
0000
0001
0100
0001
0000
1000
0100
1000
0000
2002
3003
,
2002
3003
0100
0010
0100
0000
0001
0000
0100
0000
0010
0000
2000
0000
0000
0000
,
3000
0000
0000
0001
0000
0000
1000
0000
0000
0010
0000
0000
0100
0000
0010
0000
0100
0000
0001
0000
0000
0200
0000
0000
,
0300
0000
0010
0000
1000
0000
0100
0000
0010
0001
0000
0001
1000
0000
0001
0000
,
0000
0000
1000
0000
0100
0000
0010
0001
0010
0000
0001
0000
0100
0000
0010
1000
,
0010
0000
0100
0000
0100
0000
0010
0100
0010
0000
0100
0000
0001
0000
0010
0100
,
0010
0100
0001
0100
0010
0001
0100
0010
,
1000
0100
1000
0001
0100
0001
1000
0100
,
0010
0100
0001
0100
1000
0010
0100
0001
,
1000
0001
0100
0002
0023
0230
2300
3020
,
0230
0301
1000
0100
0001
0100
1000
0010
,
0001
0010
1000
0001
0100
0010
1000
0100
,
0010
0001
0100
0010
1000
0001
0100
0010
,
0100
1000
0100
0010
0001
0100
0010
1000
,
2002
3003
0202
0303
2200
3300
2002
3003
,
0220
0330
2020
3030
0022
0033
0220
0330
,
2200
3300
0000
0000
0000
0000
0000
0000
;
