#TITLE:Quasar Turbo;
#SUBTITLE:;
#ARTIST:Outphase;
#TITLETRANSLIT:;
#SUBTITLETRANSLIT:;
#ARTISTTRANSLIT:;
#CREDIT:;
#BANNER:quasarbx8.png;
#BACKGROUND:quasarbgio3.png;
#LYRICSPATH:;
#CDTITLE:;
#MUSIC:Quasar.mp3;
#OFFSET:-0.620;
#SAMPLESTART:31.452;
#SAMPLELENGTH:9.720;
#SELECTABLE:YES;
#BPMS:0.000=194.101;
#STOPS:;
#BGCHANGES:0.000=quasar.avi=1.000=1=1=0,
313.500=quasarbgio3.png=1.000=0=0=1,
99999=-nosongbg-=1.000=0=0=0 // don't automatically add -songbackground-
;
// cache tags:
#FIRSTBEAT:7.000;
#LASTBEAT:315.000;
#SONGFILENAME:Songs/toune 2/Quasar/Quasar.sm;
#HASMUSIC:1;
#HASBANNER:1;
#MUSICLENGTH:103.758;
// end cache tags

//---------------dance-single - Version 1.2----------------
#NOTES:
     dance-single:
     Version 1.2:
     Challenge:
     11:
     1.000,1.000,0.501,0.357,1.000,820.000,52.000,37.000,0.000,7.000:
0000
0000
0000
0000
,
0000
0000
0000
0010
,
0010
0010
0010
0100
,
0010
1000
0010
0100
,
0001
0010
1000
1000
,
0001
0000
0000
0000
0010
0000
1000
0001
1000
0000
0101
0000
1010
0000
0100
0000
,
0010
0100
0001
1000
0010
0001
0100
0010
,
1000
0001
0100
1000
0001
0010
1000
0010
,
1000
0001
0100
1000
0010
0100
0001
1000
,
0001
0010
0100
0010
1000
0001
0101
1010
,
0001
0100
0001
1000
0010
0001
0100
0010
,
1000
0001
0100
1000
0010
1000
0001
0010
,
0001
1000
0100
0010
1000
0100
0100
1000
,
0110
0000
1000
0000
0011
0000
0100
0000
1100
0000
0010
0000
0100
0010
1000
0010
,
0100
0001
0010
1000
0001
0100
1000
0010
0100
0001
1000
0100
0010
0001
0100
0001
,
0100
1000
0001
0010
0100
1000
0001
0100
0011
0000
1100
0000
0001
0100
0010
1000
,
0001
0100
0010
1000
0001
0010
1000
0010
0100
0001
1000
0010
0001
0100
1000
0010
,
0100
0001
0010
1000
0100
0001
0100
0010
1001
0000
1010
0000
0100
0001
0010
0001
,
1000
0010
0100
0001
1000
0010
0100
0001
0010
1000
0100
0001
0010
0100
0001
0010
,
0100
1000
0010
0001
1000
0010
0100
0001
1010
0000
0101
0000
0100
0010
1000
0010
,
0100
0001
1000
0010
1000
0001
0100
0010
1000
0100
0001
1000
0100
0010
1000
0001
,
0100
0010
1000
0010
0100
0001
1000
0010
1001
0000
1001
0000
0100
0010
1000
0001
,
0100
0010
1000
0100
0001
0010
1100
0000
0011
0000
0011
0000
1100
0000
0011
0000
,
0011
0000
1100
0000
0011
0000
0011
0000
1100
0000
0011
0000
1000
0010
0100
0001
,
0010
1000
0100
0010
1000
0100
0011
0000
1100
0000
1100
0000
0011
0000
1100
0000
,
1100
0000
0011
0000
1100
0000
1100
0000
0011
0000
1100
0000
0001
0100
1000
0010
,
0001
0100
1000
0010
1000
0001
0110
0000
1001
0000
1001
0000
0110
0000
1001
0000
,
1001
0000
0010
0100
1000
0100
0010
0001
0100
1000
0010
0001
0100
1000
0010
1000
,
0010
0001
0100
1000
0010
0001
0100
0001
0010
1000
0010
1000
0001
0000
0000
0000
,
0000
0000
0000
2000
,
0000
3020
0000
0230
,
0000
0302
0000
2003
,
0000
3020
0000
2030
,
0000
3002
0000
2003
,
0000
3020
0000
0230
,
0000
2320
0000
3232
,
0000
0000
0000
0000
2323
0000
0000
0000
0000
0000
0000
0030
3220
0000
0000
0000
,
0000
0000
0000
0000
2332
0000
0000
0000
0000
0000
0000
0000
3103
0010
0100
1000
,
0010
0100
0001
1000
0100
0001
0010
1000
0010
0100
0001
1000
0100
1000
0100
0001
,
1000
0010
0100
0001
0010
1000
0001
0100
0010
1000
0010
0001
0100
0010
1000
0010
,
0001
0100
1000
0010
0001
1000
0010
0100
0001
0100
0001
0010
1000
0010
0001
0100
,
0010
1000
0010
1000
0100
0001
0010
1000
0001
0100
0001
0100
1000
0001
0100
0001
,
0010
0100
0010
1000
0001
0010
1000
0100
0010
0100
0010
1000
0010
1000
0100
0001
,
0100
0010
1000
0001
0010
1000
0100
0001
0100
0001
0010
1000
0010
0100
0010
0100
,
1000
0010
1000
0010
0100
0001
1000
0010
0100
1000
0010
0001
0100
1000
0010
1000
,
0010
0100
0001
1000
0010
0100
0001
0010
0100
1000
0010
1000
0010
0001
0100
1000
,
0010
0100
0010
1000
0010
0001
0100
0010
0001
0100
0001
0100
1000
0010
0001
0100
,
1000
0010
1000
0010
1000
0100
0001
0100
0010
0001
1000
0010
0001
0100
0001
0100
,
1000
0010
1000
0100
0001
0010
1000
0010
0100
0001
0100
0010
0100
0010
0001
0100
,
0010
1000
0100
0001
0010
1000
0010
1000
0100
0001
0100
0010
1000
0001
0010
0100
,
0010
1000
0100
1000
0100
0010
0001
0100
0001
1000
0100
0001
0010
0100
1000
0010
,
0001
0010
1000
0100
0010
0100
0001
0010
0100
1000
0001
0100
0001
1000
0010
1000
,
0010
0001
1000
0010
0100
0001
0100
0001
0010
1000
0100
0001
0010
1000
0010
0001
,
0100
1000
0010
1000
0001
0000
0010
0000
1000
0000
0100
0000
1000
0010
0100
1000
,
0010
0001
0100
0001
1000
0100
1000
0010
0100
1000
0010
0001
1000
0010
0100
0010
,
0100
0001
0100
0001
0100
1000
0010
0100
0001
1000
0001
1000
0001
0100
0010
0100
,
1000
0010
0100
0001
0100
1000
0010
1000
0001
0100
0010
0100
1000
0001
0010
0001
,
1000
0100
0010
0100
0001
1000
0010
0100
0010
0100
1000
0001
0100
1000
0010
0001
,
0100
1000
0010
1000
0010
0001
0100
0001
0100
0001
0010
1000
0100
0001
0010
1000
,
0100
0001
1000
0100
0001
0100
0001
0010
1000
0001
0010
0100
0001
1000
0100
0010
,
1000
0010
1000
0010
1000
0001
0100
0001
0010
1000
0100
0001
0010
0100
1000
0010
,
1000
0010
0001
0100
1000
0000
0010
0100
0010
0000
0100
0001
0010
1000
0100
0001
,
0010
0100
1000
0010
0100
0010
0100
0010
1000
0001
0100
0001
0010
1000
0010
0100
,
1000
0010
0001
0010
1000
0100
0001
0010
1000
0100
1000
0010
1000
0010
0001
0100
,
0010
1000
0010
1000
0100
0001
0100
0001
0010
0001
0010
1000
0100
0001
0010
1000
,
0100
0001
0100
0010
1000
0010
1000
0100
0001
0100
0001
1000
0010
1000
0010
0100
,
0001
0010
1000
0010
0100
0010
1000
0010
0001
0100
0010
1000
0100
0010
1000
0100
,
0001
0010
1000
0100
0010
1000
0001
0100
0001
0100
1000
0001
1000
0100
0001
0010
,
1000
0100
1000
0010
0100
0001
0010
0001
0100
1000
0100
0010
1000
0001
1000
0001
,
0010
0100
0010
0100
0001
0100
0001
0100
0001
0010
2200
0000
0000
0000
0000
0000
,
0000
3300
0000
0000
0000
0000
0000
0000
,
0000
0000
0000
2000
,
0000
3020
0000
2030
,
0000
3020
0000
2030
,
0000
3200
0000
0302
,
0000
0203
0000
2302
,
0000
0000
0000
3003
0000
0000
2020
0000
,
0000
0000
0000
3030
0000
0000
0202
0000
,
0000
0000
0000
0303
0000
0000
0000
0000
;

//---------------dance-single - ----------------
#NOTES:
     dance-single:
     :
     Medium:
     10:
     0.942,1.000,0.771,0.299,0.405,573.000,80.000,31.000,0.000,1.000:
0000
0000
0000
0000
,
0000
0000
0000
0100
,
0100
0100
0100
0100
,
0100
0100
0100
0001
,
1000
0010
1000
0001
,
0100
0000
1000
0001
1000
0010
0101
0000
,
0010
1000
0100
0010
,
0001
0010
0110
1000
,
0100
0110
1000
0010
,
0100
0000
1000
0000
0100
1000
0010
0100
,
0001
1000
0100
0010
1000
0010
0100
1000
,
0001
0100
0010
0001
0100
0001
1000
0001
,
0100
1000
0010
1000
0001
1000
0010
1000
,
0100
0001
1000
0001
0100
0001
0010
1000
,
0001
1000
0010
1000
0100
0001
1000
0001
,
0100
0001
0010
1000
0101
1010
0010
1000
,
0100
0001
1000
0001
0100
1000
0010
0100
,
0010
1000
0010
1000
0100
0001
1000
0010
,
0100
1000
0010
0100
0001
1000
0010
1000
,
0100
0001
1000
0010
0100
1000
0010
0100
,
0001
1000
0010
0001
0100
0010
1000
1010
,
0001
0000
1010
0000
0101
0000
1000
0000
0001
0000
0100
0000
1000
0010
1000
0010
,
1000
0001
0100
0001
0100
0000
0010
0000
0100
0000
1000
0000
1010
0000
0101
0000
,
0001
0000
1000
0000
0010
0000
1000
0000
0100
0000
0001
0000
1000
0001
0010
1000
,
0100
0010
1000
0100
0010
0000
0100
0000
0001
0000
1000
0000
1010
0000
0101
0000
,
0100
0000
1000
0000
0100
0000
0010
0000
1000
0000
0001
0000
1000
0010
0100
0001
,
1000
0010
0100
0001
1000
0000
0101
0000
1000
0000
0101
0000
0010
0000
0100
0000
,
1000
0000
0010
0000
0001
0000
0100
0000
1000
0000
0010
0000
1000
0100
0001
0010
,
1000
0010
0100
0001
1000
0010
0100
0001
1000
0001
0100
0010
2000
0000
0000
0000
,
0000
0100
0010
3020
,
0000
2030
0001
3020
,
0100
2030
0100
3020
,
0001
2030
0001
3002
,
0100
2003
0001
3002
,
1000
2003
0001
3020
,
0100
2030
0100
3020
,
0001
2030
0100
3002
,
0100
0000
0203
0000
0001
0300
1000
0100
,
1000
0001
0010
1000
0100
1000
0010
0100
,
0001
0100
0010
1000
0100
0001
1000
0010
,
0100
1000
0010
0100
0001
1000
0010
0001
,
0100
0010
1000
0010
0100
1000
0010
0100
,
0001
0100
0010
1000
0100
0001
1000
0010
,
0100
1000
0010
1000
0001
0100
0010
0001
,
0100
0010
1000
0010
0100
1000
0010
0100
,
0001
1000
0010
1000
0100
0001
1010
0010
,
0101
1000
0110
1000
0101
1000
0110
1000
,
0110
0001
1010
0001
0110
1000
0110
1000
,
0101
1000
0110
1000
0110
0001
1010
0100
,
1010
0001
0110
1000
0110
0010
1001
0100
,
0011
0100
1100
0010
1001
1000
0110
0100
,
1010
0010
0101
1000
0011
0100
1100
0010
,
1001
0100
1100
0010
0101
0010
1100
0100
,
0011
0100
1010
0100
0101
1000
0110
1000
,
0101
1000
0011
0100
1010
0010
1001
0100
,
1010
0100
0110
1000
0011
0100
1010
1000
,
0101
1000
0110
0001
1100
0001
0110
1000
,
0011
1000
0110
0001
1010
0001
1100
1000
,
0011
0100
1010
0001
0110
0010
1001
0100
,
1010
0001
0110
1000
0101
0010
1010
0001
,
1010
0100
1010
0001
1100
1000
0110
0001
,
1100
0000
0001
0000
1100
0000
0010
0000
1100
0000
0010
0000
1000
0010
1000
0010
,
1000
0010
1000
0010
0100
0001
0100
0001
0100
0001
0100
0001
0010
1000
0010
1000
,
0010
1000
0010
1000
0001
0100
0001
0100
0001
0100
0001
0100
0010
1000
0010
1000
,
0010
1000
0010
1000
0001
0100
0001
0100
0001
1000
0001
1000
0010
0100
0010
0100
,
0010
1000
0010
1000
0001
0010
0001
0010
0100
1000
0100
1000
0010
0100
0010
0100
,
0010
1000
0010
0001
0100
0010
1000
0001
0010
1000
0100
0001
0010
0100
0010
1000
,
0010
0100
0001
0010
1000
0010
0100
0001
0100
1000
0010
0100
0001
1000
0010
0001
,
0100
1000
0010
0100
1000
0010
0100
0001
0010
1000
0100
0001
0010
1000
0100
0001
,
0010
0001
0010
0100
1000
0100
1000
0010
0100
0010
0100
0001
2020
0000
0000
0000
,
0000
0000
0000
0000
,
0000
0000
0000
0000
0000
3030
0002
0000
,
0000
2003
0000
3020
,
0000
2030
0000
3002
,
0000
0023
0000
2030
,
0000
3002
0000
0203
,
0000
0000
0000
2300
,
0000
0000
0000
3202
,
0000
0000
0000
0303
;
