#TITLE:Alma Oscura;
#SUBTITLE:;
#ARTIST:HYPEREKPLEXIA;
#TITLETRANSLIT:;
#SUBTITLETRANSLIT:;
#ARTISTTRANSLIT:;
#CREDIT:;
#BANNER:../Banner.png;
#BACKGROUND:../BG.png;
#LYRICSPATH:;
#CDTITLE:../CDTitleKIRBY.png;
#MUSIC:HYPEREKPLEXIA - Alma Oscura.ogg;
#OFFSET:-0.089;
#SAMPLESTART:99.911;
#SAMPLELENGTH:25.000;
#SELECTABLE:YES;
#BPMS:0.000=187.000;
#STOPS:;
#BGCHANGES:;
// cache tags:
#FIRSTBEAT:104.000;
#LASTBEAT:1268.000;
#SONGFILENAME:Songs/Index Tesseract/Alma Oscura - [Kirby5464]/Alma Oscura.sm;
#HASMUSIC:1;
#HASBANNER:1;
#MUSICLENGTH:410.253;
// end cache tags

//---------------dance-single - ----------------
#NOTES:
     dance-single:
     :
     Challenge:
     20:
     1.000,1.000,0.051,0.110,1.000,3863.000,21.000,45.000,1.000,0.000:
0000
0000
0000
0000
,
0000
0000
0000
0000
,
0000
0000
0000
0000
,
0000
0000
0000
0000
,
0000
0000
0000
0000
,
0000
0000
0000
0000
,
0000
0000
0000
0000
,
0000
0000
0000
0000
,
0000
0000
0000
0000
,
0000
0000
0000
0000
,
0000
0000
0000
0000
,
0000
0000
0000
0000
,
0000
0000
0000
0000
,
0000
0000
0000
0000
,
0000
0000
0000
0000
,
0000
0000
0000
0000
,
0000
0000
0000
0000
,
0000
0000
0000
0000
,
0000
0000
0000
0000
,
0000
0000
0000
0000
,
0000
0000
0000
0000
,
0000
0000
0000
0000
,
0000
0000
0000
0000
,
0000
0000
0000
0000
,
0000
0000
0000
0000
,
0000
0000
0000
0000
,
1000
0100
0010
0001
1000
0010
0100
0001
1000
0001
0010
0100
1000
0010
0100
0010
,
1000
0100
1000
0001
0010
0001
1000
0100
0010
0100
1000
0001
0100
0010
1000
0000
,
0000
0000
0000
0000
,
0001
0010
0100
1000
0001
0100
0010
1000
0001
1000
0100
0010
0001
0100
0010
0100
,
0001
0010
0001
1000
0100
1000
0001
0010
0100
0010
0001
1000
0010
0000
0000
0000
,
1000
0100
0010
0001
1000
0010
0100
0001
0010
0001
1000
0100
1000
0001
0010
0100
0010
0001
1000
0010
1000
0100
0010
0001
,
1000
0010
0100
0001
0010
0100
1000
0010
0100
0010
1000
0100
1000
0001
0010
0001
,
1000
0100
0010
0100
1000
0001
0100
0010
1000
0100
0010
0001
1000
0010
0100
0001
,
1000
0001
0010
0100
1000
0010
0100
0010
1000
0100
1000
0001
0010
0001
1000
0100
,
0010
0100
1000
0001
0100
0010
1000
0001
0010
0100
0010
0001
1000
0010
0100
0001
,
1000
0000
0100
0000
0010
0000
0001
0000
1000
0000
0010
0000
0100
0000
0000
0001
0000
0000
1000
0000
0000
0001
0000
0000
0010
0000
0000
0100
0000
0000
1000
0000
0000
0001
0000
0000
1000
0000
0000
0010
0000
0000
0100
0000
0000
0001
0000
0000
,
1000
0000
0100
0000
0010
0000
0001
0000
0000
1000
0000
0000
0010
0000
0000
0100
0000
0000
0001
0000
0000
1000
0000
0000
0001
0000
0000
0010
0000
0000
0100
0000
0000
1000
0000
0000
0010
0000
0000
0100
0000
0000
0010
0000
0000
1000
0000
0000
,
0100
1000
0001
0010
0001
1000
0100
0010
0100
1000
0001
0100
0010
1000
0001
0100
,
0010
0000
1000
0000
0001
0000
1000
0000
0100
0000
0010
0000
0001
0000
0000
1000
0000
0000
0010
0000
0000
0100
0000
0000
0001
0000
0000
0010
0000
0000
0100
0000
0000
1000
0000
0000
0001
0000
0000
1000
0000
0000
0010
0000
0000
0100
0000
0000
,
0001
0000
1000
0000
0010
0000
0100
0000
0000
0001
0000
0000
1000
0000
0000
0010
0000
0000
1000
0000
0000
0100
0000
0000
0010
0000
0000
0001
0000
0000
1000
0000
0000
0100
0000
0000
1000
0000
0000
0001
0000
0000
0010
0000
0000
0001
0000
0000
,
1000
0100
0010
0100
1000
0001
0100
0001
0010
0100
1000
0001
0010
0001
1000
0010
,
0100
0000
0001
0000
1000
0000
0010
0000
0000
1000
0000
0000
0001
0000
0000
0010
0000
0000
0100
0000
0000
1000
0000
0000
0010
0000
0000
0100
0000
0000
0010
0000
0000
1000
0000
0000
0001
0000
0000
0000
0000
0000
0000
0000
0000
0000
0000
0000
,
0001
1000
0100
0010
0001
1000
0001
0100
0010
1000
0100
0010
0001
1000
0010
0100
,
0001
1000
0001
0010
0100
1000
0010
0100
0010
1000
0100
1000
0001
0010
0001
1000
,
0100
0010
0100
1000
0001
0100
0010
1000
0001
0010
0100
0010
0001
1000
0010
0100
,
0001
1000
0100
0010
0001
1000
0100
0010
0100
1000
0001
0100
0001
0010
0100
1000
0010
0100
0010
1000
0100
1000
0001
0100
,
0001
0010
0100
1000
0001
1000
0010
0100
0001
0010
0100
1000
0001
0100
0010
1000
,
0001
1000
0100
0010
0001
0100
0010
0100
0001
0010
0001
1000
0100
1000
0001
0010
,
0100
0010
0001
1000
0010
0100
0001
1000
0100
0010
0100
1000
0001
0100
0010
1000
,
0001
0100
0001
0010
0100
1000
0001
0010
0001
1000
0100
1000
0001
0010
0100
0010
,
0001
1000
0010
1000
0100
0010
0001
1000
0100
1000
0001
0010
0100
1000
0001
0100
,
0010
0000
1000
0000
0001
0000
1000
0000
0100
0000
0010
0000
0001
0000
0000
1000
0000
0000
0100
0000
0000
1000
0000
0000
0010
0000
0000
0100
0000
0000
0001
0000
0000
0010
0000
0000
0001
0000
0000
1000
0000
0000
0100
0000
0000
0010
0000
0000
,
0001
0000
0100
0000
0010
0000
1000
0000
0000
0001
0000
0000
0010
0000
0000
0100
0000
0000
0010
0000
0000
0001
0000
0000
1000
0000
0000
0100
0000
0000
0010
0000
0000
0001
0000
0000
1000
0000
0000
0001
0000
0000
0100
0000
0000
0010
0000
0000
,
1000
0100
0010
0001
1000
0010
0100
0001
1000
0001
0010
0100
1000
0010
0100
0010
,
1000
0000
0100
0000
1000
0000
0001
0000
0100
0000
0001
0000
0010
0000
0000
0001
0000
0000
1000
0000
0000
0100
0000
0000
0010
0000
0000
0100
0000
0000
1000
0000
0000
0001
0000
0000
0100
0000
0000
0010
0000
0000
1000
0000
0000
0001
0000
0000
,
0010
0100
0010
0001
1000
0010
0100
0001
1000
0010
1000
0100
0010
0001
1000
0100
,
1000
0001
0010
0001
1000
0100
0010
0100
1000
0001
0100
0001
0010
0100
1000
0001
,
0010
0000
0001
0000
1000
0000
0100
0000
0010
0000
0001
0000
0100
0000
0000
0010
0000
0000
1000
0000
0000
0001
0000
0000
0100
0000
0000
0001
0000
0000
0010
0000
0000
0100
0000
0000
1000
0000
0000
0001
0000
0000
0010
0000
0000
0001
0000
0000
,
1000
0000
0001
0100
0001
0000
1000
0010
,
1000
0010
1000
0000
0001
0100
0000
0000
,
0001
0010
0100
1000
0001
1000
0010
0100
0001
0010
0100
1000
0001
0100
0010
1000
,
0001
1000
0100
0010
0001
0100
0010
0100
0001
0010
0001
1000
0100
1000
0001
0010
,
0100
0010
0001
1000
0010
0100
0001
1000
0100
0010
0100
1000
0001
0100
0010
1000
,
0001
0100
0001
0010
0100
1000
0001
0010
0001
1000
0100
1000
0001
0010
0100
0010
,
0001
1000
0010
1000
0100
0010
0001
1000
0100
1000
0001
0010
0100
1000
0001
0100
,
0001
0010
0100
1000
0001
1000
0010
0100
0001
0010
0100
1000
0001
0100
0010
1000
,
0001
1000
0100
0010
0001
0100
0010
0100
0001
0010
0001
1000
0100
1000
0001
0010
,
0100
0010
0001
1000
0010
0100
0001
1000
0100
0010
0100
1000
0001
0100
0010
0000
,
0000
0000
0000
0000
,
2002
3003
0001
0000
0000
0000
0000
0000
0000
0000
0000
0000
0000
0000
0000
0000
,
0000
0000
0000
0000
,
2002
3003
0000
0000
0000
0000
1000
0000
0000
0000
0000
0000
0001
0000
0000
0000
0000
0000
0000
0000
0000
0000
0000
0000
2020
3030
0000
0000
0000
0000
1000
0000
0000
0000
0000
0000
0010
0000
0000
0000
0000
0000
0100
0000
0000
0000
0000
0000
,
0001
0010
0100
1000
0010
0100
0010
1000
0100
1000
0001
0010
0001
1000
0100
0010
,
0100
1000
0001
0100
0010
1000
0100
0010
0001
1000
0010
0100
0001
1000
0001
0010
,
0100
1000
0010
0100
0010
1000
0100
1000
0001
0010
0001
1000
0100
0010
0100
1000
,
0001
0100
0010
1000
0001
0010
0100
0010
0001
1000
0010
0100
0001
0010
0100
1000
,
0010
0100
0010
1000
0100
1000
0001
0010
0001
1000
0100
0010
0100
1000
0001
0100
,
0010
1000
0100
0010
0001
1000
0010
0100
0001
1000
0001
0010
0100
1000
0010
0100
,
0010
1000
0100
1000
0001
0010
0001
1000
0100
0010
0100
1000
0001
0100
0010
1000
,
0001
0010
0100
0010
0001
1000
0010
0100
0001
0010
0100
1000
0010
0000
0100
0000
,
0001
1000
0010
0100
0001
1000
0100
0010
0100
1000
0001
0100
0010
1000
0100
0010
,
0001
1000
0010
0100
0001
1000
0001
0010
0100
1000
0010
0100
0010
1000
0100
1000
,
0001
0010
0001
1000
0100
0010
0100
1000
0001
0100
0010
1000
0001
0010
0100
0010
,
0001
1000
0010
0100
0001
0010
0100
1000
0010
0100
0010
1000
0100
1000
0001
0010
,
0001
1000
0100
0010
0100
1000
0001
0100
0010
1000
0100
0010
0001
1000
0010
0100
,
0001
1000
0001
0010
0100
1000
0010
0100
0010
1000
0100
1000
0001
0010
0001
1000
,
0100
0010
0100
1000
0001
0100
0010
1000
0001
0010
0100
0010
0001
1000
0010
0100
,
0001
0010
0100
1000
0010
0100
0010
1000
0100
1000
0001
0010
0001
0000
1000
0000
,
0001
1000
0001
0100
0010
1000
0100
0010
0001
1000
0010
0100
0001
1000
0001
0010
,
0100
1000
0010
0100
0010
1000
0100
1000
0001
0010
0001
1000
0100
0010
0100
1000
,
0001
0100
0010
1000
0001
0010
0100
0010
0001
1000
0010
0100
0001
0010
0100
1000
,
0010
0100
0010
1000
0100
1000
0001
0010
0001
1000
0100
0010
0100
1000
0001
0100
,
0010
1000
0100
0010
0001
1000
0010
0100
0001
1000
0001
0010
0100
1000
0010
0100
,
0010
1000
0100
1000
0001
0010
0001
1000
0100
0010
0100
1000
0001
0100
0010
1000
,
0001
0010
0100
0010
0001
1000
0010
0100
0001
0010
0100
1000
0010
0100
0010
1000
,
0100
1000
0001
0010
0001
1000
0100
0010
0100
1000
0001
0100
0010
0000
1000
0000
,
0001
1000
0010
0100
0001
1000
0001
0010
0100
1000
0010
0100
0010
1000
0100
1000
,
0001
0010
0001
1000
0100
0010
0100
1000
0001
0100
0010
1000
0001
0010
0100
0010
,
0001
1000
0010
0100
0001
0010
0100
1000
0010
0100
0010
1000
0100
1000
0001
0010
,
0001
1000
0100
0010
0100
1000
0001
0100
0010
1000
0100
0010
0001
1000
0010
0100
,
0001
1000
0001
0010
0100
1000
0010
0100
0010
1000
0100
1000
0001
0010
0001
1000
,
0100
0010
0100
1000
0001
0100
0010
1000
0001
0010
0100
0010
0001
1000
0010
0100
,
0001
1000
0100
0010
0001
1000
0100
0010
0100
1000
0001
0100
0001
0010
0100
1000
,
0010
1000
0001
0100
0001
0010
0100
1000
,
0001
0010
0100
1000
0010
0100
0010
1000
0100
1000
0001
0010
0001
1000
0100
0010
,
0100
1000
0001
0100
0010
1000
0100
0010
0001
1000
0010
0100
0001
1000
0001
0010
,
0100
1000
0010
0100
0010
1000
0100
1000
0001
0010
0001
1000
0100
0010
0100
1000
,
0001
0100
0010
1000
0001
0010
0100
0010
0001
1000
0010
0100
0001
1000
0100
0010
,
0001
1000
0100
0010
0100
1000
0001
0100
0001
0010
0100
1000
0010
0100
0010
1000
,
0100
1000
0001
0010
0001
1000
0100
0010
0001
1000
0010
0100
0001
1000
0001
0010
,
0100
1000
0001
0000
0010
0000
0100
0000
1000
0000
0001
0000
0100
0000
0010
0000
,
1000
0100
1000
0001
0100
0001
1000
0001
,
1000
0010
0100
0001
0010
0001
1000
0100
1000
0001
0010
0100
0010
0001
1000
0010
,
0100
0001
0010
0100
1000
0001
0100
0010
1000
0001
1000
0100
0010
0001
0100
0010
,
0100
0001
0010
0001
1000
0100
1000
0001
0010
0100
0010
0001
1000
0010
0100
0001
,
1000
0100
0010
0100
1000
0001
0100
0010
1000
0001
0010
0100
1000
0010
0100
0010
,
1000
0100
1000
0001
0010
0001
1000
0100
0010
0100
1000
0001
0100
0010
1000
0100
,
0010
0001
1000
0010
0100
0001
1000
0001
0010
0100
1000
0010
0100
0010
1000
0100
,
1000
0001
0010
0001
1000
0100
0010
0100
1000
0001
0100
0010
1000
0001
0010
0100
,
0010
0001
1000
0100
1000
0001
0010
0100
,
1000
0001
0010
0100
1000
0010
0100
0010
1000
0100
1000
0001
0100
0000
0000
0000
,
1000
0100
1000
0001
0100
0010
1000
0100
0010
0001
1000
0010
0100
0001
1000
0001
,
0010
0100
1000
0010
0100
0010
1000
0100
1000
0001
0010
0001
1000
0000
0000
0000
,
1000
0001
0100
0010
1000
0001
0010
0100
0010
0001
1000
0010
0100
0000
0000
0000
,
0001
0100
0001
1000
0100
1000
0001
0010
0001
1000
0100
0010
0100
1000
0001
0100
,
0010
1000
0100
0010
0001
1000
0010
0100
0001
1000
0001
0100
0010
0000
0000
0000
,
0001
1000
0100
1000
0001
0010
0001
1000
0100
0010
0100
1000
0001
0000
0000
0000
,
1000
0010
1000
0001
0100
0010
1000
0001
0010
0100
1000
0001
0100
0010
1000
0001
,
1000
0010
0100
0001
1000
0100
0010
0100
1000
0001
0100
0010
1000
0000
0000
0000
,
1000
0010
0100
0001
1000
0001
0010
0100
1000
0010
0100
0010
1000
0100
1000
0001
,
0010
0001
1000
0100
0010
0100
1000
0001
0100
0010
1000
0001
0010
0100
0010
0001
,
1000
0010
0100
0001
0010
0100
1000
0010
0100
0010
1000
0100
1000
0001
0010
0001
,
1000
0100
0010
0001
1000
0010
0100
0001
1000
0001
0010
0100
1000
0010
0100
0010
1000
0100
1000
0001
0010
0001
0100
0010
,
1000
0001
0010
0100
1000
0010
0100
0010
1000
0100
1000
0001
0010
0001
1000
0100
,
0010
0100
1000
0001
0100
0010
1000
0001
0010
0100
0010
0001
1000
0010
0100
0001
,
0010
0100
1000
0010
0100
0010
1000
0100
1000
0001
0010
0001
1000
0100
0010
0001
,
1000
0010
0100
0001
1000
0001
0010
0100
1000
0010
0100
0010
1000
0100
1000
0001
0010
0001
1000
0100
0010
0100
1000
0001
,
0100
0001
0010
0100
1000
0010
0100
0010
1000
0100
1000
0001
0010
0001
1000
0100
0010
0001
1000
0010
1000
0100
0010
0001
,
1000
0100
1000
0001
0010
0001
1000
0010
0100
0001
1000
0001
0010
0100
1000
0010
0100
0001
1000
0100
0010
0001
1000
0100
,
0010
0100
1000
0001
0100
0001
0010
0100
1000
0001
0010
0100
0010
0001
1000
0100
1000
0001
0100
0010
1000
0100
0010
0001
,
1000
0000
0000
0000
,
0000
0000
0000
0000
,
0000
0000
0000
0000
,
0000
0000
0000
0000
,
0000
0000
0000
0000
,
0000
0000
0000
0000
,
0000
0000
0000
0000
,
0000
0000
0000
0000
,
0001
0010
0100
1000
0010
0100
0010
1000
0100
1000
0001
0010
0001
1000
0100
0010
,
0100
1000
0001
0100
0010
1000
0100
0010
0001
1000
0010
0100
0001
1000
0001
0010
,
0100
1000
0010
0100
0010
1000
0100
1000
0001
0010
0001
1000
0100
0010
0100
1000
,
0001
0100
0010
1000
0001
0010
0100
0010
0001
1000
0010
0100
0001
0010
0100
1000
,
0010
0100
0010
1000
0100
1000
0001
0010
0001
1000
0100
0010
0100
1000
0001
0100
,
0010
1000
0100
0010
0001
1000
0010
0100
0001
1000
0001
0010
0100
1000
0010
0100
,
0010
1000
0100
1000
0001
0010
0001
1000
0100
0010
0100
1000
0001
0100
0010
1000
,
0001
0010
0100
0010
0001
1000
0010
0100
0001
0010
0100
1000
0010
0000
0000
0000
,
0001
1000
0010
0100
0001
1000
0100
0010
0100
1000
0001
0100
0010
1000
0100
0010
,
0001
1000
0010
0100
0001
1000
0001
0010
0100
1000
0010
0100
0010
1000
0100
1000
,
0001
0010
0001
1000
0100
0010
0100
1000
0001
0100
0010
1000
0001
0010
0100
0010
,
0001
1000
0010
0100
0001
0010
0100
1000
0010
0100
0010
1000
0100
1000
0001
0010
,
0001
1000
0100
0010
0100
1000
0001
0100
0010
1000
0100
0010
0001
1000
0010
0100
,
0001
1000
0001
0010
0100
1000
0010
0100
0010
1000
0100
1000
0001
0010
0001
1000
,
0100
0010
0100
1000
0001
0100
0010
1000
0001
0010
0100
0010
0001
1000
0010
0100
,
0001
0010
0100
1000
0010
0100
0010
1000
0100
1000
0001
0010
0001
1000
0100
0010
,
0001
0000
0000
0000
,
0000
0000
0000
0000
,
0000
0000
0000
0000
,
0000
0000
0000
0000
,
1000
0100
0010
0001
0100
0010
0100
0001
0010
0001
1000
0100
1000
0001
0010
0100
,
0010
0001
1000
0010
0100
0001
0010
0100
1000
0001
0100
0010
1000
0001
1000
0100
,
0010
0001
0100
0010
0100
0001
0010
0001
1000
0100
1000
0001
0010
0100
0010
0001
,
1000
0010
0100
0001
1000
0100
0010
0100
1000
0001
0100
0010
1000
0100
0010
0001
,
0100
0010
0100
0001
0010
0001
1000
0100
1000
0001
0010
0100
0010
0001
1000
0010
,
0100
0001
0010
0100
1000
0001
0100
0010
1000
0001
1000
0100
0010
0001
0100
0010
,
0100
0001
0010
0001
1000
0100
1000
0001
0010
0100
0010
0001
1000
0010
0100
0001
,
1000
0100
0010
0100
1000
0001
0100
0010
1000
0100
0010
0001
0100
0000
0000
0000
,
1000
0001
0100
0010
1000
0001
0010
0100
0010
0001
1000
0010
0100
0001
0010
0100
,
1000
0001
0100
0010
1000
0001
1000
0100
0010
0001
0100
0010
0100
0001
0010
0001
,
1000
0100
1000
0001
0010
0100
0010
0001
1000
0010
0100
0001
1000
0100
0010
0100
,
1000
0001
0100
0010
1000
0100
0010
0001
0100
0010
0100
0001
0010
0001
1000
0100
,
1000
0001
0010
0100
0010
0001
1000
0010
0100
0001
0010
0100
1000
0001
0100
0010
,
1000
0001
1000
0100
0010
0001
0100
0010
0100
0001
0010
0001
1000
0100
1000
0001
,
0010
0100
0010
0001
1000
0010
0100
0001
1000
0100
0010
0100
1000
0001
0100
0010
,
1000
0100
0010
0001
0100
0010
0100
0001
0010
0001
1000
0100
1000
0000
0000
0000
,
0001
0010
0100
1000
0010
0100
0010
1000
0100
1000
0001
0010
0001
1000
0100
0010
,
0100
1000
0001
0100
0010
1000
0100
0010
0001
1000
0010
0100
0001
1000
0001
0010
,
0100
1000
0010
0100
0010
1000
0100
1000
0001
0010
0001
1000
0100
0010
0100
1000
,
0001
0100
0010
1000
0001
0010
0100
0010
0001
1000
0010
0100
0001
0010
0100
1000
,
0010
0100
0010
1000
0100
1000
0001
0010
0001
1000
0100
0010
0100
1000
0001
0100
,
0010
1000
0100
0010
0001
1000
0010
0100
0001
1000
0001
0010
0100
1000
0010
0100
,
0010
1000
0100
1000
0001
0010
0001
1000
0100
0010
0100
1000
0001
0100
0010
1000
,
0001
0010
0100
0010
0001
1000
0010
0100
0001
0010
0100
1000
0010
0000
0000
0000
,
0001
1000
0010
0100
0001
1000
0100
0010
0100
1000
0001
0100
0010
1000
0100
0010
,
0001
1000
0010
0100
0001
1000
0001
0010
0100
1000
0010
0100
0010
1000
0100
1000
,
0001
0010
0001
1000
0100
0010
0100
1000
0001
0100
0010
1000
0001
0010
0100
0010
,
0001
1000
0010
0100
0001
0010
0100
1000
0010
0100
0010
1000
0100
1000
0001
0010
,
0001
1000
0100
0010
0100
1000
0001
0100
0010
1000
0100
0010
0001
1000
0010
0100
,
0001
1000
0001
0010
0100
1000
0010
0100
0010
1000
0100
1000
0001
0010
0001
1000
,
0100
0010
0100
1000
0001
0100
0010
1000
0001
0010
0100
0010
0001
1000
0010
0100
,
0001
0010
0100
1000
0010
0100
0010
1000
0100
1000
0001
0010
0001
1000
0010
0000
,
0000
0000
0000
0000
,
2020
0000
0000
3030
0000
0000
0000
0000
0000
0000
0000
0000
1000
0000
0000
0000
0001
0000
0000
0000
0010
0000
0000
0000
0100
0000
0000
0000
1000
0000
0000
0000
0010
0000
0000
0000
0100
0000
0000
0000
0010
0000
0000
0000
1000
0000
0000
0000
,
0100
0010
0100
1000
0001
0100
0001
0010
0100
1000
0001
0100
,
0010
0000
0000
1000
0100
0010
0001
0100
0010
0100
0001
0010
,
0100
0010
0001
1000
0010
1000
0100
0010
0001
1000
0010
0100
,
0010
0000
0000
1000
0100
1000
0001
0010
0001
1000
0100
0010
,
0001
1000
0010
0100
0001
1000
0001
0010
0100
1000
0001
0100
,
0010
0000
0000
1000
0001
0100
0010
1000
0001
0100
0001
1000
,
0100
1000
0001
0010
0100
1000
0001
0010
0100
0010
0001
1000
,
0010
0000
0000
1000
0100
0010
0001
0100
0010
0100
0001
0010
,
0100
0010
0001
1000
0010
1000
0100
0010
0001
1000
0010
0100
,
0001
0000
0000
1000
0100
1000
0001
0010
0001
1000
0100
0010
,
0001
1000
0010
0100
0001
1000
0001
0010
0100
1000
0001
0100
,
0010
0000
0000
1000
0001
0100
0010
1000
0001
0100
0001
1000
,
0100
1000
0001
0010
0100
1000
0001
0010
0100
0010
0001
1000
,
0010
0000
0000
1000
0100
0010
0001
0100
0010
0100
0001
0010
,
0100
0010
0001
1000
0010
1000
0100
0010
0001
1000
0010
0100
,
0001
0000
0000
0000
0000
0000
0000
0000
2002
3003
0000
0000
0000
0000
0000
0000
,
2020
3030
0000
0000
0000
0000
0000
0000
0220
0330
0000
0000
0000
0000
0000
0000
0000
0000
0000
0000
0000
0000
0000
0000
0001
0000
0000
0000
0000
0000
0000
0000
,
1000
0001
0010
0100
1000
0010
0100
0010
1000
0100
1000
0001
0010
0001
1000
0100
,
0010
0100
1000
0001
0100
0010
1000
0100
0010
0001
1000
0010
0100
0001
1000
0001
,
0010
0100
1000
0010
0100
0010
1000
0100
1000
0001
0010
0001
1000
0100
0010
0100
,
1000
0001
0100
0010
1000
0001
0010
0100
0010
0001
1000
0010
0100
0001
0010
0100
,
1000
0010
0100
0010
1000
0100
1000
0001
0010
0001
1000
0100
0010
0100
1000
0001
,
0100
0010
1000
0100
0010
0001
1000
0010
0100
0001
1000
0001
0010
0100
1000
0010
,
0100
0010
1000
0100
1000
0001
0010
0001
1000
0100
0010
0100
1000
0001
0100
0010
,
1000
0001
0010
0100
0010
0001
1000
0010
0100
0001
0010
0100
1000
0000
0000
0000
,
0001
1000
0001
0010
0100
1000
0001
0010
0001
1000
0100
1000
0001
0010
0100
0010
,
0001
1000
0010
0100
0001
0010
0100
1000
0001
0100
0010
1000
0001
1000
0100
0010
,
0001
0100
0010
0100
0001
0010
0001
1000
0100
1000
0001
0010
0100
0010
0001
1000
,
0010
0100
0001
1000
0100
0010
0100
1000
0001
0100
0010
1000
0100
0010
0001
0100
,
0010
0100
0001
0010
0001
1000
0100
1000
0001
0010
0100
0010
0001
1000
0010
0100
,
0001
0010
0100
1000
0001
0100
0010
1000
0001
1000
0100
0010
0001
0100
0010
0100
,
0001
0010
0001
1000
0100
1000
0001
0010
0100
0010
0001
1000
0010
0100
0001
1000
,
0100
0010
0100
1000
0001
0100
0010
1000
0100
0010
0001
1000
0010
0000
0000
0000
,
1000
0100
0010
0001
0100
0010
0100
0001
0010
0001
1000
0100
1000
0001
0010
0100
,
0010
0001
1000
0010
0100
0001
0010
0100
1000
0001
0100
0010
1000
0001
1000
0100
,
0010
0001
0100
0010
0100
0001
0010
0001
1000
0100
1000
0001
0010
0100
0010
0001
,
1000
0010
0100
0001
1000
0100
0010
0100
1000
0001
0100
0010
1000
0100
0010
0001
,
0100
0010
0100
0001
0010
0001
1000
0100
1000
0001
0010
0100
0010
0001
1000
0010
,
0100
0001
0010
0100
1000
0001
0100
0010
1000
0001
1000
0100
0010
0001
0100
0010
,
0100
0001
0010
0001
1000
0100
1000
0001
0010
0100
0010
0001
1000
0010
0100
0001
,
1000
0100
0010
0100
1000
0001
0100
0010
1000
0100
0010
0001
0100
0010
0100
0001
,
0010
0001
1000
0100
1000
0001
0010
0100
0010
0001
1000
0010
0100
0001
0010
0100
,
1000
0001
0100
0010
1000
0001
1000
0100
0010
0001
0100
0010
0100
0001
0010
0001
,
1000
0100
1000
0001
0010
0100
0010
0001
1000
0010
0100
0001
1000
0100
0010
0100
,
1000
0001
0100
0010
1000
0100
0010
0001
0100
0010
0100
0001
0010
0001
1000
0100
,
1000
0001
0010
0100
0010
0001
1000
0010
0100
0001
0010
0100
1000
0001
0100
0010
,
1000
0001
1000
0100
0010
0001
0100
0010
0100
0001
0010
0001
1000
0100
1000
0001
,
0010
0100
0010
0001
1000
0010
0100
0001
1000
0100
0010
0100
1000
0001
0100
0010
,
1000
0100
0010
0001
0100
0010
0100
0001
0010
0001
1000
0100
1000
0001
0100
0000
,
0000
0000
0000
0000
,
0000
0000
0000
0000
,
0202
0000
0303
0000
0000
0000
0000
0000
0000
0000
0000
0000
0000
0000
0000
0000
2200
3300
0000
0000
0000
0000
0000
0000
2020
3030
0000
0000
0000
0000
0000
0000
,
0000
0000
0000
0000
0000
0000
0000
0000
2002
0000
3003
0000
0000
0000
0000
0000
0000
0000
0000
0000
0000
0000
0000
0000
0220
0330
0000
0000
0000
0000
0000
0000
,
2200
3300
0000
0000
0000
0000
0000
0000
0000
0000
0000
0000
0000
0000
0000
0000
0022
0033
0000
0000
0000
0000
0000
0000
2000
0000
0000
0000
3000
0000
0000
0000
,
2020
3030
0000
0000
0000
0000
0000
0000
0002
0000
0000
0000
0003
0000
0000
0000
0202
0303
0000
0000
0000
0000
0000
0000
0220
0330
0000
0000
0000
0000
0000
0000
,
0000
0000
0000
0000
,
0000
0000
0000
0000
,
1000
0010
0100
0001
0010
0100
1000
0001
0100
0010
1000
0001
1000
0100
0010
0001
,
0100
0010
0100
0001
0010
0001
1000
0100
1000
0001
0010
0100
0010
0001
1000
0010
,
0100
0001
1000
0100
0010
0100
1000
0001
0100
0010
1000
0100
0010
0001
0100
0010
,
0100
0000
0000
0001
0000
0000
0010
0000
0000
0001
0000
0000
1000
0000
0000
0100
0000
0000
1000
0000
0000
0001
0000
0000
0010
0000
0000
0100
0000
0000
0010
0000
0000
0001
0000
0000
1000
0000
0010
0000
0100
0000
0001
0000
1000
0000
0001
0000
,
0010
0100
1000
0001
0100
0010
1000
0001
1000
0100
0010
0001
0100
0010
0100
0001
,
0010
0001
1000
0100
1000
0001
0010
0100
0010
0001
1000
0010
0100
0001
1000
0100
,
0010
0000
0100
0000
1000
0000
0001
0000
0010
0000
0001
0000
0100
0000
0000
0010
0000
0000
1000
0000
0000
0100
0000
0000
0010
0000
0000
0001
0000
0000
1000
0000
0000
0010
0000
0000
0100
0000
0000
0001
0000
0000
0010
0000
0000
0100
0000
0000
,
1000
0001
0100
0010
1000
0001
1000
0100
0010
0001
0100
0010
0100
0001
0010
0001
,
1000
0100
1000
0001
0010
0100
0010
0001
1000
0010
0100
0001
1000
0100
0010
0100
,
1000
0001
0100
0010
1000
0100
0010
0001
0100
0010
0100
0001
0010
0001
1000
0100
,
1000
0000
0001
0000
0010
0000
0100
0000
1000
0000
0001
0000
0100
0000
0010
0000
1000
0000
0100
0000
0010
0000
0001
0000
0100
0000
0000
0001
0000
0000
0010
0000
0000
0100
0000
0000
1000
0000
0000
0001
0000
0000
0100
0000
0000
0010
0000
0000
,
1000
0001
1000
0100
0010
0001
0100
0010
0100
0001
0010
0001
1000
0100
1000
0001
,
0010
0100
0010
0001
1000
0010
0100
0001
1000
0100
0010
0100
1000
0001
0100
0010
,
1000
0001
0000
0000
1000
0000
0000
0000
,
0202
0303
0000
0000
0220
0330
0000
0000
2002
3003
0000
0000
0000
0000
0000
0000
2020
0000
3030
0000
0000
0000
0000
0000
0000
0000
0000
0000
0000
0000
0000
0000
,
2000
3010
0100
0001
0010
0100
1000
0001
0100
0010
1000
0001
1000
0100
0010
0001
,
0100
0010
0100
0001
0010
0001
1000
0100
1000
0001
0010
0100
0010
0001
1000
0010
,
0100
0001
1000
0100
0010
0100
1000
0001
0100
0010
1000
0100
0010
0001
0100
0010
,
0100
0001
0010
0001
1000
0100
1000
0001
0010
0100
0010
0001
1000
0010
0100
0001
,
0010
0001
1000
0100
0010
0001
1000
0100
0010
0100
1000
0001
0100
0001
0010
0100
1000
0010
0100
0010
1000
0100
1000
0001
,
0010
0001
1000
0100
1000
0001
0010
0100
0010
0001
1000
0010
0100
0001
1000
0100
,
0010
0100
1000
0001
0100
0010
1000
0100
0010
0001
1000
0010
0100
0001
0010
0100
,
1000
0001
0100
0010
1000
0001
1000
0100
0010
0001
0100
0010
0100
0001
0010
0001
,
1000
0000
0000
0100
0000
0000
1000
0000
0000
0001
0000
0000
0010
0000
0000
0100
0000
0000
0010
0000
0000
0001
0000
0000
1000
0000
0000
0010
0000
0000
0100
0000
0000
0001
0000
0000
1000
0000
0100
0000
0010
0000
0100
0000
1000
0000
0001
0000
,
0100
0010
1000
0001
1000
0100
0010
0001
0100
0010
0100
0001
0010
0001
1000
0100
,
1000
0001
0010
0100
0010
0001
1000
0010
0100
0001
0010
0100
1000
0001
0100
0010
,
1000
0000
0001
0000
0010
0000
0100
0000
1000
0000
0001
0000
0010
0000
0000
0001
0000
0000
0100
0000
0000
0010
0000
0000
0100
0000
0000
0001
0000
0000
0010
0000
0000
0001
0000
0000
1000
0000
0000
0100
0000
0000
1000
0000
0000
0001
0000
0000
,
0010
0100
0010
0001
1000
0010
0100
0001
1000
0100
0010
0100
1000
0001
0100
0010
,
1000
0100
0010
0001
0100
0010
0100
0001
0010
0001
1000
0100
1000
0001
0010
0100
,
0010
0001
1000
0010
0100
0001
1000
0100
0010
0100
1000
0001
0100
0010
1000
0100
,
0010
0000
0001
0000
1000
0000
0010
0000
0100
0000
0001
0000
1000
0000
0001
0000
0010
0000
0100
0000
1000
0000
0001
0000
0100
0000
0000
0010
0000
0000
1000
0000
0000
0001
0000
0000
0010
0000
0000
0100
0000
0000
0010
0000
0000
0001
0000
0000
,
1000
0010
0100
0001
0010
0100
1000
0001
0100
0010
1000
0001
1000
0100
0010
0001
,
0100
0010
0100
0001
0010
0001
1000
0100
1000
0001
0010
0100
0010
0001
1000
0010
,
0100
0000
0001
0000
1000
0000
0100
0000
1000
0000
0001
0000
0010
0000
0000
0100
0000
0000
1000
0000
0000
0001
0000
0000
0100
0000
0000
0010
0000
0000
1000
0000
0000
0100
0000
0000
0010
0000
0000
0001
0000
0000
1000
0000
0000
0010
0000
0000
,
0100
0000
0001
0000
0010
0000
0001
0000
1000
0000
0100
0000
1000
0000
0000
0001
0000
0000
0100
0000
0000
0010
0000
0000
1000
0000
0000
0001
0000
0000
1000
0000
0000
0100
0000
0000
0010
0000
0000
0001
0000
0000
0100
0000
0000
0010
0000
0000
,
0100
0001
0010
0001
1000
0100
1000
0001
0010
0100
0010
0001
1000
0010
0100
0001
,
1000
0100
0010
0100
1000
0001
0100
0010
1000
0100
0010
0001
0100
0010
0100
0001
,
0010
0001
1000
0100
1000
0001
0010
0100
0010
0001
1000
0010
0100
0001
0010
0100
,
1000
0001
0100
0010
1000
0001
1000
0100
0010
0001
0100
0010
0100
0001
0010
0001
,
1000
0010
0100
0001
0010
0100
1000
0001
0010
0100
0010
0001
1000
0010
1000
0100
0010
0001
1000
0100
1000
0001
0100
0001
,
1000
0001
0000
0000
,
0000
0000
0000
0000
,
0000
0000
0000
0000
,
0000
0000
0000
0000
,
0000
0000
0000
0000
,
0000
0000
0000
0000
,
0000
0000
0000
0000
,
0000
0000
0000
0000
,
0000
0000
0000
0000
,
0000
0000
0000
0000
,
0000
0000
0000
0000
,
0000
0000
0000
0000
,
0000
0000
0000
0000
,
0000
0000
0000
0000
,
0000
0000
0000
0000
,
0000
0000
0000
0000
,
0000
0000
0000
0000
,
00M0
0000
0000
0000
,
0000
0000
0000
0000
,
0000
0000
0000
0000
;
