#TITLE:Mewtwo Battle;
#SUBTITLE:;
#ARTIST:Pokemon Rumble >> OBATA Miki;
#TITLETRANSLIT:;
#SUBTITLETRANSLIT:;
#ARTISTTRANSLIT:;
#CREDIT:;
#BANNER:Mewtwo Battle-bn.png;
#BACKGROUND:Mewtwo Battle-bg.png;
#LYRICSPATH:;
#CDTITLE:;
#MUSIC:Mewtwo Battle.ogg;
#OFFSET:-2.069;
#SAMPLESTART:102.088;
#SAMPLELENGTH:12.000;
#SELECTABLE:YES;
#BPMS:0.000=220.250,31.000=110.200,31.500=55.095,31.750=110.000,32.500=55.095,32.750=116.000,34.000=220.000,194.000=110.200,194.500=55.100,194.750=110.200,195.500=55.000,195.750=110.200,197.000=220.000;
#STOPS:;
#BGCHANGES:;
// cache tags:
#FIRSTBEAT:0.000;
#LASTBEAT:358.000;
#SONGFILENAME:Songs/SSSC Pack 2/Mewtwo Battle - [Kytsune]/Mewtwo Battle.sm;
#HASMUSIC:1;
#HASBANNER:1;
#MUSICLENGTH:148.987;
// end cache tags

//---------------dance-single - Blank----------------
#NOTES:
     dance-single:
     Blank:
     Challenge:
     13:
     0.954,0.961,0.732,0.027,0.842,880.000,109.000,4.000,4.000,0.000:


1001
0001
0010
0110
0100
1000
1001
0001
,
0100
0010
1000
0001
0110
1000
0001
0100
,
0020
1000
0100
1000
0130
0001
0011
0100
,
1001
1010
0001
0100
0110
0010
1000
0001
,
1001
1000
0100
0110
0010
0001
1001
1000
,
0010
0100
0001
0010
0110
0100
1000
0001
,
2000
0010
0001
0100
3001
0100
0110
1000
,
1001
0101
0010
1000
2002
0000
0000
0000
,
0000
0000
0000
0000
0000
0000
3003
0000
0001
0010
0001
1000
0010
0000
1010
0000
,
0000
0000
1001
0000
1100
0000
0010
0001
1000
0100
1000
0001
0100
0000
0101
0000
,
0000
0000
1010
0000
1000
0001
0010
0100
1000
0000
1001
0000
0000
0000
0001
0010
,
0001
1000
0010
1000
0001
0100
0010
0100
0110
0000
0110
0000
1001
0000
1001
0000
,
1010
0010
1000
0011
0100
1000
1001
0100
,
1010
0001
0010
1100
0010
0001
1001
0100
,
0010
1010
0001
0010
1100
1100
1001
1001
,
0101
0010
1000
1001
0001
0010
0110
0100
,
1100
1000
0001
0101
0010
1000
0110
0010
,
0100
0000
0000
0001
0000
0000
1001
0000
0000
0100
0000
0000
1010
0000
0000
0000
0101
0000
0000
0000
0011
0000
0000
0000
,
1100
0000
0100
0000
0010
0000
0001
1000
0001
0100
0010
0000
1000
0000
0001
0010
,
0100
1000
0001
1000
0001
0100
0001
1000
0400
0000
0000
0000
1300
0000
0100
1000
,
0001
0000
0100
0001
1000
0100
1000
0001
0100
0000
0101
0000
1001
0000
1100
0000
,
1001
0000
0001
0000
0010
0000
0100
1000
0100
0010
0001
1000
0001
0000
1000
0010
,
0100
0001
0100
0010
1000
0001
1000
0000
1001
0000
0000
0001
0100
0000
0000
0000
,
1001
0000
1000
0100
1000
0001
0100
0001
0010
0000
0000
0000
0001
0000
1000
0000
,
0010
0000
0100
0000
0010
0000
0100
0000
0000
0001
0000
0000
0100
0000
0000
0001
0000
0000
1000
0000
0000
0100
0000
0000
,
1000
0100
0010
0001
0010
0001
1000
0010
,
1000
0010
0100
0001
0010
0100
1000
0010
,
0100
0001
1000
0100
0010
0001
0010
0100
,
1000
0000
0001
0100
0010
0000
1000
0000
0010
0000
1000
0000
0001
0000
0010
0000
,
0001
0010
0100
1000
0100
1000
0001
0100
,
0001
0100
0110
0010
1000
0001
1001
1000
,
0100
0000
0010
0000
0011
0000
0001
0000
1010
0000
1000
0000
0001
0010
0100
1000
,
0001
0100
0010
1000
0001
0000
0010
0000
0001
0000
0100
0010
0100
0001
1000
0000
,
0100
0000
0010
0001
0010
0100
1000
0000
0001
0000
0100
0000
0010
0000
1000
0000
,
0001
0000
0001
0000
0100
0000
0010
1000
0010
0100
0001
0000
1000
0000
0001
1000
,
0100
0000
0000
1000
0000
0000
0001
0000
0000
0100
0000
0000
0001
0000
0000
0000
0000
0000
0100
0000
0000
0010
0000
0000
0000
0000
0000
1000
0000
0000
0001
0000
0000
0000
0000
0000
0010
0000
0000
0000
0001
0000
0000
0000
0100
0000
0000
0000
,
0010
0000
0000
0000
1000
0000
0000
0000
0100
0000
0000
0000
0010
0000
0000
0000
0000
0000
0001
0000
0000
0010
0000
0000
0001
0000
0000
1000
0000
0000
0001
0000
0000
0000
0000
0000
0100
0000
0000
0000
0000
0000
0010
0000
0000
1000
0000
0000
,
0010
0100
0001
0000
0010
0000
0010
0000
0100
0000
0100
0000
1000
0000
0100
1000
,
0001
0000
0000
1000
0000
0000
0001
0000
0000
0000
0000
0000
0100
0000
0000
0000
0000
0000
0010
0000
0000
1000
0000
0000
0010
0000
0000
0000
0000
0000
0000
0000
0101
0000
0000
0000
0000
0000
0000
0000
1001
0000
0000
0000
0000
0000
0000
0000
,
0001
0000
0000
0000
0010
0000
0000
0000
0100
0000
0000
0000
1000
0000
0000
0000
0010
0000
0000
0000
0100
0000
0000
0000
0001
0000
0000
0000
0000
0000
1000
0000
0000
0010
0000
0000
1000
0000
0000
0001
0000
0000
0100
0000
0000
0000
0000
0000
,
0001
0000
1000
0100
1000
0100
0010
0001
1000
0000
1001
0000
0101
0000
0110
0000
,
0010
0000
0000
0000
0000
0000
1000
0000
0000
0000
0000
0000
0001
0000
0000
0000
0000
0000
1000
0000
0000
0100
0000
0000
1000
0000
0000
0001
0000
0000
0010
0000
0000
0100
0000
0000
1000
0000
0000
0000
0000
0000
0000
0000
1100
0000
0000
0000
,
0000
0000
0000
0000
1001
0000
0000
0000
0000
0000
0000
0000
1000
0000
0000
0000
0100
0000
0000
0000
0010
0000
0000
0000
0001
0000
0000
0000
0100
0000
0000
0000
0010
0000
0000
0000
1000
0000
0000
0100
0000
0000
1000
0000
0000
0000
0000
0000
,
0010
0000
0100
0001
0100
0001
1000
0100
1000
0000
0100
0000
0110
0000
0011
0000
,
1001
0000
0000
0000
0000
0000
0001
0000
0000
0100
0000
0000
0010
0000
0000
1000
0000
0000
0010
0000
0000
0000
0000
0000
0110
0000
0000
0000
0000
0000
0000
0000
0101
0000
0000
0000
0000
0000
0000
0000
1001
0000
0000
0000
0000
0000
0000
0000
,
0001
0010
0100
1000
0100
0010
0001
0100
0010
1000
0010
0100
,
0001
1000
0001
1000
0001
0100
0001
0100
0010
1000
0010
1000
0001
0010
0001
0010
,
0100
1000
0001
0100
0010
1000
0001
1000
0100
1000
0001
0100
0010
0100
0001
1000
,
0400
0040
0000
0000
0000
0000
0000
0000
0330
0000
0000
0000
0000
0000
0000
0000
,
0000
0000
0000
0000
0100
1000
0100
0010
0001
0000
1000
0000
0000
0000
0001
0000
,
0100
0000
0010
1000
0001
1000
0001
0100
0001
0000
0010
0000
0100
0000
1000
0000
,
0001
0000
0100
0000
0001
0000
0010
0100
0010
0100
1000
0100
0010
0000
0001
1000
,
0001
0100
0010
1000
0010
0000
0110
0000
0101
0000
1001
0000
1100
0000
0010
0000
,
0001
0000
1000
0001
0100
0010
1000
0000
0001
0000
0010
0001
1000
0100
1000
0100
,
0040
0000
0000
0000
0031
1000
0001
0100
0010
0000
1000
0000
0001
0000
1000
0100
,
0010
0100
1000
0001
1000
0000
1010
0000
0101
0000
0011
0000
1100
0000
0100
0000
,
0010
0000
0001
1000
0001
0100
0010
0000
1000
0000
0100
0010
0100
1000
0001
1000
,
0001
0000
0100
0000
0110
0000
0000
1000
0001
0000
0010
0000
0100
0000
1000
0001
,
1000
0000
0000
0010
0000
0000
0100
0000
0000
0001
0000
0000
1000
0000
0000
0000
0000
0000
0000
0000
1001
0000
0000
0000
0000
0000
0000
0000
0011
0000
0000
0000
0000
0000
0000
0000
0110
0000
0000
0000
0000
0000
0100
0000
0000
0000
0000
0000
,
1000
0000
0001
1000
0010
0100
0001
1000
0010
0000
1000
0100
0010
0100
1000
0100
,
0010
0001
0100
0010
4000
0000
0000
0000
3001
0000
0010
0000
0001
0000
0100
0001
,
1000
0010
1000
0001
0100
0000
0001
0000
0011
0000
0110
0000
1100
0000
0100
0000
,
1000
0000
0010
1000
0001
0010
0100
1000
0100
0000
0010
0001
0010
0100
1000
0001
,
0100
0000
0010
1000
0001
0000
0000
0001
0010
0000
0000
0000
0110
0000
0100
1000
,
0001
0000
0000
1000
0000
0000
0010
0000
0000
0100
0000
0000
0001
0000
0000
0000
0000
0000
1000
0000
0000
0000
0000
0000
0001
0000
0000
0000
0000
0000
0010
0000
0000
0000
0000
0000
0001
0000
0000
0000
1000
0000
0000
0000
0010
0000
0000
0000
,
0100
0001
0010
0010
0100
1000
0010
0010
,
0100
0001
0010
0010
0100
1000
0010
0010
,
0100
0010
1000
0001
0100
0010
1000
0001
,
0010
0100
1000
0001
0010
0100
1000
0001
,
0010
0100
1000
1000
0010
0100
0001
0001
,
0010
0100
1000
1000
0010
0100
0001
0001
,
1001
0010
0100
0010
1001
0100
0010
0100
,
1001
0000
0001
0000
1001
0000
1000
0000
0001
0100
0010
1000
0001
0010
0100
1000
,
0001
0000
0010
0000
0001
0000
0100
0010
1000
0001
0100
0000
0010
0000
1000
0001
,
0010
0100
1000
0000
0100
0000
0010
0000
0100
0000
1000
0000
0010
0000
0010
0000
,
1000
0000
0100
0010
0001
1000
0001
0000
1000
0000
0001
0100
0010
1000
0001
1000
,
0001
0000
0000
0000
0000
0000
0010
0000
0000
0100
0000
0000
0000
0000
0000
1000
0000
0000
0001
0000
0000
0000
0000
0000
1000
0000
0000
0000
0010
0000
0000
0000
0100
0000
0000
0000
0001
0000
0000
0000
1000
0000
0000
0000
0100
0000
0000
0000
,
0010
0000
0001
1000
0001
0100
0001
0000
0100
0000
0001
1000
0001
0010
0100
0000
,
0010
0000
0010
0000
0100
0000
0100
0000
1000
0000
0100
1000
0001
1000
0001
0000
,
0100
0000
0000
0000
0000
0000
0010
0000
0000
1000
0000
0000
0010
0000
0000
0000
0000
0000
0000
0000
0101
0000
0000
0000
0000
0000
0000
0000
1001
0000
0000
0000
0000
0000
0000
0000
0001
0000
0000
0000
0010
0000
0000
0000
0100
0000
0000
0000
,
1000
0000
0000
0000
0010
0000
0000
0000
0100
0000
0000
0000
0001
0000
0000
0000
0000
0000
1000
0000
0000
0010
0000
0000
1000
0000
0000
0001
0000
0000
0100
0000
0000
0000
0000
0000
0001
0000
0000
0000
0000
0000
1000
0000
0000
0100
0000
0000
,
1000
0100
0010
0001
1000
0000
1001
0000
0101
0000
0110
0000
0010
0000
1000
0000
,
0001
0000
0000
0000
0000
0000
1000
0000
0000
0010
0000
0000
0100
0000
0000
0001
0000
0000
1000
0000
0000
0010
0000
0000
1000
0000
0000
0000
0000
0000
0000
0000
1100
0000
0000
0000
0000
0000
0000
0000
1001
0000
0000
0000
0000
0000
0000
0000
,
1000
0000
0000
0000
0001
0000
0000
0000
0010
0000
0000
0000
0100
0000
0000
0000
1000
0000
0000
0000
0010
0000
0000
0000
1000
0000
0000
0001
0000
0000
0100
0000
0000
0000
0000
0000
0010
0000
0000
0000
0000
0000
0100
0000
0000
0001
0000
0000
,
1000
0001
0010
0100
1000
0000
0100
0000
0110
0000
0011
0000
1001
0000
0001
0100
,
0010
0000
0000
1000
0000
0000
0010
0000
0000
0000
0000
0000
0110
0000
0000
0000
0000
0000
0000
0000
0101
0000
0000
0000
0000
0000
0000
0000
1001
0000
0000
0000
0000
0000
0000
0000
0001
0000
0000
0000
0010
0000
0000
0000
0100
0000
0000
0000
,
1000
0000
0000
0000
0100
0000
0000
0000
0010
0000
0000
0000
0001
0000
0000
0000
0100
0000
0000
0000
0010
0000
0000
0000
1000
0000
0000
0000
0010
0000
0000
0000
0100
0000
0000
0000
0001
0000
0000
1000
0000
0000
0001
0000
0000
1000
0000
0000
,
0001
0100
0001
0100
0010
1000
0010
1000
0001
0010
0001
0010
0100
1000
0001
0100
,
0010
1000
0001
1000
0100
1000
0001
0100
0010
0100
0001
1000
0400
0040
0000
0000
,
0000
M33M
M00M
0000
;
