#TITLE:Crank That (Soulja Boy);
#SUBTITLE:Sexuality Violation;
#ARTIST:Soulja Boy;
#TITLETRANSLIT:;
#SUBTITLETRANSLIT:;
#ARTISTTRANSLIT:;
#CREDIT:;
#BANNER:Crank That (Soulja Boy)-bn.png;
#BACKGROUND:Crank That (Soulja Boy)-bg.png;
#LYRICSPATH:;
#CDTITLE:GazeboCD.png;
#MUSIC:Crank That (Soulja Boy).ogg;
#OFFSET:0.739;
#SAMPLESTART:14.549;
#SAMPLELENGTH:27.370;
#SELECTABLE:YES;
#BPMS:0.000=139.993;
#STOPS:;
#BGCHANGES:;
// cache tags:
#FIRSTBEAT:4.000;
#LASTBEAT:295.000;
#SONGFILENAME:Songs/Sexuality Violation 2/Crank That (Soulja Boy) - [Gazebo]/Crank That (Soulja Boy).sm;
#HASMUSIC:1;
#HASBANNER:1;
#MUSICLENGTH:126.012;
// end cache tags

//---------------dance-single - Gazebo----------------
#NOTES:
     dance-single:
     Gazebo:
     Challenge:
     13:
     0.923,1.000,0.079,0.111,1.000,788.000,10.000,14.000,32.000,0.000:

0000
0000
0000
0000
,
1MM1
0000
0000
1000
0010
0000
0100
0000
,
0000
0000
0001
0000
0000
1000
0000
0000
,
0001
0000
0000
0010
0100
0000
1000
0000
,
0000
0000
0001
0000
0000
0100
0000
0000
,
1MM1
0000
0000
0001
0010
0000
0100
0000
,
0000
0000
1000
0000
0000
0001
0000
0000
,
1000
0100
0010
0100
1000
0100
0010
0100
0010
0001
0010
0100
1000
0100
0010
0001
0010
0100
1000
0100
0010
0001
0010
0001
,
1000
0001
1000
0001
1000
0100
1000
0100
0010
0100
0010
0001
0010
0100
1000
0100
0010
0001
0010
0100
1000
0100
1000
0001
,
M2M0
0000
0000
0301
0000
0000
1000
0000
0000
0001
0000
0000
0010
0000
0000
0100
0000
0000
1000
0001
1000
0100
1000
0001
,
0010
0000
0000
0100
0000
0000
1000
0000
0000
0100
0000
0000
0010
0000
0000
0001
0000
0000
1000
0001
1000
0010
1000
0001
,
0100
0010
0100
0001
1000
0100
1000
0001
,
0010
0000
0000
0000
0000
0000
0100
0000
0000
0020
0000
0000
0000
0000
0000
0000
0000
0000
0031
0000
0000
0000
0000
0000
1000
0000
0100
0000
0010
0000
0100
0000
1000
0000
0001
0000
0100
0000
0000
0000
0000
0000
0100
0000
0000
0000
0000
0000
,
M0M1
0100
0010
1000
0010
0100
0001
0000
0000
1000
0000
0000
0100
0000
0000
0010
0000
0000
0001
0000
0000
0001
0000
0000
,
1000
0100
0010
0001
0010
0100
1000
0000
0000
0001
0000
0000
0100
0000
0000
0010
0000
0000
1000
0000
0000
1000
0000
0000
,
0001
0100
0010
1000
0010
0100
0001
0000
0000
1000
0000
0000
0100
0000
0000
0010
0000
0000
0001
0000
0000
0001
0000
0000
,
1000
0100
0010
0001
0010
0100
1000
0000
0000
0001
0000
0000
0100
0000
0000
0010
0000
0000
1000
0000
0000
0000
0000
0000
,
1MM1
0000
0000
1000
0000
0000
0001
0000
0000
1000
0000
0000
0100
0000
0000
0010
0000
0000
0001
1000
0001
0010
0001
1000
,
0100
0000
0000
0010
0000
0000
0001
0000
0000
0010
0000
0000
0100
0000
0000
1000
0000
0000
0001
1000
0001
0100
0001
1000
,
0010
0100
0010
1000
0001
0010
0001
1000
,
0100
0000
0000
0000
0000
0000
0010
0000
0000
0200
0000
0000
0000
0000
0000
0000
0000
0000
1300
0000
0000
0000
0000
0000
0001
0000
0010
0000
0100
0000
0010
0000
0001
0000
1000
0000
0010
0000
0000
0000
0000
0000
0010
0000
0000
0000
0000
0000
,
1M0M
0010
0100
0001
0100
0010
1000
0000
0000
0001
0000
0000
0010
0000
0000
0100
0000
0000
1000
0000
0000
1000
0000
0000
,
0001
0010
0100
1000
0100
0010
0001
0000
0000
1000
0000
0000
0010
0000
0000
0100
0000
0000
0001
0000
0000
0001
0000
0000
,
1000
0010
0100
0001
0100
0010
1000
0000
0000
0001
0000
0000
0010
0000
0000
0100
0000
0000
1000
0000
0000
1000
0000
0000
,
0001
0010
0100
1000
0100
0010
0001
0000
0000
1000
0000
0000
0010
0000
0000
0100
0000
0000
0001
0000
0000
0000
0000
0000
,
1MM1
0000
0000
1000
0000
0000
0200
0000
0000
0000
0000
0000
1300
0000
0000
0001
0000
0000
0100
0001
0100
0010
0100
0001
,
1000
0001
0010
0100
1000
0001
0100
0000
,
0010
0000
0000
0000
0000
0000
1000
0000
0000
0020
0000
0000
0000
0000
0000
0000
0000
0000
0130
0000
0000
0000
0000
0000
0001
0000
1000
0000
0001
0000
0010
0000
0100
0000
1000
0000
0002
0000
0000
0000
0000
0000
0000
0000
0000
0000
0000
0000
,
1003
0001
1000
0010
0100
0100
0100
0000
,
1MM1
0001
0010
0001
1000
0001
0100
0000
,
0010
1000
0001
1000
0100
0010
0001
0000
,
0100
0010
1000
0010
0100
0001
1000
0100
,
0010
0100
1000
1000
0001
0100
0010
1000
,
0001
0100
0001
0100
0010
1000
0001
0010
0100
0010
0001
1000
0001
0000
0000
0000
0000
0000
0000
0000
0000
1000
0000
0000
,
0001
0010
0100
0010
0001
0100
0010
1000
,
0100
1000
0100
0010
0001
0000
0001
1000
,
0040
0000
0030
1000
0001
0000
0010
0000
0400
0000
0300
0010
0001
0000
1000
0000
,
1MM1
0001
0100
0010
0100
0001
1000
1000
,
0001
0010
0100
0010
0100
1000
0001
0000
,
0100
0010
2000
3000
2000
0000
3001
0000
,
0010
0100
0010
0001
1000
0001
0100
0000
,
1MM1
0000
0000
0001
0000
0000
1000
0000
0000
0001
0000
0000
0100
0000
0000
0010
0000
0000
1000
0001
1000
0010
1000
0001
,
0100
0000
0000
0010
0000
0000
1000
0000
0000
0010
0000
0000
0100
0000
0000
0001
0000
0000
1000
0001
1000
0100
1000
0001
,
0010
0100
0010
0001
1000
0010
1000
0001
,
0100
0000
0000
0000
0000
0000
0010
0000
0000
0200
0000
0000
0000
0000
0000
0000
0000
0000
0301
0000
0000
0000
0000
0000
1000
0000
0010
0000
0100
0000
0010
0000
1000
0000
0001
0000
0010
0000
0000
0000
0000
0000
0010
0000
0000
0000
0000
0000
,
MM01
0010
0100
1000
0100
0010
0001
0000
0000
1000
0000
0000
0010
0000
0000
0100
0000
0000
0001
0000
0000
0001
0000
0000
,
1000
0010
0100
0001
0100
0010
1000
0000
0000
0001
0000
0000
0010
0000
0000
0100
0000
0000
1000
0000
0000
1000
0000
0000
,
0001
0010
0100
1000
0100
0010
0001
0000
0000
1000
0000
0000
0010
0000
0000
0100
0000
0000
0001
0000
0000
0001
0000
0000
,
1000
0010
0100
0001
0100
0010
1000
0000
0000
0001
0000
0000
0010
0000
0000
0100
0000
0000
1000
0000
0000
0000
0000
0000
,
1MM1
0000
0000
1000
0000
0000
0001
0000
0000
1000
0000
0000
0010
0000
0000
0100
0000
0000
0001
1000
0001
0100
0001
1000
,
0010
0000
0000
0100
0000
0000
0001
0000
0000
0100
0000
0000
0010
0000
0000
1000
0000
0000
0001
1000
0001
0010
0001
1000
,
0100
0010
0100
1000
0001
0100
0001
1000
,
0010
0000
0000
0000
0000
0000
0100
0000
0000
0020
0000
0000
0000
0000
0000
0000
0000
0000
1030
0000
0000
0000
0000
0000
0001
0000
0100
0000
0010
0000
0100
0000
0001
0000
1000
0000
0100
0000
0000
0000
0000
0000
0100
0000
0000
0000
0000
0000
,
10MM
0100
0010
0001
0010
0100
1000
0000
0000
0001
0000
0000
0100
0000
0000
0010
0000
0000
1000
0000
0000
1000
0000
0000
,
0001
0100
0010
1000
0010
0100
0001
0000
0000
1000
0000
0000
0100
0000
0000
0010
0000
0000
0001
0000
0000
0001
0000
0000
,
1000
0100
0010
0001
0010
0100
1000
0000
0000
0001
0000
0000
0100
0000
0000
0010
0000
0000
1000
0000
0000
1000
0000
0000
,
0001
0100
0010
1000
0010
0100
0001
0000
0000
1000
0000
0000
0100
0000
0000
0010
0000
0000
0001
0000
0000
0000
0000
0000
,
1MM1
0000
0000
1000
0000
0000
0010
0000
0000
0100
0000
0000
0010
0000
0000
1000
0000
0000
0001
0100
0001
1000
0010
1000
,
0001
0000
0000
1000
0000
0000
0100
0000
0000
0010
0000
0000
0001
0000
0000
1000
0000
0000
0001
0010
0001
1000
0100
1000
,
0001
0100
0001
1000
0010
1000
0100
0010
,
0001
0000
0000
0000
0000
0000
1000
0000
0000
0001
0000
0000
0000
0000
0000
0000
0000
0000
0100
0000
0000
0000
0000
0000
0010
0000
1000
0000
0010
0000
0100
0000
0001
0000
1000
0000
0001
0000
0010
0000
0100
0000
0010
0000
0001
0000
1000
0000
,
0MM1
0000
0000
0000
0000
0000
1000
0000
0000
0100
0000
0000
0000
0000
0000
0000
0000
0000
1000
0000
0000
0000
0000
0000
0001
0000
0100
0000
0010
0000
1000
0000
0001
0000
1000
0000
0100
0000
0010
0000
0001
0000
1000
0000
0000
0000
0000
0000
,
0001
0000
0000
0000
0000
0000
0100
0000
0000
0001
0000
0000
0000
0000
0000
0000
0000
0000
1000
0000
0000
0000
0000
0000
0100
0000
0010
0000
0001
0000
0010
0000
0100
0000
1000
0000
0001
0000
0100
0000
0001
0000
1000
0000
0000
0000
0000
0000
,
0010
0000
0000
0000
0000
0000
0100
0000
0000
0010
0000
0000
0000
0000
0000
0000
0000
0000
1000
0000
0000
0000
0000
0000
0001
0000
0100
0000
0010
0000
0100
0000
0001
0000
1000
0000
0001
0000
0010
0000
0100
0000
1000
0000
0000
0000
0000
0000
,
0001
0000
0000
0000
0000
0000
1000
0000
0000
0100
0000
0000
0000
0000
0000
0000
0000
0000
1000
0000
0000
0000
0000
0000
0001
0000
0010
0000
0001
0000
1000
0000
0100
0000
1000
0000
0001
0000
0100
0000
0010
0000
1000
0000
0000
0000
0000
0000
,
1MM1
0000
0000
1000
0000
0000
0001
0000
0000
1000
0000
0000
0100
0000
0000
1000
0000
0000
0001
0010
0100
1000
0100
0010
,
0001
0000
0000
1000
0000
0000
0010
0000
0000
0100
0000
0000
0010
0000
0000
1000
0000
0000
0001
0100
0010
1000
0010
0100
,
0001
1000
0100
1000
0001
1000
0010
0100
,
0001
0000
0000
0000
0000
0000
1000
0000
0000
0002
0000
0000
0000
0000
0000
0003
0000
0000
0000
0000
0000
0000
0000
0000
1000
0000
0100
0000
1000
0000
0001
0000
0010
0000
0100
0000
1000
0000
0001
0000
0100
0000
0001
0000
0100
0000
0010
0000
,
1000
0000
0000
0000
0000
0000
0001
0000
0000
2000
0000
0000
0000
0000
0000
3000
0000
0000
0000
0000
0000
0000
0000
0000
0001
0000
0010
0000
0001
0000
1000
0000
0100
0000
0010
0000
0001
0000
1000
0000
0010
0000
1000
0000
0010
0000
0100
0000
,
0001
0000
0000
0000
0000
0000
1000
0000
0000
0002
0000
0000
0000
0000
0000
0003
0000
0000
0000
0000
0000
0000
0000
0000
1000
0000
0100
0000
1000
0000
0001
0000
0010
0000
0100
0000
1000
0000
0001
0000
0100
0000
0010
0000
0100
0000
0001
0000
,
1000
0100
0010
0100
1000
0100
0010
0100
0010
0001
0010
0100
1000
0100
0010
0001
0010
0100
1000
0100
0010
0001
0010
0001
,
1000
0001
1000
0001
1000
0100
1000
0100
0010
0100
0010
0001
0010
0100
1000
0100
0010
0001
0010
0100
1000
0100
1000
0001
,
0200
0000
0000
0300
;

//---------------dance-single - Gazebo----------------
#NOTES:
     dance-single:
     Gazebo:
     Hard:
     10:
     0.773,0.849,0.079,0.111,0.583,656.000,10.000,14.000,32.000,0.000:
0000
0000
0000
0000
,
1MM1
0000
0000
1000
0010
0000
0100
0000
,
0000
0000
0001
0000
0000
1000
0000
0000
,
0001
0000
0000
0010
0100
0000
1000
0000
,
0000
0000
0001
0000
0000
0100
0000
0000
,
1MM1
0000
0000
0001
0010
0000
0100
0000
,
0000
0000
1000
0000
0000
0001
0000
0000
,
1000
0100
0010
0100
1000
0100
0010
0100
0010
0001
0010
0100
1000
0100
0010
0001
,
0010
0100
1000
0100
0010
0001
0010
0001
1000
0001
1000
0001
1000
0100
1000
0001
,
M2M0
0000
0301
0000
1000
0000
0001
0000
0010
0000
0100
0000
1000
0001
0100
0001
,
1000
0000
0100
0000
1000
0000
0100
0000
0010
0000
0001
0000
1000
0001
0100
0001
,
1000
0010
0100
0001
1000
0100
1000
0001
,
0010
0000
0100
0020
0000
0000
0031
0000
1000
0001
0010
0001
0100
0000
0100
0000
,
M0M1
0100
0010
0100
0001
0000
1000
0000
0100
0000
0010
0000
0001
0000
0001
0000
,
1000
0100
0010
0100
1000
0000
0001
0000
0100
0000
0010
0000
1000
0000
1000
0000
,
0001
0100
0010
0100
0001
0000
1000
0000
0100
0000
0010
0000
0001
0000
0001
0000
,
1000
0100
0010
0100
1000
0000
0001
0000
0100
0000
0010
0000
1000
0000
0000
0000
,
1MM1
0000
1000
0000
0001
0000
1000
0000
0100
0000
0010
0000
0001
1000
0010
1000
,
0001
0000
0010
0000
0001
0000
0010
0000
0100
0000
1000
0000
0001
1000
0010
1000
,
0001
0100
0010
1000
0001
0010
0001
1000
,
0100
0000
0010
0200
0000
0000
1300
0000
0001
1000
0100
1000
0010
0000
0010
0000
,
1M0M
0010
0100
0010
1000
0000
0001
0000
0010
0000
0100
0000
1000
0000
1000
0000
,
0001
0010
0100
0010
0001
0000
1000
0000
0010
0000
0100
0000
0001
0000
0001
0000
,
1000
0010
0100
0010
1000
0000
0001
0000
0010
0000
0100
0000
1000
0000
1000
0000
,
0001
0010
0100
0010
0001
0000
1000
0000
0010
0000
0100
0000
0001
0000
0000
0000
,
1MM1
0000
1000
0000
0200
0000
0000
0000
1300
0000
0001
0000
0100
0010
0100
0001
,
1000
0001
0010
0100
1000
0001
0100
0000
,
0010
0000
1000
0020
0000
0000
0130
0000
0001
1000
0100
1000
0002
0000
0000
0000
,
1003
0001
1000
0010
0100
0100
0100
0000
,
1MM1
0001
0010
0001
1000
0001
0100
0000
,
0010
1000
0001
1000
0100
0010
0001
0000
,
0100
0010
1000
0010
0100
0001
1000
0100
,
0010
0100
1000
1000
0001
0100
0010
1000
,
0001
0100
0010
0100
0001
1000
0100
0010
0001
0000
0000
0000
0000
0000
1000
0000
,
0001
0010
0100
0010
0001
0100
0010
1000
,
0100
1000
0100
0010
0001
0000
0001
1000
,
0040
0000
0030
1000
0001
0000
0010
0000
0400
0000
0300
0010
0001
0000
1000
0000
,
1MM1
0001
0100
0010
0100
0001
1000
1000
,
0001
0010
0100
0010
0100
1000
0001
0000
,
0100
0010
2000
3000
2000
0000
3001
0000
,
0010
0100
0010
0001
1000
0001
0100
0000
,
1MM1
0000
0001
0000
1000
0000
0001
0000
0100
0000
0010
0000
1000
0001
0010
0001
,
1000
0000
0010
0000
1000
0000
0010
0000
0100
0000
0001
0000
1000
0001
0010
0001
,
1000
0100
0010
0001
1000
0010
1000
0001
,
0100
0000
0010
0200
0000
0000
0301
0000
1000
0001
0100
0001
0010
0000
0010
0000
,
MM01
0010
0100
0010
0001
0000
1000
0000
0010
0000
0100
0000
0001
0000
0001
0000
,
1000
0010
0100
0010
1000
0000
0001
0000
0010
0000
0100
0000
1000
0000
1000
0000
,
0001
0010
0100
0010
0001
0000
1000
0000
0010
0000
0100
0000
0001
0000
0001
0000
,
1000
0010
0100
0010
1000
0000
0001
0000
0010
0000
0100
0000
1000
0000
0000
0000
,
1MM1
0000
1000
0000
0001
0000
1000
0000
0010
0000
0100
0000
0001
1000
0100
1000
,
0001
0000
0100
0000
0001
0000
0100
0000
0010
0000
1000
0000
0001
1000
0100
1000
,
0001
0010
0100
1000
0001
0100
0001
1000
,
0010
0000
0100
0020
0000
0000
1030
0000
0001
1000
0010
1000
0100
0000
0100
0000
,
10MM
0100
0010
0100
1000
0000
0001
0000
0100
0000
0010
0000
1000
0000
1000
0000
,
0001
0100
0010
0100
0001
0000
1000
0000
0100
0000
0010
0000
0001
0000
0001
0000
,
1000
0100
0010
0100
1000
0000
0001
0000
0100
0000
0010
0000
1000
0000
1000
0000
,
0001
0100
0010
0100
0001
0000
1000
0000
0100
0000
0010
0000
0001
0000
0000
0000
,
1MM1
0000
1000
0000
0010
0000
0100
0000
0010
0000
1000
0000
0001
1000
0100
1000
,
0001
0000
1000
0000
0100
0000
0010
0000
0001
0000
1000
0000
0001
1000
0010
1000
,
0001
0100
0001
1000
0010
1000
0100
0010
,
0001
0000
1000
0001
0000
0000
0100
0000
0010
1000
0001
1000
0001
0010
0100
1000
,
0MM1
0000
1000
0100
0000
0000
1000
0000
0001
0100
0010
0100
0001
1000
0001
0000
,
1000
0000
0010
1000
0000
0000
0001
0000
1000
0100
0010
0100
1000
0001
1000
0000
,
0001
0000
0100
0001
0000
0000
1000
0000
0001
0010
0100
0010
0001
1000
0001
0000
,
1000
0000
0010
1000
0000
0000
0001
0000
1000
0100
0010
0100
1000
0001
1000
0000
,
1MM1
0000
1000
0000
0001
0000
1000
0000
0100
0000
1000
0000
0001
0010
0100
0010
,
0001
0000
1000
0000
0010
0000
0100
0000
0010
0000
1000
0000
0001
0100
0010
0100
,
0001
1000
0100
1000
0001
1000
0010
0100
,
0001
0000
1000
0002
0000
0003
0000
0000
1000
0100
0010
0100
1000
0001
0100
0010
,
1000
0000
0001
2000
0000
3000
0000
0000
0001
0010
0100
0010
0001
1000
0010
0100
,
0001
0000
1000
0002
0000
0003
0000
0000
1000
0100
0010
0100
1000
0001
0100
0010
,
1000
0100
0010
0100
1000
0100
0010
0100
0010
0001
0010
0100
1000
0100
0010
0001
,
0010
0100
1000
0100
0010
0001
0010
0001
1000
0001
1000
0001
1000
0100
1000
0001
,
0200
0000
0000
0300
;
