#TITLE:Asterisk;
#SUBTITLE:;
#ARTIST:Orange Range;
#TITLETRANSLIT:;
#SUBTITLETRANSLIT:;
#ARTISTTRANSLIT:;
#CREDIT:;
#BANNER:banner.jpg;
#BACKGROUND:;
#LYRICSPATH:;
#CDTITLE:;
#MUSIC:Bleach - Asterisk.mp3;
#OFFSET:-1.480;
#SAMPLESTART:48.387;
#SAMPLELENGTH:12.000;
#SELECTABLE:YES;
#BPMS:0.000=124.000;
#STOPS:;
#BGCHANGES:;
// cache tags:
#FIRSTBEAT:0.000;
#LASTBEAT:180.000;
#SONGFILENAME:Songs/new cc/asterisk/orange range.sm;
#HASMUSIC:1;
#HASBANNER:1;
#MUSICLENGTH:90.025;
// end cache tags

//---------------dance-single - ----------------
#NOTES:
     dance-single:
     :
     Hard:
     9:
     0.611,0.625,0.011,0.000,0.694,384.000,1.000,0.000,0.000,0.000:
0010
0000
0000
0000
1000
0000
0000
0100
0000
0000
0000
0010
0000
1000
0000
0001
,
0100
0000
0010
0000
1000
0000
0001
0100
0000
0000
0010
0000
0000
0000
0000
0000
,
0000
0001
0000
0000
0000
0010
0000
0000
0000
0100
0000
0000
1000
0000
0001
0000
,
0100
0010
0000
0010
0000
1000
0001
0100
,
0100
0100
0000
1000
1000
0000
0001
0010
0000
0010
0010
0000
0100
0000
1000
0000
,
0001
0000
0100
0000
0010
0000
1000
0001
0000
0000
0010
0000
0000
0000
0000
0000
,
0001
1000
0000
0100
0000
0010
0100
1000
,
0001
1000
0001
0010
0100
0001
0001
0000
,
0010
0000
1000
0100
0010
0000
0001
0000
0000
0000
0001
0000
1000
0000
0100
0000
,
0010
0010
0001
0001
1000
0010
0100
0001
,
0010
0000
0100
1000
0001
0000
0010
0000
0000
0000
0010
0000
0001
0000
1000
0000
,
0100
0010
0001
0001
1000
0010
0100
0001
,
0010
0000
0100
1000
0001
0000
0010
0000
0000
0000
0001
0000
1000
0000
0010
0000
,
0100
1000
0001
0010
0100
1000
0001
0001
,
0010
0000
0100
1000
0100
0000
0010
0000
0000
0000
0001
0000
1000
0000
0010
0000
,
0100
0000
0001
0000
0001
0000
0001
1000
0010
0000
0010
1000
0000
1000
0000
1000
,
0000
0100
0000
0100
0001
0000
0001
0000
1000
0001
1000
0001
0001
0000
0001
0000
,
0010
0000
0100
1000
0100
0000
0100
0000
1000
0000
0001
0010
0001
0000
0000
0000
,
0001
0000
0001
0100
0100
0000
0010
0000
1000
0001
0010
0001
0001
0000
0010
0000
,
0100
1000
0100
1000
0000
0001
0010
0000
0001
0000
0100
0010
0100
0000
0000
0000
,
1000
0000
1000
0001
0001
0000
0001
0000
0010
0100
0010
0000
0100
0000
1000
0000
,
1000
0001
0000
0001
0010
0000
0010
0100
0100
0000
1000
0001
0010
0000
0000
0000
,
0001
0000
1000
0010
1000
0000
1000
0000
0100
0100
0010
0000
0001
0000
0001
0000
,
1000
0100
0010
0001
0000
0000
0000
0000
,
0010
1000
0100
0010
0100
0000
0001
0000
1000
0010
1000
0010
0100
0000
0100
0000
,
0001
0010
0001
0010
0100
0000
1000
0001
0000
1000
0001
0010
0000
0100
1000
0001
,
0000
0010
0000
0001
0000
0001
0001
0000
1000
0010
1000
0010
1000
0000
0010
0000
,
0001
0010
0001
0000
0010
0100
0000
1000
0000
1000
0001
0001
0000
0001
0000
0000
,
0001
0000
1000
0000
0000
0001
0000
0010
0000
0100
0000
0001
1000
0000
0000
0000
,
0001
1000
0000
1000
0010
0000
0010
0100
0000
0100
0001
0000
0000
0001
1000
0000
,
0010
0000
0100
0000
0001
0000
1000
0001
0000
0000
0001
0000
0000
0000
0000
0000
,
0001
1000
0001
1000
0010
0000
0010
0100
0000
0001
0010
0001
0010
0100
0000
0100
,
1000
0001
0000
0010
0100
0000
0000
0000
0100
1000
0000
1000
0001
0000
0000
0000
,
0001
0010
0000
0010
0100
0000
1000
0001
0000
0000
0001
0000
0010
0000
0100
0000
,
1000
0001
0000
0001
0010
0000
0010
0100
0000
0000
1000
0000
0000
0000
0000
0000
,
0000
0001
0100
0100
0000
0010
0010
0000
1000
0001
0010
0100
0000
0000
0100
0000
,
1000
0001
0010
0100
1000
0000
0001
0000
0010
0000
0100
1000
0001
0000
0001
0000
,
0001
0100
0000
0100
0010
0000
0010
1000
0000
1000
0001
0000
0001
0000
0010
0000
,
0100
0000
1000
0000
0001
0000
0001
0100
0000
0000
0010
0000
0000
0000
0000
0000
,
1000
0001
0100
0010
0100
0010
0000
0000
1000
0000
1000
0100
0010
0000
0000
0001
,
1000
0001
1000
0000
0010
0100
0000
0000
0001
0001
0000
1000
0010
0000
0000
0000
,
0100
0001
0000
0010
0100
0000
1000
0001
0000
0000
0010
0000
0100
0000
1000
0000
,
0001
0100
0000
0010
1000
0000
0001
0010
0000
0000
0100
0000
0000
0000
0000
0000
,
0001
1000
0000
1000
0000
0000
0010
0100
0000
0000
0001
0000
0000
0000
0000
0000
,
0010
1000
0000
1000
0100
0000
0010
0001
0000
0000
0001
0000
0000
0000
0000
0000
,
1001
0000
0000
0000
;
