#TITLE:Cerebral Meltdown;
#SUBTITLE:EXoduz Violation;
#ARTIST:Interrobang Pie x Sci;
#TITLETRANSLIT:;
#SUBTITLETRANSLIT:;
#ARTISTTRANSLIT:;
#CREDIT:;
#BANNER:../Banner.png;
#BACKGROUND:../Background.png;
#LYRICSPATH:;
#CDTITLE:;
#MUSIC:Cerebral Meltdown.ogg;
#OFFSET:0.010;
#SAMPLESTART:33.892;
#SAMPLELENGTH:12.000;
#SELECTABLE:YES;
#DISPLAYBPM:200.000;
#BPMS:0.000=100.000,41.500=110.000,43.000=120.000,44.500=130.000,46.000=140.000,47.500=150.000,49.000=160.000,50.500=170.000,53.000=180.000,56.500=190.000,58.750=199.950,204.500=150.000,217.500=156.000,218.500=200.000,221.000=99.000,222.000=150.000,284.000=153.000,285.000=155.000,286.000=156.000,287.000=158.000,288.000=160.000,289.000=168.000,290.000=170.000,291.000=172.000,292.000=174.000,293.000=178.000,294.000=183.000,295.000=185.000,296.000=186.000,297.000=187.000,298.000=188.000,299.000=192.000,310.000=999999.000,324.000=192.000;
#STOPS:324.000=7.500
;
#BGCHANGES:;
// cache tags:
#FIRSTBEAT:0.000;
#LASTBEAT:327.000;
#SONGFILENAME:Songs/EXoduz Violation/Cerebral Meltdown/Cerebral Meltdown.sm;
#HASMUSIC:1;
#HASBANNER:1;
#MUSICLENGTH:124.705;
// end cache tags

//---------------dance-single - WinDEU----------------
#NOTES:
     dance-single:
     WinDEU:
     Challenge:
     15:
     1.000,1.000,0.289,0.337,1.000,965.000,36.000,42.000,19.000,1.000:

0220
0000
0000
0000
0000
0000
0000
0300
0230
0000
0000
0000
0310
0000
1000
0000
,
0001
0010
0100
1000
0010
0100
0001
1000
,
0002
0100
0000
0103
0001
1000
0001
1000
,
1200
0000
0310
0001
0201
0000
0000
0001
,
0301
0000
0000
0000
1000
0000
0000
0000
0001
0010
0100
1000
0001
0000
0000
0000
0010
0000
0000
0000
0100
0000
0000
0000
1000
0000
0000
0000
0010
0000
0000
0000
,
2000
0000
0000
0000
3010
1000
0000
0100
0001
0000
1000
0000
0200
0000
0000
0310
,
0001
0000
1000
0000
0100
0000
0010
0000
0001
0000
0100
0010
1000
0000
0100
0010
,
0001
0000
0100
0000
0010
0000
1000
0000
0001
0000
0010
0100
0010
0000
0001
0100
,
0010
0000
1000
0000
0100
0000
0010
0000
0001
0000
1000
0100
0010
0000
0001
0100
,
0010
0000
1000
0000
0100
0000
0010
0000
0001
0000
1000
0001
1000
0000
0000
0110
,
1001
0000
0000
0110
0000
0000
2002
0000
0000
0000
0000
0000
0000
0000
0000
0000
,
0000
0000
0000
0000
,
0000
0000
0000
0000
,
0000
0000
0000
0000
,
0000
0000
0000
0000
,
0000
0000
0000
0000
,
0000
0000
3003
0000
1010
0000
0000
0000
1000
0001
0100
0001
1000
0010
0100
0010
,
1000
0100
0010
0001
1000
0001
1000
0010
0100
0001
0100
0001
0010
0100
1000
0001
,
1000
0100
0010
0100
1000
0010
0100
0001
0100
0001
0010
0100
1000
0001
1000
0010
,
1000
0100
1000
0001
1000
0001
0010
0100
0010
0001
1000
0001
0100
0001
0010
0100
,
1000
0010
1000
0100
1000
0010
1000
0100
0010
0100
1000
0001
1000
0001
0100
0001
,
0010
0100
1000
0001
1000
0010
0100
0001
0100
0001
0010
0100
1000
0001
1000
0010
,
0100
0001
0010
0100
1000
0100
1000
0010
0100
0010
0100
0001
0100
0001
1000
0010
,
1000
0010
0100
0001
0010
0100
1000
0001
1000
0001
0010
0100
1000
0010
0100
0001
,
1000
0001
1000
0100
0010
0001
1000
0001
1000
0100
0010
0100
1000
0010
0100
0001
,
0010
0100
1000
0001
1000
0001
1000
0010
0100
0010
0100
0001
0100
0001
1000
0001
,
1000
0010
0100
0001
0010
0100
1000
0100
0010
0001
1000
0001
1000
0010
0100
0001
,
0010
0100
1000
0001
1000
0001
1000
0010
1000
0100
1000
0010
0100
0001
0010
0001
,
0100
0001
0010
0001
0100
0001
0100
0001
0100
0001
1000
0010
1000
0010
0100
0010
,
0100
0010
0100
0001
0010
0100
1000
0001
1000
0001
1000
0010
0100
0001
0010
0100
,
1000
0001
1000
0001
1000
0100
0010
0100
1000
0010
0100
0001
0010
0001
0100
0001
,
0010
0100
1000
0001
0010
0100
1000
0010
0100
0010
0100
0001
0010
0100
1000
0100
,
0010
0001
1000
0001
1000
0001
1000
0010
0100
0001
0000
1000
0010
0100
0001
1000
,
0010
0100
0001
0010
0100
1000
0001
0010
0100
1000
0001
0010
0100
1000
0010
0100
,
0001
1000
0010
0100
0001
1000
0010
0100
0001
0010
0100
1000
0100
0010
0001
0010
,
0100
1000
0001
1000
0100
1000
0001
1000
0010
1000
0001
1000
0100
1000
0010
0100
,
0001
1000
0010
0100
0001
0010
0100
1000
0010
0100
0001
0010
0100
1000
0010
0100
,
0001
0010
0100
1000
0001
0010
0100
1000
0001
0010
0100
1000
0010
0100
0001
1000
,
0010
0100
0001
0010
0100
1000
0001
1000
0100
0010
0001
1000
0100
0010
0001
1000
,
0100
0010
0001
0100
0010
1000
0001
0100
0010
1000
0001
0100
0010
1000
0001
0100
,
0010
0000
0000
1000
0000
0000
0100
0000
0000
0010
0000
0000
0001
0000
0000
1000
0000
0000
0100
0000
0000
0010
0000
0000
0001
0000
0010
0000
0001
0000
0010
0000
0001
0000
0010
0000
0001
0000
0010
0000
0001
0000
0010
0000
0001
0000
0010
0000
,
0001
0010
0001
0010
0001
0010
0001
0000
0000
0000
0000
0000
0001
0000
0000
0100
0000
0000
0010
0000
0000
1000
0000
0000
,
0000
0200
0000
0000
0310
0001
0100
0020
,
0000
0030
0220
0000
0000
0000
0000
0000
,
0000
0000
0330
0000
1000
0000
0101
0000
0010
0000
0110
0000
0000
0000
0100
0001
,
0010
0000
1100
0000
0000
0000
0100
0010
0002
0000
0000
0000
2003
0000
0000
0000
,
3010
0000
0000
0000
0101
0000
0101
0000
0101
0000
0000
0000
0000
0000
1000
0010
,
0100
0002
0003
0202
0303
2020
0000
3030
,
2200
0000
0000
3300
0110
0000
0011
0011
,
0011
1010
0220
0000
,
0000
0000
0000
0000
0330
0000
0000
0000
2000
0000
0000
0000
3002
0000
0000
0003
,
0101
0000
0220
0000
0330
1101
0000
0000
MM00
0000
0000
0000
0M00
0000
00M0
0000
,
000M
0000
0M00
00M0
M000
0000
M000
0M00
,
00M0
0000
00M0
000M
0M00
0000
0M00
00M0
,
M000
0000
0000
0000
M000
0000
000M
0000
0000
0000
1100
0000
0000
0110
0000
0000
,
0011
0000
0000
0000
1001
0000
0000
0100
0010
0000
0000
0000
0110
0000
0000
0000
,
0110
0000
0000
0000
0000
0000
0110
0000
0000
0000
0000
0000
0110
0000
0000
0000
0000
0000
1000
0001
0100
0010
1000
0100
,
1000
0100
0010
0001
0010
0001
1000
0010
0100
0010
0100
0001
0010
0001
0010
0100
1000
0001
0010
0001
1000
0010
1000
0010
,
0100
0001
0100
0001
1000
0010
0100
0001
0010
0100
1000
0001
0010
0100
0010
0001
1000
0001
1000
0001
1000
0010
1000
0010
,
1000
0001
0100
0001
1000
0010
0100
0010
0100
0001
0010
0100
1000
0001
0010
0001
,
1000
0010
1000
0010
0100
0001
0100
0001
0010
0100
1000
0001
1000
0001
1000
0100
,
0010
0100
1000
0010
0100
0010
0100
0001
0010
0100
0010
0001
1000
0001
1000
0010
,
0100
0000
0000
0000
0000
0000
0000
0000
0000
0000
0000
0000
0001
0000
0000
0000
0000
0000
0000
0000
0000
0000
0000
0000
0010
0000
0000
0000
0000
0000
0000
0000
0000
0000
0000
0000
0100
0000
0000
0000
0000
0000
0000
0000
0000
0000
0000
0000
1000
0000
0000
0000
0000
0000
0000
0000
0100
0000
0000
0000
0000
0000
0000
0000
1000
0000
0000
0000
0000
0000
0000
0000
0100
0000
0000
0000
0000
0000
0000
0000
1000
0000
0000
0000
0000
0000
0000
0000
0100
0000
0000
0000
0000
0000
0000
0000
1000
0000
0000
0000
0000
0000
0000
0000
0100
0000
0000
0000
0000
0000
0000
0000
1000
0000
0000
0000
0000
0000
0000
0000
0100
0000
0000
0000
0000
0000
0000
0000
1000
0000
0000
0000
0000
0000
0000
0000
0100
0000
0000
0000
0000
0000
0000
0000
1000
0000
0000
0000
0000
0000
0100
0000
0000
0000
0000
0000
1000
0000
0000
0000
0000
0000
0100
0000
0000
0000
0000
0000
1000
0000
0000
0000
0000
0000
0100
0000
0000
0000
0000
0000
1000
0000
0000
0000
0000
0000
0100
0000
0000
0000
0000
0000
,
1000
0100
0010
0001
1000
0010
0100
0010
0100
0001
0100
0001
0010
0100
1000
0100
1000
0100
1000
0010
0100
0010
0100
0001
,
0010
0100
1000
0100
1000
0100
1000
0010
0100
0010
0100
0001
0010
0001
1000
0010
1000
0001
0100
0001
0010
0100
1000
0001
,
0010
0001
0010
0001
1000
0010
1000
0010
0100
0010
0100
0001
0100
0001
1000
0010
1000
0001
1000
0100
1000
0100
1000
0100
,
0010
0100
0010
0001
0010
0001
1000
0010
1000
0010
0100
0001
0010
0100
1000
0001
0010
0100
1000
0100
1000
0100
1000
0010
,
1000
0001
1000
0001
1000
0100
0010
0001
0100
0001
1000
0001
0100
0001
0010
0001
0010
0001
0010
0100
1000
0010
0100
0010
,
0100
0001
0010
0100
1000
0001
0010
0001
0010
0001
0010
0001
2000
3020
0230
0320
2030
3020
0230
0320
2030
3020
0230
0320
,
2030
3001
0100
0010
1000
0100
1000
0010
1000
0010
0100
0001
0100
0001
0100
0001
1000
0010
1000
0010
0100
0001
0010
0100
,
1000
0001
1000
0001
1000
0010
0100
0001
0010
0100
1000
0100
1000
0100
1000
0001
,
1000
0010
0100
0001
0010
0001
1000
0010
0100
0001
0010
0100
1000
0001
1000
0001
,
1000
0100
0010
0100
1000
0010
0100
0010
0100
0001
0010
0100
0010
0001
1000
0001
,
1000
0010
1000
0010
1000
0001
0100
0001
1000
0010
0100
0010
0100
0001
0010
0100
,
1000
0001
0010
0100
1000
0010
0100
0010
1000
0100
0010
0100
1000
0010
0100
0001
,
0010
0001
0100
0001
1000
0001
0100
0001
0010
0100
1000
0001
0010
0001
1000
0001
,
0100
0001
1000
0100
0010
0100
1000
0001
0100
0001
1000
0010
0100
0001
0010
0100
,
1100
0000
0000
0000
,
0000
0000
0000
0000
,
0000
0000
0000
0000
,
0000
0000
0000
0000
,
0000
0000
0000
1000
0001
1000
0001
1000
0001
1000
0001
1000
0001
1000
0001
1000
0001
1000
0001
0000
0000
0000
0000
0000
;
