#TITLE:Bounce;
#SUBTITLE:;
#ARTIST:Tune Up! feat. Nightcore;
#TITLETRANSLIT:;
#SUBTITLETRANSLIT:;
#ARTISTTRANSLIT:;
#CREDIT:owenviau1;
#BANNER:../owenviau1 Simfiles 5-bn.png;
#BACKGROUND:../owenviau1 Simfiles 5-bg.png;
#LYRICSPATH:;
#CDTITLE:../ov1_title.png;
#MUSIC:Nightcore - Bounce.mp3;
#OFFSET:-0.481;
#SAMPLESTART:22.642;
#SAMPLELENGTH:29.999;
#SELECTABLE:YES;
#DISPLAYBPM:170.420;
#BPMS:0.000=170.413,2.000=170.402,3.000=170.413,5.000=170.402,6.000=170.413,8.000=170.402,9.000=170.413,11.000=170.402,12.000=170.413,14.000=170.402,15.000=170.413,16.000=170.402,17.000=170.413,19.000=170.402,20.000=170.413,22.000=170.402,23.000=170.413,25.000=170.402,26.000=170.413,28.000=170.402,29.000=170.413,31.000=170.402,32.000=170.413,34.000=170.402,35.000=170.413,36.000=170.402,37.000=170.413,39.000=170.402,40.000=170.413,42.000=170.402,43.000=170.413,44.000=170.402,45.000=170.413,47.000=170.402,48.000=170.413,50.000=170.402,51.000=170.413,52.000=170.402,53.000=170.413,55.000=170.402,56.000=170.413,58.000=170.402,59.000=170.413,60.000=170.402,61.000=170.413,63.000=170.402,64.000=170.413,66.000=170.402,67.000=170.413,68.000=170.402,69.000=170.413,71.000=170.402,72.000=170.413,74.000=170.402,75.000=170.413,76.000=170.402,77.000=170.413,79.000=170.402,80.000=170.413,82.000=170.402,83.000=170.413,84.000=170.402,85.000=170.413,87.000=170.402,88.000=170.413,90.000=170.402,91.000=170.413,92.000=170.402,93.000=170.413,95.000=170.402,96.000=170.413,98.000=170.402,99.000=170.413,100.000=170.402,101.000=170.413,103.000=170.402,104.000=170.413,106.000=170.402,107.000=170.413,108.000=170.402,109.000=170.413,111.000=170.402,112.000=170.413,114.000=170.402,115.000=170.413,116.000=170.402,117.000=170.413,119.000=170.402,120.000=170.413,122.000=170.402,123.000=170.413,124.000=170.402,125.000=170.413,127.000=170.402,128.000=170.413,130.000=170.402,131.000=170.413,132.000=170.402,133.000=170.413,136.000=170.402,137.000=170.413,140.000=170.402,141.000=170.413,144.000=170.402,145.000=170.413,148.000=170.402,149.000=170.413,152.000=170.402,153.000=170.413,156.000=170.402,157.000=170.413,160.000=170.402,161.000=170.413,164.000=170.402,165.000=170.413,168.000=170.402,169.000=170.413,172.000=170.402,173.000=170.413,176.000=170.402,177.000=170.413,180.000=170.402,181.000=170.413,184.000=170.402,185.000=170.413,188.000=170.402,189.000=170.413,192.000=170.402,193.000=170.413,196.000=170.402,197.000=170.413,200.000=170.402,201.000=170.413,204.000=170.402,205.000=170.413,208.000=170.402,209.000=170.413,212.000=170.402,213.000=170.413,216.000=170.402,217.000=170.413,220.000=170.402,221.000=170.413,224.000=170.402,225.000=170.413,228.000=170.402,229.000=170.413,232.000=170.402,233.000=170.413,236.000=170.402,237.000=170.413,240.000=170.402,241.000=170.413,244.000=170.402,245.000=170.413,248.000=170.402,249.000=170.413,252.000=170.402,253.000=170.413,256.000=170.402,257.000=170.413,260.000=170.402,261.000=170.413,264.000=170.402,265.000=170.413,268.000=170.402,269.000=170.413,270.000=170.402,271.000=170.413,272.000=170.402,273.000=170.413,274.000=170.402,275.000=170.413,276.000=170.402,277.000=170.413,278.000=170.402,279.000=170.413,280.000=170.402,281.000=170.413,282.000=170.402,283.000=170.413,284.000=170.402,285.000=170.413,286.000=170.402,287.000=170.413,288.000=170.402,289.000=170.413,290.000=170.402,291.000=170.413,292.000=170.402,293.000=170.413,294.000=170.402,295.000=170.413,296.000=170.402,297.000=170.413,298.000=170.402,299.000=170.413,300.000=170.402,301.000=170.413,302.000=170.402,303.000=170.413,304.000=170.402,305.000=170.413,306.000=170.402,307.000=170.413,308.000=170.402,309.000=170.413,310.000=170.402,311.000=170.413,312.000=170.402,313.000=170.413,314.000=170.402,315.000=170.413,316.000=170.402,317.000=170.413,318.000=170.402,319.000=170.413,320.000=170.402,321.000=170.413,322.000=170.402,323.000=170.413,324.000=170.402,325.000=170.413,326.000=170.402,327.000=170.413,328.000=170.402,329.000=170.413,330.000=170.402,331.000=170.413,332.000=170.402,333.000=170.413,334.000=170.402,335.000=170.413,336.000=170.402,337.000=170.413,338.000=170.402,339.000=170.413,340.000=170.402,341.000=170.413,342.000=170.402,343.000=170.413,344.000=170.402,345.000=170.413,346.000=170.402,347.000=170.413,348.000=170.402,349.000=170.413,350.000=170.402,351.000=170.413,352.000=170.402,353.000=170.413,354.000=170.402,355.000=170.413,356.000=170.402,357.000=170.413,358.000=170.402,359.000=170.413,360.000=170.402,361.000=170.413,362.000=170.402,363.000=170.413,364.000=170.402,365.000=170.413,366.000=170.402,367.000=170.413,368.000=170.402,369.000=170.413,370.000=170.402,371.000=170.413,372.000=170.402,373.000=170.413,374.000=170.402,375.000=170.413,376.000=170.402,377.000=170.413,378.000=170.402,379.000=170.413,380.000=170.402,381.000=170.413,382.000=170.402,383.000=170.413,384.000=170.402,385.000=170.413,386.000=170.402,387.000=170.413,388.000=170.402,389.000=170.413,390.000=170.402,391.000=170.413,392.000=170.402,393.000=170.413,394.000=170.402,395.000=170.413,396.000=170.402,397.000=170.413,398.000=170.402,399.000=170.413,400.000=170.402,401.000=170.413,402.000=170.402,403.000=170.413,404.000=170.402,405.000=170.413,406.000=170.402,407.000=170.413,408.000=170.402,409.000=170.413,410.000=170.402,411.000=170.413,412.000=170.402,413.000=170.413,414.000=170.402,415.000=170.413,416.000=170.402,417.000=170.413,418.000=170.402,419.000=170.413,420.000=170.402,421.000=170.413,422.000=170.402,423.000=170.413,424.000=170.402,425.000=170.413,426.000=170.402,427.000=170.413,428.000=170.402,429.000=170.413,430.000=170.402,431.000=170.413,432.000=170.402,433.000=170.413,434.000=170.402,435.000=170.413,436.000=170.402,437.000=170.413,438.000=170.402,439.000=170.413,440.000=170.402,441.000=170.413,442.000=170.402,443.000=170.413,444.000=170.402,445.000=170.413,446.000=170.402,447.000=170.413,448.000=170.402,449.000=170.413,450.000=170.402,451.000=170.413,452.000=170.402,453.000=170.413,454.000=170.402,455.000=170.413,456.000=170.402,457.000=170.413,458.000=170.402,459.000=170.413,460.000=170.402,461.000=170.413,462.000=170.402,463.000=170.413,464.000=170.402,465.000=170.413,466.000=170.402,467.000=170.413,468.000=170.402,469.000=170.413,470.000=170.402,471.000=170.413,472.000=170.402,473.000=170.413,474.000=170.402,475.000=170.413,476.000=170.402,477.000=170.413,478.000=170.402,479.000=170.413,480.000=170.402,481.000=170.413,482.000=170.402,483.000=170.413,484.000=170.402,485.000=170.413,486.000=170.402;
#STOPS:;
#BGCHANGES:;
// cache tags:
#FIRSTBEAT:31.000;
#LASTBEAT:485.000;
#SONGFILENAME:Songs/owenviau1 Simfiles 5/Bounce - [owenviau1] v1.3/Bounce.sm;
#HASMUSIC:1;
#HASBANNER:1;
#MUSICLENGTH:172.042;
// end cache tags

//---------------dance-single - ----------------
#NOTES:
     dance-single:
     :
     Hard:
     10:
     0.687,0.881,0.279,0.273,0.142,732.000,48.000,47.000,3.000,1.000:
0000
0000
0000
0000
,
0000
0000
0000
0000
,
0000
0000
0000
0000
,
0000
0000
0000
0000
,
0000
0000
0000
0000
,
0000
0000
0000
0000
,
0000
0000
0000
0000
,
0000
0000
0000
0000
0000
0000
2000
3000
,
0002
0203
0000
0320
2030
3200
0320
0000
,
0032
2003
0000
3200
0320
0230
0302
0000
,
2003
3000
0020
0000
0000
0000
2030
0000
3200
0000
0320
0000
0032
0000
0000
0000
,
2003
3020
0030
0200
2300
3200
0320
0000
,
0032
2003
0000
3200
0320
0032
0203
0000
,
0320
2030
0000
0000
3200
0320
0030
0000
,
0002
0003
2000
3000
0000
0000
0000
0000
0000
0000
0002
0000
0203
0000
0000
0000
,
0320
2030
0000
3020
0230
1300
1MM1
0001
,
0010
0100
1000
0001
0100
0010
1000
0100
,
1000
0010
0100
0001
1000
0001
0100
0001
,
1000
0010
0100
0001
1000
0010
0100
0010
,
1000
0001
0100
0010
0100
0001
1000
0001
,
0100
0010
1000
0010
0100
0001
1000
0001
,
0100
0010
1000
0100
0010
0001
0100
0010
,
0100
0001
1000
0010
0100
0010
1000
0001
,
0010
0000
0000
0100
0000
0000
1000
0000
0000
0010
0000
0000
1000
0001
1000
0001
1000
0001
1000
0000
0000
0100
0000
0000
,
0010
0001
1000
0010
1000
0001
0100
0010
,
0100
0001
1000
0010
0100
0010
1000
0100
,
0010
0001
0010
0100
1000
0010
1000
0001
,
0100
0001
0010
0100
1000
0001
1000
0010
,
0100
0010
1000
0001
0010
0001
1000
0010
,
0100
0001
0010
0001
1000
0010
0100
0001
,
1000
0100
0010
0001
1000
0001
0100
0010
1000
0001
1000
0100
0010
0000
0000
0000
,
0000
0000
0000
0000
0000
0000
0010
0100
,
0001
1000
0010
1000
0100
0010
0001
0100
,
0001
1000
0001
0100
0010
0100
0001
0010
,
0100
1000
0010
0100
0001
1000
0001
0010
,
0001
0100
0010
1000
0100
1000
0010
0100
,
0001
1000
0001
0100
0001
0010
0100
1000
,
0010
1000
0001
0010
0100
1000
0001
0100
,
0010
1000
0001
0100
0001
1000
0100
0010
,
0001
0100
0001
1000
0010
1000
0001
0100
0010
1000
0010
0100
0001
0000
0100
0000
,
0010
1000
0001
1000
0100
0010
0001
0100
,
0001
1000
0010
0100
0001
0010
0001
0100
,
0010
1000
0100
1000
0001
1000
0010
0100
,
0001
0100
0010
1000
0010
0100
0001
0010
,
0100
1000
0100
0010
0001
1000
0010
1000
,
0001
0100
0001
1000
0100
0010
0001
0100
,
0010
0100
0001
1000
0001
0100
0010
1000
,
0001
0000
1000
0000
0100
0010
0001
1000
0001
0100
0010
1000
0001
0000
0000
0000
,
0000
0000
0000
0000
,
0000
0000
0000
0000
,
0000
0000
0000
0000
,
0000
0000
0000
0000
,
0000
0000
0000
0000
,
0000
0000
0000
0000
,
0000
0000
0000
0000
,
0000
0000
0000
0000
0000
0000
0001
1000
,
0001
0100
0010
1000
0001
0100
0001
1000
,
0100
0010
0001
0010
0100
1000
0100
0010
,
0100
1000
0010
0100
0001
1000
0001
0010
,
0001
0100
0010
1000
0100
1000
0001
0010
,
0100
1000
0010
1000
0001
0100
0001
1000
,
0010
0100
0001
1000
0100
0010
0001
1000
,
0010
1000
0100
0001
0010
0100
1000
0000
,
0000
0000
0000
1001
,
0000
0000
0000
0000
,
0000
0000
0000
0000
,
0000
0000
0000
0000
,
0000
0000
0000
0000
,
0000
0000
0000
0000
,
0000
0000
0000
0000
,
1000
0100
0010
0001
1000
0001
0100
0001
1000
0010
1000
0001
0200
0000
0000
0000
,
0000
0320
0032
1013
,
0000
0110
0000
0000
0000
1000
1001
0000
,
0000
0000
1000
0000
1001
0000
0000
0101
0000
0000
0010
0000
1010
0000
0000
0000
,
0000
0001
0101
0000
0000
0010
1010
0000
,
0000
0000
0001
0000
1001
0000
0000
1100
0000
0000
0100
0000
0110
0000
0000
0000
,
0000
0011
M000
1000
0001
0001
1001
0000
,
0000
0000
0001
0000
0011
0000
0000
0110
0000
0000
1000
0000
1001
0000
0000
0000
,
0000
0000
0100
0000
0110
0000
0000
0000
0000
0000
0001
0000
0101
0000
0000
1100
,
0000
0000
1000
0000
1001
0000
0000
0101
0000
0000
1000
0000
1001
0000
0000
0000
,
1100
1010
0011
0101
,
1100
1001
0110
0011
,
1100
1001
0110
0011
,
1100
0011
1001
0110
,
0011
1100
1001
0110
,
0011
0000
0110
0000
1001
0000
1000
0100
,
0010
0000
1000
0000
0001
0000
0100
0000
0010
0000
1000
0000
0001
0010
0100
1000
,
0001
1000
0100
0010
0001
1000
0001
0100
0001
0010
0100
1000
0010
0000
1000
0000
,
0001
0100
0010
1000
0100
0010
0100
1000
,
0001
0100
0010
1000
0001
0010
1000
0001
,
0100
0001
0010
0100
1000
0001
1000
0010
,
0100
0001
0100
0010
1000
0001
1000
0100
,
0010
0001
0010
0100
1000
0010
0100
0001
,
1000
0010
1000
0100
0010
0001
1000
0001
,
0100
0010
1000
0001
0010
0100
1000
0000
,
0000
0000
0000
0000
0000
0000
1001
0001
,
1000
0100
0010
0001
0010
0100
1000
0001
,
0010
0100
1000
0001
0100
0010
1000
0001
,
1000
0100
0010
0001
0100
0001
1000
0100
,
0010
0001
1000
0010
0100
0001
1000
0001
,
0100
0010
1000
0100
1000
0001
1000
0100
,
0010
0001
1000
0001
0100
0010
0100
0001
,
1000
0010
0100
0010
1000
0001
0010
0001
,
1000
0010
0100
0010
1000
0001
0100
0001
,
1000
0010
0100
0010
1000
0100
0010
0001
,
1000
0010
0100
0001
1000
0001
0100
0001
,
0010
0100
1000
0010
1000
0001
0010
0100
,
1000
0010
1000
0001
1000
0001
0010
0001
,
0100
0010
1000
0100
1000
0001
0100
0010
,
1000
0100
0010
0001
0010
0100
1000
0010
,
0100
0001
1000
0001
0100
0010
1000
0100
,
0010
1000
0001
0100
0001
1000
0010
1000
0100
0010
0001
1000
0001
0000
0100
0000
,
0010
1000
0001
0100
0001
1000
0010
0100
,
0001
1000
0100
0010
0001
0100
0010
1000
,
0001
0010
0100
1000
0001
0100
0001
1000
,
0010
1000
0100
0010
0001
0100
0010
0100
,
0001
1000
0001
0100
0010
1000
0100
0010
,
0001
0100
0010
0100
0001
1000
0100
0010
,
0001
1000
0001
1000
0100
0001
0010
0100
,
1000
0000
0001
0000
1000
0010
1000
0100
0010
0001
1000
0001
0200
0000
0000
0000
,
0000
0000
0000
0000
,
0000
0300
0000
0000
;

//---------------dance-single - ----------------
#NOTES:
     dance-single:
     :
     Challenge:
     11:
     1.000,1.000,1.000,0.279,0.151,785.000,391.000,48.000,32.000,4.000:
0000
0000
0000
0000
,
0000
0000
0000
0000
,
0000
0000
0000
0000
,
0000
0000
0000
0000
,
0000
0000
0000
0000
,
0000
0000
0000
0000
,
0000
0000
0000
0000
,
0000
0000
0000
0000
0000
0000
2000
3000
,
0002
0203
0000
0320
2030
3200
0320
0000
,
0032
2000
0000
3203
0320
0230
0302
0000
,
2003
3000
0020
0000
0000
0000
2030
0000
3200
0000
0320
0000
0032
0000
0000
0000
,
2003
3020
0030
0200
2300
3200
0320
0000
,
0032
2000
0000
3203
0320
0032
0203
0000
,
0320
2000
0000
0000
3230
0320
0030
0000
,
0002
0003
2000
3000
0000
0000
0000
0000
0000
0000
0002
0000
0203
0000
0000
0000
,
0320
2030
0000
3020
0230
1300
1MM1
0100
,
0011
1000
0110
0010
1001
0001
1100
0010
,
1001
0100
0110
1000
0011
0001
1100
0001
,
0110
1000
1001
0100
0011
1000
0110
0001
,
1001
0010
0101
1000
0011
0100
1100
0001
,
0110
0001
1010
0100
1100
0001
0011
1000
,
1001
0010
0110
1000
0011
0001
1100
0010
,
1001
0010
0110
1000
0011
0100
1001
0010
,
0110
0000
0000
0001
0000
0000
1100
0000
0000
0010
0000
0000
1000
0100
0010
0001
0010
0100
1001
0000
0000
0100
0000
0000
,
1010
0001
0101
1000
0110
1000
0011
0100
,
1001
0001
0110
0001
1100
0010
1001
0100
,
0110
1000
0011
0100
1001
0010
0110
0001
,
1010
0001
1100
1000
0011
0100
1001
0010
,
0110
1000
0011
0001
1100
0001
0110
1000
,
0011
0100
1001
0010
0110
1000
0011
0100
,
0010
0100
0001
1000
0100
0010
0001
0100
0001
1000
0010
0100
1001
0000
0000
0000
,
M000
0M00
0000
000M
M000
00M0
1MM1
0001
,
1010
0100
0101
1010
0110
1001
0101
0010
,
1010
0100
1001
0110
0011
0110
1100
0010
,
1001
0100
0011
1100
0101
1010
0110
1000
,
0011
0001
1100
1010
1001
0101
0011
1000
,
0110
1000
1001
0101
1010
1001
0110
0001
,
1100
0010
0101
1100
1010
0101
1001
1000
,
0110
0001
1010
0011
0101
1100
1010
0100
,
0001
1000
0010
1000
0001
0100
0010
1000
0100
0010
0001
0100
1001
0000
0100
0000
,
1010
0010
1001
0001
0110
1000
0011
1000
,
0110
0001
1010
0100
0101
1000
0011
0001
,
1100
0010
1001
0100
0110
1000
0011
0100
,
1001
0010
0110
0001
1100
0010
0101
1000
,
0011
0001
1100
0010
1001
0100
0110
1000
,
0101
1000
0011
0001
1100
0001
0110
1000
,
0101
0010
1001
0010
0101
0010
1100
0011
,
0110
0000
1001
0000
0100
0010
1000
0001
0010
0100
1000
0010
1001
0000
0000
0000
,
0000
0000
0000
0000
,
0000
0000
0000
0000
,
0000
0000
0000
0000
,
0000
0000
0000
0000
,
0000
0000
0000
0000
,
0000
0000
0000
0000
,
0000
0000
0000
0000
,
0000
0000
0000
0000
0000
0000
1001
0100
,
1010
0100
0011
1000
1001
0100
0110
0001
,
1100
0010
1001
0100
0110
1000
0011
0001
,
1100
0001
0110
1000
0011
0001
1100
0010
,
1001
0100
0110
1000
0101
0010
1010
0100
,
1001
0001
0110
1000
0011
1000
0110
0010
,
1001
0001
1100
0001
0110
1000
0011
0100
,
1001
0100
1010
0001
1100
0010
1M01
0000
,
00M0
000M
0000
M000
00M0
0M00
1001
0010
,
0110
0001
1010
0001
1100
0010
1001
0100
,
0110
1000
0101
1000
0011
1000
0110
0010
,
1001
0100
1010
0001
1100
1000
0011
0100
,
1001
0001
0110
1000
0011
0010
1100
0010
,
1001
1000
0110
1000
0011
0001
1100
0010
,
1001
1000
0110
1000
0011
1000
0110
0001
,
1000
0100
0010
0001
0100
0010
1000
0010
0100
0001
1000
0001
M120
0000
0000
0000
,
0M00
000M
0230
M000
03M2
0M00
1013
0000
,
0000
0110
0000
0000
0000
0110
1001
0000
,
0000
0000
1010
0000
1001
0000
0000
0101
0000
0000
0110
0000
1010
0000
0000
0000
,
0000
0011
1100
0000
0000
0110
0101
0000
,
0000
0000
1010
0000
0011
0000
0000
1100
0000
0000
0101
0000
1010
0000
0000
0000
,
0000
0011
M000
1010
0101
0101
1010
0000
,
0000
0000
1001
0000
0011
0000
0000
0110
0000
0000
1100
0000
1001
0000
0000
0000
,
0000
0000
1100
0000
0110
0000
0000
0000
0000
0000
0011
0000
0110
0000
0000
1100
,
0000
0000
0110
0000
1001
0000
0000
0101
0000
0000
1010
0000
1001
0000
0000
0000
,
1100
1010
0011
0101
,
1100
1001
0110
0011
,
1100
1001
0110
0011
,
1100
0011
1001
0110
,
0011
1100
1001
0110
,
0011
0000
0110
0000
1001
0000
1100
0101
,
1010
0000
0101
0000
0110
0000
1001
0000
0011
0000
0110
0000
1000
0100
0010
0001
,
0100
0010
1000
0010
0100
0001
0010
0100
1000
0001
1000
0010
1001
0000
0100
0000
,
1010
0100
0011
1100
0110
1001
0110
0010
,
1100
0001
0011
1100
1001
0110
1001
0100
,
0011
0100
1001
1010
0101
0110
1001
0010
,
1100
1000
0011
0101
0110
1010
1100
1000
,
0011
0001
1100
1010
1001
0101
0011
1000
,
1100
0001
0011
1100
0101
1100
0110
0001
,
1100
0010
1001
0110
1001
1010
M1M1
0000
,
0M0M
0000
0000
0000
MM00
0000
0MM0
0000
00MM
0000
0100
0010
1001
0000
0010
0000
,
1100
1000
0011
0010
0101
0010
1001
0100
,
0110
1000
0011
0010
1100
0001
0110
0100
,
1001
0010
0110
1000
0101
1000
1010
0100
,
1001
0010
0110
0001
0011
0100
1001
0010
,
0110
1000
0011
0100
1100
0001
0110
0010
,
0101
0010
1100
0010
1001
0001
0110
1000
,
0011
0010
1100
0001
0110
1000
0011
0001
,
1100
0001
0110
0100
1001
0010
0101
1000
,
1001
0001
0110
1000
0101
0010
1001
0100
,
1010
0001
0011
0100
1001
0001
0110
1000
,
0011
0010
1100
0001
0110
0001
1010
0100
,
1001
0100
0011
0010
1001
0001
0110
1000
,
1001
0100
0011
1000
0110
1000
0101
0001
,
1010
0001
0110
1000
0011
0100
1001
0010
,
0110
1000
0101
0010
1100
0001
0110
0001
,
1000
0010
0100
0001
0010
0001
1000
0100
1000
0001
1000
0001
0110
0000
1000
0000
,
0101
0001
1010
0010
0101
0010
1100
0010
,
1001
1000
0110
1000
0011
1000
0110
0001
,
1001
0010
0101
0100
1001
0010
1100
0001
,
1001
0100
0110
1000
0101
0010
1100
0001
,
0110
1000
0011
0100
1001
0010
0110
0001
,
1100
1000
0011
0100
1001
0010
0110
0001
,
1100
0010
1001
0100
0011
1000
0110
0001
,
1000
0100
0010
0001
1000
0001
0100
0010
1000
0001
0010
0100
2002
0000
0000
0000
,
0000
0000
0000
0000
,
0000
3003
0000
0000
;
