#TITLE:U Inside My Dim Memory;
#SUBTITLE:;
#ARTIST:Hyun Jin Young;
#TITLETRANSLIT:;
#SUBTITLETRANSLIT:;
#ARTISTTRANSLIT:;
#CREDIT:;
#BANNER:UInsideMyDimMemory-banner.jpg;
#BACKGROUND:UInsideMyDimMemory-bg.jpg;
#LYRICSPATH:;
#CDTITLE:!kommi-cdtitle.png;
#MUSIC:Pump It Up - U Inside My Dim Memory.mp3;
#OFFSET:-5.140;
#SAMPLESTART:13.633;
#SAMPLELENGTH:12.900;
#SELECTABLE:YES;
#BPMS:0.000=118.050;
#STOPS:29.000=0.500
,48.000=0.260
,48.250=0.260
;
#BGCHANGES:;
// cache tags:
#FIRSTBEAT:0.000;
#LASTBEAT:199.500;
#SONGFILENAME:Songs/KBU/U Inside My Dim Memory (Kommisar)/UIMDM.sm;
#HASMUSIC:1;
#HASBANNER:1;
#MUSICLENGTH:109.589;
// end cache tags

//---------------dance-single - Copied from Copied f----------------
#NOTES:
     dance-single:
     Copied from Copied f:
     Hard:
     12:
     1.000,1.000,1.000,1.000,0.908,535.000,178.000,230.000,28.000,22.000:
2000
0000
0000
0000
0000
0000
0000
0000
0000
0000
0000
0000
0000
0000
0000
0000
3011
0000
0000
0000
0000
0000
0000
0000
0200
0000
0300
0000
0000
0000
0000
0000
2000
0000
3000
0000
0000
0000
0000
0000
0200
0000
0300
0000
0000
0000
0000
0000
0002
0000
0003
0000
0000
0000
0000
0000
1200
0300
0000
0000
0000
0000
0000
0000
,
0120
0030
0000
0000
0000
0000
0000
0000
0210
0000
0300
0000
0000
0000
0000
0000
1101
0000
0000
0000
0000
0000
0000
0000
0020
0030
0000
0000
0000
0000
0000
0000
0200
0000
0300
0000
0000
0000
0000
0000
0020
0030
0000
0000
0000
0000
0000
0000
2000
0000
3000
0000
0000
0000
0000
0000
0012
0003
0000
0000
0000
0000
0000
0000
,
0120
0030
0000
0000
0000
0000
0000
0000
1200
0300
0000
0000
0000
0000
0000
0000
1011
0000
0000
0000
0000
0000
0000
0000
0200
0000
0300
0000
0000
0000
0000
0000
2000
3000
0000
0000
0000
0000
0000
0000
0200
0000
0300
0000
0000
0000
0000
0000
0002
0000
0003
0000
0000
0000
0000
0000
0210
0300
0000
0000
0000
0000
0000
0000
,
0021
0030
0000
0000
0000
0000
0000
0000
1002
0003
0000
0000
0000
0000
0000
0000
0100
0000
0000
0000
0100
0000
0000
0000
0020
0000
0030
0000
0000
0000
0000
0000
0200
0000
0300
0000
0000
0000
0000
0000
0020
0000
0030
0000
0000
0000
0000
0000
0200
0000
0300
0000
1000
0000
0000
0000
1000
0000
0000
0000
0000
0000
0000
0000
,
0100
0100
0100
0100
1001
0000
1000
0010
1001
0100
0010
0001
1200
0300
0010
1000
,
0012
0003
0100
0010
2001
3000
0010
1000
0011
0100
0001
0010
1100
0001
1210
0300
,
0000
1012
0003
0000
1201
0300
0010
0001
1010
0100
0020
0031
1200
0300
0010
1000
,
0012
0003
0100
0001
1020
0030
0000
0000
0010
0100
0010
0100
0010
0100
0010
0100
,
1001
0000
0000
1000
1100
0000
0000
0010
0011
0000
0100
0000
0011
0000
0000
0010
,
0110
0000
0000
0100
0101
0000
0000
0001
0011
0000
1000
1000
1001
0000
0020
0130
,
0201
0300
0000
1000
1001
0000
0000
0100
1100
0000
0001
0000
0011
0000
0000
0100
,
1100
0000
0000
0010
0011
0000
0000
0100
0100
0000
0002
0000
0000
0000
0003
0000
,
1001
0000
0000
0011
0000
0000
1100
0000
0000
0000
0000
0000
1001
0000
0000
0000
0000
0000
0000
0000
0000
0000
0000
0000
1001
0000
M0M0
0000
0101
0000
0M0M
1010
0000
0000
M0M0
0000
2102
0000
0000
3003
0000
0000
0000
0000
0000
0100
0000
0000
,
1100
0000
0000
0010
0011
0000
0100
0000
1001
0000
0000
0100
0110
0000
0000
0001
,
0101
0000
0000
1000
1010
0000
0001
0001
1001
0000
0000
0010
0110
0000
0000
0010
,
1010
0000
0000
0001
0101
0000
0100
0000
0110
0000
0000
1000
1010
0000
0000
0010
,
0110
0000
0000
0001
0011
0000
0100
0100
0110
0000
0000
1000
1100
0000
0000
0010
,
0011
0000
0000
0100
0110
0000
1000
0000
1001
0000
0000
0001
0101
0000
0000
1000
,
1010
0000
0000
0010
0011
0000
0100
0100
1100
0000
0000
0010
0110
0000
0000
1000
,
1010
0000
0000
0001
0011
0000
0100
0000
0110
0000
0000
0010
1001
0010
0100
0010
,
1100
0000
0000
0000
0010
0000
2000
0000
0000
0000
3000
0000
0100
0000
0000
0000
0022
0000
0000
0000
0000
0000
0033
0000
2000
3000
2000
3000
0100
0000
0010
0000
,
1001
0000
0010
0000
0200
0300
0200
0300
0001
0000
0200
0300
0200
0300
0010
0000
1001
0000
0100
0000
0010
0000
0001
0000
0020
0030
0020
0030
0001
0000
0010
0000
,
1100
0000
0001
0000
0020
0030
0020
0030
0001
0000
0020
0030
0020
0030
0001
0000
1010
0000
0100
0000
0010
0000
0001
0000
2000
3000
2000
3000
0010
0000
0001
0000
,
1010
0000
0001
0000
0200
0300
0200
0300
0001
0000
0200
0300
0200
0300
0010
0000
1001
0000
0100
0000
0010
0000
0001
0000
0020
0030
0020
0030
0001
0000
0010
0000
,
0101
0000
1000
0000
0020
0030
0020
0030
0001
0000
2000
3000
0200
0300
2000
3000
0012
0003
0200
0300
0020
0000
0030
0000
2000
3000
2000
3000
0010
0000
0100
0000
,
0011
0000
1000
0000
0200
0300
0200
0300
0001
0000
0200
0300
0200
0300
1000
0000
0101
0000
0010
0000
0100
0000
1000
0000
0020
0030
0020
0030
0001
0000
0010
0000
,
1100
0000
0001
0000
0020
0030
0020
0030
0100
0000
0020
0030
0020
0030
0001
0000
0110
0000
1000
0000
0100
0000
0010
0000
2000
3000
2000
3000
0010
0000
0100
0000
,
1001
0000
0010
0000
0200
0300
0200
0300
1000
0000
0200
0300
0200
0300
0001
0000
1010
0000
0100
0000
1000
0000
0100
0000
0020
0030
0020
0030
0001
0000
0010
0000
,
1100
0000
0000
0000
0000
0000
0000
0000
0000
0000
0000
0000
0001
0000
0000
0000
0000
0000
0000
0000
0000
0000
0000
0000
0020
0000
0000
0000
0000
0000
0030
0000
0000
0000
0000
0000
0020
0000
0000
0000
0000
0000
0030
0000
0000
0000
0000
0000
0100
0000
0000
0000
0000
0000
0000
0000
0000
0000
0000
0000
2000
0000
0000
0000
0000
0000
3000
0000
0000
0000
0000
0000
0200
0000
0000
0000
0000
0000
0300
0000
0000
0000
0000
0000
0020
0000
0000
0000
0000
0000
0030
0000
0000
0000
0000
0000
1200
0000
0000
0000
0000
0000
0300
0000
0000
0000
0000
0000
0020
0000
0000
0000
0000
0000
0030
0000
0000
0000
0000
0000
2002
0000
0000
0000
0000
0000
0000
0000
0000
0000
0000
0000
3003
0000
0000
0000
0000
0000
0000
0000
0000
0000
0000
0000
2202
0000
0000
0000
3303
0000
0000
0000
0000
0000
0000
0000
0000
0000
0000
0000
0000
0000
0000
0000
0000
0000
0000
0000
0010
0000
0000
0000
0000
0000
0000
0000
0000
0000
0000
0000
0000
0000
0000
0000
0000
0000
0000
0000
0000
0000
0000
0000
,
1001
0000
0000
0000
0000
0000
0100
0000
0000
0010
0000
0000
0100
0000
0000
0000
0000
0000
0010
0000
0000
0000
0000
0000
1001
0000
0000
0000
0000
0000
0100
0000
0000
0000
0000
0000
2022
3033
0000
0000
0000
0000
0100
0000
0000
0010
0000
0000
,
1001
0000
0000
0000
0000
0000
0100
0000
0000
0010
0000
0000
0100
0000
0000
0000
0000
0000
0001
0000
0000
0000
0000
0000
0010
0000
0000
0000
0000
0000
0010
0000
0000
0000
0000
0000
2202
3303
0000
0000
0000
0000
0000
0000
0000
0100
0000
0000
,
1100
0000
0020
0130
1001
0100
0010
0100
1001
0010
0200
1300
0011
0000
0000
0100
,
0110
0000
0020
0130
1001
0001
0001
0001
1001
0001
0200
0301
1010
0000
0000
0001
,
0101
0000
0020
0130
1001
1100
1000
1000
1100
1000
1000
1000
1010
0001
0100
0010
,
0011
0000
0200
0310
1001
0110
0010
0010
0011
0010
0010
0010
1100
0000
0000
0100
,
1100
0000
0020
0130
1001
0100
1000
0001
1100
0010
2000
3010
0011
0000
0000
0100
,
1100
0000
0000
0000
0000
0000
0020
0000
0000
1030
0000
0000
0101
0000
0000
0100
0000
0000
0100
0000
0000
0100
0000
0000
0110
0000
0000
0100
0000
0000
0002
0000
0000
0003
0000
0000
2220
3330
0000
0000
0000
0000
0001
0000
0000
0000
0000
0000
,
1100
0000
0000
0000
0000
0000
0010
0000
0000
0001
0000
0000
1100
0000
0000
0000
0000
0000
0010
0000
0000
0000
0000
0000
2002
0000
0000
3003
0000
0000
M01M
0000
0000
0000
0000
0000
0222
0333
0000
0000
0000
0000
0100
0000
0000
0000
0000
0000
,
1001
0000
0100
1000
0110
0000
0012
0003
00MM
2100
3000
MM00
2102
3003
0100
0000
,
1001
0000
0000
0000
0000
0000
0000
0000
0000
0000
0000
0000
0000
0000
0000
0000
0000
0000
0000
0000
0000
0000
0000
0000
0100
0000
0000
0000
0000
0000
0000
0000
0000
0000
0000
0000
0010
0000
0000
0000
0000
0000
0000
0000
0000
0000
0000
0000
0101
0000
0000
0000
0000
0000
0000
0000
0000
0000
0000
0000
0000
0000
0000
0000
0000
0000
0000
0000
0000
0000
0000
0000
1000
0000
0000
0000
0000
0000
0000
0000
0000
0000
0000
0000
0000
0000
0000
0000
0000
0000
0000
0000
0000
0000
0000
0000
0101
0000
0000
0000
0000
0000
0000
0000
0000
0000
0000
0000
0000
0000
0000
0000
0000
0000
0000
0000
0000
0000
0000
0000
0010
0000
0000
0000
0000
0000
0000
0000
0000
0000
0000
0000
0000
0000
0000
0000
0000
0000
0000
0000
0000
0000
0000
0000
2202
0000
0000
0000
3303
0000
0000
0000
0000
0000
0000
0000
0010
0000
0000
0000
0000
0000
0000
0000
0000
0000
0000
0000
0100
0000
0000
0000
0000
0000
0000
0000
0000
0000
0000
0000
0022
0000
0000
0000
0000
0000
0033
0000
0000
0000
0000
0000
,
0100
0000
1000
0000
0220
0330
0001
0000
0100
0000
0022
0033
0100
0000
0010
0000
2002
3003
0000
0000
0100
0000
0000
0000
2022
0000
3033
0000
0200
0300
0000
0000
,
2001
3000
0000
0000
0200
0300
0010
0000
0002
0003
0000
0000
0020
0030
0000
0000
1200
0300
0000
0000
0020
0030
0000
0000
2001
3000
0000
0000
0002
0003
0000
0000
,
1200
0300
0000
0000
0020
0030
0100
0000
2000
3000
0000
0000
1022
0033
0000
0000
0000
0000
2102
3003
0000
0000
0000
0000
2202
3303
0000
0000
0020
0030
0000
0000
,
1002
0003
0000
0000
0020
0030
0100
0000
2000
3000
0000
0000
0200
0300
0000
0000
0021
0030
0000
0000
0200
0300
0000
0000
2001
3000
0000
0000
0002
0003
0000
0000
,
1020
0030
0000
0000
0200
0300
0010
0000
0002
0003
0010
0000
0200
0300
1000
0000
0120
0030
0001
0000
2000
3000
0100
0000
0012
0003
0000
0000
0200
0300
0000
0000
,
0021
0030
0000
0000
0200
0300
0010
0000
0002
0003
0000
0000
2000
3000
0000
0000
0021
0030
0000
0000
0200
0300
0000
0000
2001
3000
0000
0000
0020
0030
0000
0000
,
1200
0300
0000
0000
0020
0030
0100
0000
2000
3000
0000
0000
0121
0030
0000
0000
0000
0000
1201
0300
0000
0000
0000
0000
2022
3033
0000
0000
0020
0030
0000
0000
,
1002
0003
0000
0000
0020
0030
0100
0000
2000
3000
0000
0000
0020
0030
0000
0000
0201
0300
0000
0000
0020
0030
0000
0000
2002
3003
0000
0000
0020
0030
0000
0000
,
2001
0000
3000
0000
0000
0000
0000
0000
0002
0000
0003
0000
0010
0000
0000
0000
1200
0000
0300
0000
0000
0000
0000
0000
0020
0000
0030
0000
0000
0000
0000
0000
0102
0000
0003
0000
0000
0000
0000
0000
0020
0000
0030
0000
0000
0000
0000
0000
2002
3003
0000
0000
M00M
0000
0000
0000
0000
0000
0000
0000
0220
0330
0000
0000
,
0MM0
0000
0000
0000
0000
0000
0000
0000
2200
3300
0000
0000
MM00
0000
0000
0000
0000
0000
0000
0000
0022
0033
0000
0000
00MM
0000
0000
0000
0000
0000
0000
0000
2020
3030
0000
0000
M0M0
0000
0000
0000
0202
0303
0000
0000
0M0M
0000
0000
0000
2222
0000
0000
0000
3333
0000
0000
0000
MMMM
0000
0000
0000
0000
0000
0000
0000
;
