#TITLE:Make the beat drop;
#SUBTITLE:(No vocal edit);
#ARTIST:Scott Brown;
#TITLETRANSLIT:;
#SUBTITLETRANSLIT:;
#ARTISTTRANSLIT:;
#CREDIT:;
#BANNER:;
#BACKGROUND:;
#LYRICSPATH:;
#CDTITLE:;
#MUSIC:makethebeatdrop_radio.mp3;
#OFFSET:0.000;
#SAMPLESTART:35.209;
#SAMPLELENGTH:5.000;
#SELECTABLE:YES;
#BPMS:0.000=170.410;
#STOPS:33.500=0.100
;
#BGCHANGES:;
// cache tags:
#FIRSTBEAT:11.000;
#LASTBEAT:164.000;
#SONGFILENAME:Songs/new cedric/Make the beat drop/Make the beat drop.sm;
#HASMUSIC:1;
#HASBANNER:0;
#MUSICLENGTH:58.336;
// end cache tags

//---------------dance-single - ----------------
#NOTES:
     dance-single:
     :
     Hard:
     8:
     0.605,0.597,0.309,0.206,0.000,217.000,18.000,12.000,0.000,0.000:
0000
0000
0000
0000
,
0000
0000
0000
0000
,
0000
0000
0000
0000
0000
0000
1000
0100
,
0010
0001
0010
0010
0010
0100
0010
0100
,
0010
0010
0001
0011
0000
0001
0010
0100
,
0001
0100
0001
0010
0001
0010
0010
0100
,
1000
0100
1000
1100
0000
0100
1000
0100
,
1000
0100
0100
0100
0010
0010
0001
0010
,
0001
0010
0001
0011
1100
0000
1000
0100
,
0000
0100
1000
0000
1100
0000
1000
0001
,
0000
0001
1000
0000
1001
0000
0001
0010
,
0000
0100
1000
0000
1100
0000
0100
1000
,
0000
0100
1000
0000
1010
0000
0100
0001
,
0000
0100
0001
0000
0110
0000
0100
0010
,
0000
0100
0010
0000
1001
0000
1000
0010
,
0000
0100
0001
0000
0101
0000
0001
0100
,
0000
0010
1000
0000
1000
0001
1000
0001
,
0000
0001
0010
0000
0100
0010
0100
0010
,
0000
0010
0100
0000
0001
0100
0010
1000
,
0000
1000
0100
0010
0001
0000
0001
0010
,
0100
1000
0100
0000
0010
0100
0001
1000
,
0100
0010
0100
0000
0001
1000
0001
1000
,
0001
1000
0001
0000
0100
0001
1000
0010
,
0100
0001
1000
0001
0200
0000
0320
0000
,
0001
0001
0032
0000
1000
0000
1000
1000
,
0000
1000
1000
0000
1000
0000
1000
1000
,
0003
0100
0010
0000
0002
0000
0010
0010
,
0000
0010
0010
0000
0100
0000
1000
1000
,
0000
1000
1000
0000
0010
0000
0100
0100
,
0003
0010
0001
0000
0101
0000
0001
1000
,
0000
1000
0100
0000
0120
0000
0001
0001
,
0000
1000
1000
0000
0100
0000
0001
0001
,
0030
0001
1000
0000
2001
0000
3200
0001
,
0000
0301
0100
0000
2100
0000
0001
0001
,
3000
0010
1000
0000
0200
0000
1000
1000
,
0000
0010
0010
0000
0001
0000
1000
1000
,
0300
1000
0001
0000
0200
0000
0001
0001
,
0000
0010
0010
0000
1000
0000
0010
0010
,
0300
0100
0010
0000
1001
0000
1000
0100
,
0000
0010
0001
0000
1001
0000
1000
0001
,
0000
0010
0100
0000
2002
0000
0000
0000
,
3003
0000
0000
0000
;
