#TITLE:Metalic-A-;
#SUBTITLE:;
#ARTIST:Jea;
#TITLETRANSLIT:;
#SUBTITLETRANSLIT:;
#ARTISTTRANSLIT:;
#CREDIT:;
#BANNER:metalic-a- bn.png;
#BACKGROUND:metalic-a- bg.png;
#LYRICSPATH:;
#CDTITLE:;
#MUSIC:Metalic-A-.ogg;
#OFFSET:0.012;
#SAMPLESTART:320.221;
#SAMPLELENGTH:18.529;
#SELECTABLE:YES;
#BPMS:0.000=207.230;
#STOPS:;
#BGCHANGES:;
// cache tags:
#FIRSTBEAT:52.000;
#LASTBEAT:1618.000;
#SONGFILENAME:Songs/SHARPNELSTREAMZ v2/Metalic-A-/Metalic-A-.sm;
#HASMUSIC:1;
#HASBANNER:1;
#MUSICLENGTH:468.512;
// end cache tags

//---------------dance-single - 18+ (@@)----------------
#NOTES:
     dance-single:
     18+ (@@):
     Hard:
     18:
     1.000,1.000,0.258,0.045,1.000,5120.000,121.000,21.000,45.000,0.000:
0000
0000
0000
0000
,
0000
0000
0000
0000
,
0000
0000
0000
0000
,
0000
0000
0000
0000
,
0000
0000
0000
0000
,
0000
0000
0000
0000
,
0000
0000
0000
0000
,
0000
0000
0000
0000
,
0000
0000
0000
0000
,
0000
0000
0000
0000
,
0000
0000
0000
0000
,
0000
0000
0000
0000
,
0000
0000
0000
0000
,
1000
1000
0001
0001
2000
0000
3000
0000
,
0001
0001
0100
0100
0002
0000
0003
0000
,
0100
0100
0010
0010
0200
0000
0300
0000
,
0010
0010
1000
1000
0020
0000
0030
0000
,
1000
1000
0001
0001
2000
0000
3000
0000
,
0100
0100
0010
0010
0200
0000
0300
0000
,
0010
0010
0001
0001
0020
0000
0030
0000
,
0001
0001
1000
1000
0002
0000
0003
0000
,
0100
0100
0010
0010
0200
0000
0300
0000
,
0010
0010
1000
1000
0020
0000
0030
0000
,
1000
1000
0001
0001
2000
0000
3000
0000
,
0100
0100
1000
1000
0200
0000
0300
0000
,
0010
0010
0001
0001
0020
0000
0030
0000
,
0001
0001
0100
0100
0002
0000
0003
0000
,
1000
1000
0100
0100
2000
0000
3000
0000
,
1001
1010
0101
1001
,
1100
0011
1001
0110
,
0101
1010
1001
1100
,
0011
1001
1100
0110
,
0011
1001
0101
1010
,
1001
0110
0101
1001
,
1100
0110
0011
1001
,
1010
0101
1001
1010
,
1001
0000
1000
0001
1000
0000
1001
0000
,
0101
0000
0100
0001
0100
0000
0101
0000
,
1010
0000
0010
1000
0010
0000
1010
0000
,
1001
0000
0001
1000
0001
0000
1001
0000
,
0011
0000
0010
0001
0010
0000
0011
0000
,
1100
0000
1000
0100
1000
0000
1100
0000
,
0110
0000
0010
0100
0010
0000
0011
0000
,
1001
0000
1000
0001
1000
0000
1001
0000
,
0001
1000
0010
1000
0001
1000
0100
1000
,
0010
0100
0001
0100
0010
1000
0100
0010
,
0001
1000
0001
0100
0001
1000
0001
0010
,
0001
0100
0010
1000
0100
0010
0001
1000
,
0010
1000
0001
1000
0100
1000
0010
0100
,
0001
1000
0010
0100
0001
0100
0010
1000
0100
0010
0001
0010
0100
1000
0001
0010
,
0001
0100
0010
1000
0010
0100
0001
0010
0100
1000
0001
1000
0100
0010
0001
1000
,
0001
0000
0000
1000
0000
0000
1000
0000
0000
1000
0000
0000
1000
0000
0000
1000
0000
0000
0001
0100
0001
0100
0001
0100
,
0001
1000
0010
0100
0001
1000
0001
0000
0010
0000
0100
0000
1000
0100
0010
0000
,
0001
0100
0010
1000
0010
0100
0001
0000
1000
0000
0100
0000
0010
0001
1000
0000
,
0010
0100
0001
0100
0010
1000
0001
0000
1000
0000
0100
0000
1000
0001
0010
0000
,
0001
1000
0010
0100
0001
1000
0001
0010
0100
1000
0001
0000
0100
0010
1000
0100
,
0010
0001
1000
0100
0010
0100
1000
0000
0001
0000
0100
0000
0010
1000
0001
0000
,
1000
0100
0010
0001
0010
0100
0010
0000
0001
0000
1000
0000
0010
0100
0001
0000
,
1000
0100
0010
0100
1000
0001
1000
0000
0001
0000
0100
0000
0010
1000
0001
0000
,
1000
0100
0010
0100
1000
0001
0100
0010
1000
0001
1000
0000
0100
0010
0001
0100
,
0010
1000
0001
0100
0001
1000
0010
0000
1000
0000
0100
0000
0010
0001
1000
0000
,
0001
0100
0010
1000
0010
0100
0001
0000
1000
0000
0100
0000
0010
0100
1000
0000
,
0001
0100
0001
1000
0010
0100
0001
0000
1000
0000
0100
0000
0010
0001
1000
0000
,
0001
0100
0010
1000
0010
0100
0001
1000
0001
0010
0100
0000
1000
0010
0100
0001
,
0010
0100
1000
0001
0010
0001
1000
0000
0001
0000
0100
0000
0010
1000
0001
0000
,
1000
0100
0010
0001
0010
0100
1000
0000
0001
0000
1000
0000
0001
1000
0010
0000
,
1000
0100
0010
0001
0010
0100
0010
0000
0001
0000
1000
0000
0010
0100
0001
0000
,
1000
0000
0000
0000
1000
0000
0000
0000
0001
0010
0000
0001
0100
0000
0100
0000
,
0001
1000
0100
0010
0001
1000
0001
0000
0100
0000
0010
0000
1000
0010
0100
0000
,
0001
0010
0100
1000
0100
0010
0001
0000
1000
0000
0010
0000
0100
0001
1000
0000
,
0100
0010
0001
0010
0100
1000
0001
0000
1000
0000
0010
0000
1000
0001
0100
0000
,
0001
1000
0100
0010
0001
1000
0001
0100
0010
1000
0001
0000
0010
0100
1000
0010
,
0100
0001
1000
0010
0100
0010
1000
0000
0001
0000
0010
0000
0100
1000
0001
0000
,
1000
0010
0100
0001
0100
0010
0100
0000
0001
0000
1000
0000
0100
0010
0001
0000
,
1000
0010
0100
0010
1000
0001
1000
0000
0001
0000
0010
0000
0100
1000
0001
0000
,
1000
0010
0100
0010
1000
0001
0010
0100
1000
0001
1000
0000
0010
0100
0001
0010
,
0100
1000
0001
0010
0001
1000
0100
0000
1000
0000
0010
0000
0100
0001
1000
0000
,
0001
0010
0100
1000
0100
0010
0001
0000
1000
0000
0010
0000
0100
0010
1000
0000
,
0001
0010
0001
1000
0100
0010
0001
0000
1000
0000
0010
0000
0100
0001
1000
0000
,
0001
0010
0100
1000
0100
0010
0001
1000
0001
0100
0010
0000
1000
0100
0010
0001
,
0100
0010
1000
0001
0100
0001
1000
0000
0001
0000
0010
0000
0100
1000
0001
0000
,
1000
0010
0100
0001
0100
0010
1000
0000
0001
0000
1000
0000
0001
1000
0100
0000
,
1000
0010
0100
0010
1000
0001
0100
0000
0001
0000
1000
0000
0100
0010
0001
0000
,
1000
0000
0000
0000
1000
0000
0000
0000
0001
0100
0000
0001
0010
0000
0010
0000
,
0100
1000
0001
0010
0001
1000
0100
0010
0001
0000
0100
0000
0001
0010
0100
0000
,
1000
0010
0100
0010
1000
0001
0100
0001
1000
0000
0100
0000
1000
0010
0100
0000
,
0001
0010
0100
1000
0100
0010
0001
1000
0001
0000
0100
0000
0001
0010
0100
0000
,
1000
0010
0100
0001
0100
0010
1000
0001
0010
0100
1000
0000
0001
0100
0010
1000
,
0100
0010
0001
1000
0100
1000
0001
0010
0001
0000
0100
0000
0001
0010
0100
0000
,
1000
0010
0100
0001
0100
0010
1000
0001
1000
0000
0100
0000
1000
0010
0100
0000
,
0001
0010
0100
1000
0001
0010
0100
0010
0001
0000
0100
0000
0001
0010
0100
0000
,
1000
0010
0100
0001
1000
0001
0010
0100
1000
0001
1000
0000
0010
0100
0001
0010
,
0100
1000
0100
0010
0001
1000
0100
1000
0001
0000
0100
0000
0001
0010
0100
0000
,
1000
0010
0100
0001
0100
0010
1000
0001
1000
0000
0100
0000
1000
0010
0100
0000
,
0001
1000
0100
0010
0100
1000
0001
0010
0001
0000
0100
0000
0001
0010
0100
0000
,
1000
0010
0100
0001
0100
0010
1000
0001
0010
0100
1000
0000
0001
0100
0010
1000
,
0100
0010
0001
0010
0100
1000
0001
0010
0001
0000
0100
0000
0001
0010
0100
0000
,
1000
0010
0100
0001
1000
0001
0100
0010
1000
0000
0100
0000
1000
0001
0100
0000
,
0001
0010
0100
1000
0100
0010
0100
1000
0001
0000
0100
0000
0001
0010
0100
0000
,
1000
0000
0000
0000
1000
0000
0000
0000
0010
0100
0000
0001
0010
0000
0010
0000
,
0001
0100
0010
1000
0010
0100
0001
1000
0001
0010
0100
0000
1000
0001
0100
0000
,
0001
0010
0100
1000
0001
1000
0100
0010
0001
1000
0010
0000
1000
0100
0010
0000
,
0001
1000
0010
1000
0001
0100
0001
1000
0100
0010
0001
0000
1000
0010
0100
0000
,
0001
0010
0100
1000
0001
1000
0100
0010
0001
1000
0010
0100
0001
1000
0010
1000
,
0100
0010
0001
1000
0100
1000
0001
1000
0010
0100
0001
0000
1000
0100
0010
0000
,
0001
1000
0010
0100
0001
1000
0001
0010
0100
1000
0001
0000
1000
0010
0100
0000
,
0001
0010
0100
1000
0001
1000
0100
0010
0001
1000
0010
0000
1000
0100
0010
0000
,
0001
0100
0010
1000
0001
1000
0010
1000
0001
0010
0100
1000
0100
0010
0001
0100
,
0010
1000
0001
0100
0001
1000
0010
1000
0001
0010
0100
0000
1000
0010
0100
0000
,
0001
0010
0100
1000
0100
0010
0001
1000
0010
0100
0010
0000
1000
0001
0010
0000
,
0001
0100
0010
1000
0010
0100
0001
1000
0001
0010
0100
0000
1000
0010
0100
0000
,
0001
1000
0100
1000
0001
0010
0001
1000
0010
0100
0001
1000
0001
0100
0010
1000
,
0100
0010
0001
1000
0001
0100
0010
0100
0001
1000
0001
0000
1000
0100
0010
0000
,
0001
0100
0010
1000
0010
0100
0001
1000
0100
0010
0100
0000
1000
0001
0100
0000
,
0202
0303
0000
0000
0000
0000
0000
0000
0000
0000
0000
0000
0000
0000
0000
0000
,
0000
0000
0000
0000
,
0000
0000
0000
0000
0000
0000
0000
0000
0001
0100
0001
1000
0010
0100
0001
0100
,
0010
1000
0001
1000
0100
0010
0001
0100
0010
1000
0010
0100
0001
1000
0001
0100
,
0010
1000
0001
0010
0100
1000
0001
0010
0001
0100
0010
1000
0010
0100
0001
1000
,
0001
0010
0001
1000
0100
0010
0001
0100
0010
1000
0010
0100
0001
1000
0001
0010
,
0100
1000
0001
1000
0100
0010
0001
0100
0010
1000
0001
1000
0100
0010
0001
0010
,
0100
1000
0001
1000
0010
0100
0001
0010
0100
1000
0100
0010
0001
1000
0001
0010
,
0100
1000
0001
0100
0010
1000
0001
0100
0001
0010
0100
1000
0100
0010
0001
1000
,
0001
0100
0001
1000
0010
0100
0001
0010
0100
1000
0100
0010
0001
1000
0001
0100
,
0010
1000
0001
1000
0010
0100
0001
0010
0001
0100
0010
1000
0010
0100
0001
1000
,
0001
0010
0100
0010
0001
1000
0100
0010
0001
0100
0010
1000
0001
0100
0001
1000
,
0010
1000
0001
0010
0100
1000
0100
0010
0001
0100
0010
1000
0010
0100
0001
0100
,
0010
1000
0001
0010
0100
0010
0001
0100
0010
0100
0001
1000
0001
0100
0010
0100
,
0001
1000
0100
0010
0100
1000
0010
0100
0001
0010
0100
1000
0001
0010
0001
1000
,
0100
1000
0001
0100
0010
1000
0010
0100
0001
0010
0100
1000
0100
0010
0001
1000
,
0001
0100
0010
1000
0010
0100
0001
0010
0100
1000
0001
1000
0100
0010
0001
1000
,
0001
0100
0010
1000
0010
0100
0001
0010
0100
1000
0010
1000
0100
1000
0001
1000
,
0200
0000
0300
0000
0020
0000
0030
0000
0001
1000
0010
1000
0001
0100
0010
1000
,
0001
1000
0100
0010
0100
1000
0001
0010
0001
0100
0010
1000
0001
1000
0010
0100
,
0010
1000
0001
1000
0100
0010
0001
0100
0010
1000
0001
0100
0001
1000
0010
1000
,
0001
0100
0010
1000
0001
0010
0100
1000
0010
0100
0001
0100
0010
1000
0010
0100
,
0001
1000
0001
0010
0100
1000
0010
0100
0001
0010
0100
1000
0100
0010
0001
1000
,
0001
0010
0001
1000
0010
0100
0001
0010
0100
1000
0001
0010
0001
1000
0100
0010
,
0001
1000
0001
0100
0010
1000
0010
0100
0001
0010
0100
1000
0100
0010
0100
1000
,
0001
1000
0010
0100
0001
0100
0010
1000
0100
1000
0001
0010
0100
1000
0001
0010
,
0100
0010
0001
1000
0010
0100
0001
0010
0001
0100
0010
1000
0010
0100
0001
1000
,
0010
1000
0001
0010
0100
1000
0100
0010
0001
0100
0010
1000
0001
1000
0010
0100
,
0010
1000
0001
0010
0100
1000
0001
0010
0001
0100
0010
1000
0001
1000
0010
0100
,
0001
0100
0010
1000
0001
1000
0100
0010
0001
0100
0010
1000
0010
0100
0001
0100
,
0010
1000
0001
1000
0100
0010
0001
0100
0010
1000
0100
0010
0001
1000
0100
1000
,
0001
0010
0001
1000
0010
0100
0010
1000
0100
0010
0001
1000
0001
0010
0100
1000
,
0001
1000
0010
0100
0001
0100
0010
1000
0100
0010
0001
0010
0100
1000
0001
0010
,
0001
1000
0010
1000
0001
0100
0010
1000
0100
1000
0010
1000
0001
1000
0010
0000
,
0100
0001
0010
0100
1000
0010
0100
0001
0010
0100
1000
0001
0010
0100
1000
0100
,
0010
0001
1000
0001
0100
0010
1000
0100
0010
0001
0010
0100
1000
0001
1000
0100
,
0010
0001
1000
0010
0100
0001
1000
0010
1000
0100
0010
0001
0010
0100
1000
0001
,
1000
0010
1000
0001
0100
0010
1000
0100
0010
0001
0010
0100
1000
0001
1000
0010
,
0100
0001
1000
0001
0100
0010
1000
0100
0010
0001
1000
0001
0100
0010
1000
0010
,
0100
0001
1000
0001
0010
0100
1000
0010
0100
0001
0100
0010
1000
0001
1000
0010
,
0100
0001
1000
0100
0010
0001
1000
0100
1000
0010
0100
0001
0100
0010
1000
0001
,
1000
0100
1000
0001
0010
0100
1000
0010
0100
0001
0100
0010
1000
0001
1000
0100
,
0010
0001
1000
0001
0010
0100
1000
0010
1000
0100
0010
0001
0010
0100
1000
0001
,
1000
0010
0100
0010
1000
0001
0100
0010
1000
0100
0010
0001
1000
0100
1000
0001
,
0010
0001
1000
0010
0100
0001
0100
0010
1000
0100
0010
0001
0010
0100
1000
0100
,
0010
0001
1000
0010
0100
0010
1000
0100
0010
0100
1000
0001
1000
0100
0010
0100
,
1000
0001
0100
0010
0100
0001
0010
0100
1000
0010
0100
0001
1000
0010
1000
0001
,
0100
0001
1000
0100
0010
0001
0010
0100
1000
0010
0100
0001
0100
0010
1000
0001
,
1000
0100
0010
0001
0010
0100
1000
0010
0100
0001
1000
0001
0100
0010
1000
0001
,
1000
0100
0010
0001
0010
0100
1000
0010
1000
0001
0010
0001
0100
0001
0010
0001
,
0100
0010
0100
0001
0010
0001
0100
0010
1000
0100
1000
0001
0010
0100
0010
0001
,
1000
0001
0100
0010
0100
0001
1000
0010
1000
0100
0010
0001
1000
0001
0010
0100
,
0010
0001
1000
0001
0100
0010
1000
0100
0010
0001
1000
0100
1000
0001
0010
0001
,
1000
0100
0010
0001
1000
0010
0100
0001
0010
0100
1000
0100
0010
0001
0010
0100
,
1000
0001
1000
0010
0100
0001
0010
0100
1000
0010
0100
0001
0100
0010
1000
0001
,
1000
0010
1000
0001
0010
0100
1000
0010
0100
0001
1000
0010
1000
0001
0100
0010
,
1000
0001
1000
0100
0010
0001
0010
0100
1000
0010
0100
0001
0100
0010
0100
0001
,
1000
0001
0010
0100
1000
0100
0010
0001
0100
0001
1000
0010
0100
0001
1000
0010
,
0100
0010
1000
0001
0010
0100
1000
0010
1000
0100
0010
0001
0010
0100
1000
0001
,
0010
0001
1000
0010
0100
0001
0100
0010
1000
0100
0010
0001
1000
0001
0010
0100
,
0010
0001
1000
0010
0100
0001
1000
0010
1000
0100
0010
0001
1000
0001
0010
0100
,
1000
0100
0010
0001
1000
0001
0100
0010
1000
0100
0010
0001
0010
0100
1000
0100
,
0010
0001
1000
0001
0100
0010
1000
0100
0010
0001
0100
0010
1000
0001
0100
0001
,
1000
0010
1000
0001
0010
0100
0010
0001
0100
0010
1000
0001
1000
0010
0100
0001
,
1000
0001
0010
0100
1000
0100
0010
0001
0100
0010
1000
0010
0100
0001
1000
0010
,
1000
0001
0010
0001
1000
0100
0010
0001
0100
0010
1000
0001
1000
0100
0010
0001
,
0100
0000
0000
0010
0000
0000
0100
0000
0000
0001
0000
0000
1000
0000
0100
0000
1000
0000
0100
0000
1000
0000
0100
0000
1000
0000
0000
0000
0000
0000
0001
0000
0000
0000
0000
0000
0100
0000
0000
0000
0000
0000
0010
0000
0000
0000
0000
0000
,
M000
0001
0100
0010
M000
0001
0100
0010
,
M000
0001
0100
0010
M000
0001
0100
0010
,
M000
0001
0100
0010
M000
0001
0100
0010
,
1000
0100
0010
0000
0010
0000
0010
0000
0001
0000
1000
0000
0100
0000
0010
0000
,
000M
1000
0100
0010
000M
1000
0100
0010
,
000M
1000
0100
0010
000M
1000
0100
0010
,
000M
1000
0100
0010
000M
1000
0100
0010
,
0001
0100
0010
0000
0010
0000
0010
0000
1000
0000
0001
0000
0010
0000
0100
0000
,
M000
0001
0010
0100
M000
0001
0010
0100
,
M000
0001
0010
0100
M000
0001
0010
0100
,
M000
0001
0010
0100
M000
0001
0010
0100
,
1000
0010
0100
0000
0100
0000
0100
0000
0001
0000
1000
0000
0010
0000
0100
0000
,
0001
1000
0001
0100
0010
1000
0010
0100
0001
1000
0100
0010
0001
1000
0001
0010
,
0100
1000
0001
0100
0010
0100
0001
1000
0001
0010
0100
1000
0001
1000
0100
0010
,
0001
1000
0010
0100
0001
0100
0010
1000
0001
0000
0010
0000
0001
0000
0001
0000
,
0001
0000
1000
0010
1000
0100
1000
0010
1000
0000
0001
0000
0010
0000
0100
0000
,
M100
0001
0010
0100
M100
0001
0010
0100
,
M100
0001
0010
0100
M100
0001
0010
0100
,
M100
0001
0010
0100
M100
0001
0010
0100
,
M100
0000
0000
0001
0000
0000
0010
0000
0000
0000
0000
0000
0001
0000
1000
0000
0001
0000
1000
0000
0001
0000
1000
0000
0001
0000
0000
0000
0000
0000
1000
0000
0000
0000
0000
0000
0010
0000
0000
0000
0000
0000
0100
0000
0000
0000
0000
0000
,
010M
1000
0010
0100
010M
1000
0010
0100
,
010M
1000
0010
0100
010M
1000
0010
0100
,
010M
1000
0010
0100
010M
1000
0010
0100
,
010M
0000
0000
1000
0000
0000
0010
0000
0000
0000
0000
0000
1000
0000
0001
0000
1000
0000
0001
0000
1000
0000
0001
0000
1000
0000
0000
0000
0000
0000
0001
0000
0000
0000
0000
0000
0010
0000
0000
0000
0000
0000
0100
0000
0000
0000
0000
0000
,
M100
0001
0010
0100
M100
0001
0010
0100
,
M100
0001
0010
0100
M100
0001
0010
0100
,
M100
0001
0010
0100
M100
0001
0010
0100
,
M100
0000
0000
0001
0000
0000
0010
0000
0000
0000
0000
0000
0001
0000
0100
0000
0001
0000
0100
0000
0001
0000
0100
0000
0001
0000
0000
0000
0000
0000
1000
0000
0000
0000
0000
0000
0100
0000
0000
0000
0000
0000
0010
0000
0000
0000
0000
0000
,
001M
1000
0100
0010
001M
1000
0100
0010
,
001M
1000
0100
0010
001M
1000
0100
0010
,
001M
1000
0100
0010
001M
0100
0010
0100
,
0010
0000
0000
1000
0000
0000
0001
0000
0000
0000
0000
0000
0001
0000
0000
0000
0000
0000
1000
0000
0000
0000
0000
0000
0001
0000
1000
0000
0001
0000
1000
0000
0001
0000
1000
0000
0001
0000
0000
0000
0000
0000
1000
0000
0000
0000
0000
0000
,
0001
1000
0001
1000
0001
1000
0001
0000
0000
0010
0000
0000
0100
0000
0000
0000
0000
0000
1000
0000
0000
0000
0000
0000
,
0001
0000
0000
0000
0000
0000
0100
0000
0000
0000
0000
0000
0001
0100
0001
0100
0001
0100
0001
0000
0000
0100
0000
0000
,
0001
0100
0001
0100
0001
0100
0001
0000
0000
1000
0000
0000
0001
0000
0000
0001
0000
0000
1000
0000
0000
1000
0000
0000
,
0001
0000
0000
0001
0000
0000
1000
0000
0000
1000
0000
0000
0001
1000
0001
1000
0001
1000
0001
0000
0000
1000
0000
0000
,
0001
1000
0001
1000
0001
1000
0001
0000
0000
0100
0000
0000
0010
0000
0000
0000
0000
0000
1000
0000
0000
0000
0000
0000
,
0001
0000
0000
0000
0000
0000
0010
0000
0000
0000
0000
0000
0100
1000
0100
1000
0100
1000
0100
0000
0000
1000
0000
0000
,
0100
1000
0100
1000
0100
1000
0100
0000
0000
0010
0000
0000
0001
0000
0000
0001
0000
0000
1000
0000
0000
1000
0000
0000
,
0001
0000
0000
0001
0000
0000
1000
0000
0000
1000
0000
0000
0001
1000
0001
1000
0001
1000
0001
0000
0000
1000
0000
0000
,
0100
1000
0100
1000
0100
1000
0100
0000
0000
0010
0000
0000
0001
0000
0000
0000
0000
0000
0100
0000
0000
0000
0000
0000
,
0001
0000
0000
0000
0000
0000
0010
0000
0000
0000
0000
0000
0100
1000
0100
1000
0100
1000
0100
0000
0000
1000
0000
0000
,
0001
1000
0001
1000
0001
1000
0001
0000
0000
0100
0000
0000
0010
0000
0000
0010
0000
0000
0100
0000
0000
0100
0000
0000
,
0010
0000
0000
0010
0000
0000
0100
0000
0000
0100
0000
0000
0001
1000
0001
1000
0001
1000
0001
0000
0000
1000
0000
0000
,
0001
0100
0001
0100
0001
0100
0001
0000
0000
1000
0000
0000
0100
0000
0000
0000
0000
0000
1000
0000
0000
0000
0000
0000
,
0010
0000
0000
0000
0000
0000
1000
0000
0000
0000
0000
0000
0001
0100
0001
0100
0001
0100
0001
0000
0000
0100
0000
0000
,
0001
1000
0001
1000
0001
1000
0001
0000
0000
0100
0000
0000
0010
0000
0000
0010
0000
0000
1000
0000
0000
0001
0000
0000
,
0000
0000
0000
0000
0001
0100
0010
0000
1000
0000
0100
0000
1000
0000
1000
0000
,
0001
0100
0000
0000
0000
0000
1001
0000
0000
0000
0000
0000
1100
0000
0000
0000
0000
0000
0000
0000
1000
0000
0000
0000
0001
0000
0000
0000
0001
0000
0000
0000
,
1000
0100
0000
0000
0000
0000
1001
0000
0000
0000
0000
0000
0101
0000
0000
0000
0000
0000
0000
0000
0001
0000
0000
0000
1000
0000
0000
0000
1000
0000
0000
0000
,
0001
0010
0000
0000
0000
0000
0110
0000
0000
0000
0000
0000
1100
0000
0000
0000
0000
0000
0000
0000
1000
0000
0000
0000
0001
0000
0000
0000
0001
0000
0000
0000
,
1000
0010
0000
0000
0000
0000
0110
0000
0000
0000
0000
0000
0101
0000
0000
0000
0001
0000
1000
0000
0010
0000
1000
0000
0001
0000
1000
0000
0010
0000
1000
0000
,
0001
0010
0100
0010
0001
0010
0100
0010
0001
0100
0010
0100
0001
0100
0010
0100
,
0001
1000
0100
1000
0001
1000
0100
1000
0010
0100
0010
1000
0010
0100
0010
1000
,
0100
0010
0100
1000
0100
0010
0100
1000
0010
0100
0001
0100
0010
0100
0001
0100
,
0010
1000
0001
1000
0100
1000
0001
1000
0010
0100
0001
1000
0010
0100
0010
1000
,
0100
0010
0001
0010
0100
1000
0001
0010
0001
0100
0010
1000
0001
1000
0010
0100
,
0001
0010
0100
0010
0001
1000
0100
0010
0001
0100
0010
1000
0001
0100
0001
1000
,
0100
0010
0001
1000
0001
0010
0100
1000
0010
0100
0001
0100
0010
1000
0010
0100
,
0001
0010
0100
1000
0100
0010
0001
1000
0010
0100
0001
0100
0010
1000
0100
0010
,
0001
1000
0001
0010
0100
1000
0010
0100
0001
0010
0001
1000
0010
0100
0010
1000
,
0100
0010
0001
1000
0001
0010
0100
1000
0010
0100
0001
0100
0010
1000
0100
0010
,
0100
1000
0001
0010
0001
0100
0010
1000
0100
1000
0010
0100
0010
1000
0001
0100
,
0001
0010
0100
1000
0010
0100
0001
0010
0100
1000
0010
1000
0001
0100
0001
0000
,
1000
0010
0000
0000
0000
0000
1001
0000
0000
0000
0000
0000
0011
0000
0000
0000
0001
0000
1000
0000
0100
0000
0010
0000
0001
0000
1000
0000
0001
0000
0000
0000
,
1000
0100
0000
0000
0000
0000
0110
0000
0000
0000
0000
0000
0011
0000
0000
0000
0001
0000
1000
0000
0010
0000
1000
0000
0001
0000
0100
0000
0001
0000
0000
0000
,
1000
0010
0000
0000
0000
0000
1001
0000
0000
0000
0000
0000
0011
0000
0000
0000
0001
0000
1000
0000
0100
0000
0010
0000
0100
0000
1000
0000
0001
0000
0000
0000
,
1000
0100
0000
0000
0000
0000
0110
0000
0000
0000
0000
0000
0011
0000
0000
0000
0001
0000
1000
0000
0010
0000
0100
0000
0001
0000
1000
0000
0001
0000
0000
0000
,
1000
0010
0000
0000
0000
0000
1001
0000
0000
0000
0000
0000
0011
0000
0000
0000
0001
0000
1000
0000
0100
0000
0010
0000
0100
0000
1000
0000
0001
0000
0000
0000
,
1000
0100
0000
0000
0000
0000
0110
0000
0000
0000
0000
0000
0011
0000
0000
0000
0001
0000
1000
0000
0010
0000
0100
0000
0010
0000
1000
0000
0001
0000
0000
0000
,
1000
0010
0000
0000
0000
0000
1001
0000
0000
0000
0000
0000
0011
0000
0000
0000
0001
0000
1000
0000
0100
0000
1000
0000
0001
0000
0010
0000
0001
0000
0000
0000
,
1000
0100
0000
0000
0000
0000
0110
0000
0000
0000
0000
0000
0011
0000
0000
0000
0001
0000
1000
0000
0010
0000
0100
0000
0001
0000
1000
0000
0001
0000
0000
0000
,
1000
0010
0000
0000
0000
0000
1001
0000
0000
0000
0000
0000
0011
0000
0000
0000
0001
0000
1000
0000
0100
0000
0010
0000
0100
0000
1000
0000
0001
0000
0000
0000
,
1000
0100
0000
0000
0000
0000
0110
0000
0000
0000
0000
0000
0011
0000
0000
0000
0001
0000
1000
0000
0010
0000
1000
0000
0001
0000
0100
0000
0001
0000
0000
0000
,
1000
0010
0000
0000
0000
0000
1001
0000
0000
0000
0000
0000
0011
0000
0000
0000
0001
0000
1000
0000
0100
0000
0010
0000
0100
0000
1000
0000
0001
0000
0000
0000
,
1000
0100
0000
0000
0000
0000
0110
0000
0000
0000
0000
0000
0011
0000
0000
0000
0001
0000
1000
0000
0010
0000
0100
0000
0010
0000
1000
0000
0001
0000
0000
0000
,
1000
0010
0000
0000
0000
0000
1001
0000
0000
0000
0000
0000
0011
0000
0000
0000
0001
0000
1000
0000
0100
0000
0010
0000
0001
0000
1000
0000
0001
0000
0000
0000
,
1000
0100
0000
0000
0000
0000
0110
0000
0000
0000
0000
0000
0011
0000
0000
0000
0001
0000
1000
0000
0001
0000
0000
0000
1000
0010
0000
0000
1000
0000
0000
0000
,
0001
0000
1000
0000
0001
0000
0000
0000
1000
0100
0000
0000
1000
0000
0000
0000
1001
0000
0000
0000
1000
0000
0000
0000
1010
0000
0000
0000
0010
0000
0000
0000
,
1010
0000
1000
0000
1001
0000
0001
0000
1000
0001
0010
0001
1000
0100
1000
0000
,
0001
0010
0000
0000
0000
0000
1001
0000
0000
0000
0000
0000
1010
0000
0000
0000
1000
0000
0001
0000
0100
0000
0010
0000
1000
0000
0001
0000
1000
0000
0000
0000
,
0001
0100
0000
0000
0000
0000
0110
0000
0000
0000
0000
0000
1010
0000
0000
0000
1000
0000
0001
0000
0010
0000
0001
0000
1000
0000
0100
0000
1000
0000
0000
0000
,
0001
0010
0000
0000
0000
0000
1001
0000
0000
0000
0000
0000
1010
0000
0000
0000
1000
0000
0001
0000
0100
0000
0010
0000
0100
0000
0001
0000
1000
0000
0000
0000
,
0001
0100
0000
0000
0000
0000
0110
0000
0000
0000
0000
0000
1010
0000
0000
0000
1000
0000
0001
0000
0010
0000
0100
0000
1000
0000
0001
0000
1000
0000
0000
0000
,
0001
0010
0000
0000
0000
0000
1001
0000
0000
0000
0000
0000
1010
0000
0000
0000
1000
0000
0001
0000
0100
0000
0010
0000
0100
0000
0001
0000
1000
0000
0000
0000
,
0001
0100
0000
0000
0000
0000
0110
0000
0000
0000
0000
0000
1010
0000
0000
0000
1000
0000
0001
0000
0010
0000
0100
0000
0010
0000
0001
0000
1000
0000
0000
0000
,
0001
0010
0000
0000
0000
0000
1001
0000
0000
0000
0000
0000
1010
0000
0000
0000
1000
0000
0001
0000
0100
0000
0001
0000
1000
0000
0010
0000
1000
0000
0000
0000
,
0001
0100
0000
0000
0000
0000
0110
0000
0000
0000
0000
0000
1010
0000
0000
0000
1000
0000
0001
0000
0010
0000
0100
0000
1000
0000
0001
0000
1000
0000
0000
0000
,
0001
0010
0000
0000
0000
0000
1001
0000
0000
0000
0000
0000
1010
0000
0000
0000
1000
0000
0001
0000
0100
0000
0010
0000
0100
0000
0001
0000
1000
0000
0000
0000
,
0001
0100
0000
0000
0000
0000
0110
0000
0000
0000
0000
0000
1010
0000
0000
0000
1000
0000
0001
0000
0010
0000
0001
0000
1000
0000
0100
0000
1000
0000
0000
0000
,
0001
0010
0000
0000
0000
0000
1001
0000
0000
0000
0000
0000
1010
0000
0000
0000
1000
0000
0001
0000
0100
0000
0010
0000
0100
0000
0001
0000
1000
0000
0000
0000
,
0001
0100
0000
0000
0000
0000
0110
0000
0000
0000
0000
0000
1010
0000
0000
0000
1000
0000
0001
0000
0010
0000
0100
0000
0010
0000
0001
0000
1000
0000
0000
0000
,
0001
0010
0000
0000
0000
0000
1001
0000
0000
0000
0000
0000
1010
0000
0000
0000
1000
0000
0001
0000
0100
0000
0010
0000
1000
0000
0001
0000
1000
0000
0000
0000
,
0001
0100
0000
0000
0000
0000
0110
0000
0000
0000
0000
0000
1010
0000
0000
0000
1000
0000
0001
0000
1000
0000
0000
0000
0001
0010
0000
0000
0001
0000
0000
0000
,
1000
0000
0001
0000
1000
0000
0000
0000
0001
0100
0000
0000
0001
0000
0000
0000
1001
0000
0000
0000
0001
0000
0000
0000
0011
0000
0000
0000
0010
0000
0000
0000
,
0011
0000
0001
0000
1001
0000
1000
0000
0010
0100
0010
1000
0001
1000
0010
0100
,
0001
0010
0100
1000
0001
1000
0100
0010
0001
0100
0010
1000
0010
0100
0001
0010
,
0100
1000
0001
1000
0100
0010
0100
1000
0010
0100
0001
0100
0010
1000
0001
0100
,
0001
0010
0100
1000
0100
0010
0001
0100
0010
1000
0001
1000
0010
0100
0001
0100
,
0010
1000
0100
0010
0001
0010
0100
1000
0010
0100
0001
0100
0010
1000
0010
0100
,
0001
0010
0100
1000
0100
0010
0001
0100
0001
1000
0010
0100
0010
1000
0001
1000
,
0010
0100
0001
0010
0100
1000
0001
0010
0001
0100
0010
1000
0001
0100
0001
1000
,
0010
0100
0001
0010
0100
0010
0001
0100
0010
1000
0010
0100
0010
1000
0001
0100
,
0001
0010
0100
0010
0001
1000
0100
0010
0001
0100
0010
1000
0010
0100
0001
1000
,
0010
1000
0100
0010
0001
0010
0100
1000
0010
0100
0010
1000
0001
0100
0001
0010
,
0100
1000
0001
1000
0100
0010
0001
0100
0001
1000
0010
0100
0001
0100
0010
1000
,
0100
0010
0100
1000
0001
0010
0100
1000
0010
0100
0001
1000
0010
1000
0001
0100
,
0001
0010
0100
1000
0100
0010
0001
0100
0010
0100
0001
1000
0010
1000
0001
0100
,
0001
0010
0100
1000
0001
0010
0001
0100
0010
1000
0010
0100
0001
1000
0001
0100
,
0010
0100
0001
0010
0001
1000
0100
0010
0001
1000
0010
1000
0001
1000
0010
1000
,
0100
0010
0001
0010
0100
0010
0001
0010
0100
1000
0010
0100
0001
1000
0100
0010
,
0001
1000
0010
0100
0001
0010
0001
0100
0010
1000
0100
0010
0001
1000
0100
1000
,
0010
0100
0001
1000
0100
0010
0001
0100
0001
0010
0100
1000
0001
0010
0001
0100
,
0010
1000
0010
0100
0001
0010
0001
0100
0010
1000
0100
0010
0001
1000
0100
1000
,
0010
1000
0001
0010
0001
0100
0001
0010
0100
1000
0001
0010
0100
0010
0001
0100
,
0010
1000
0001
0100
0001
0010
0001
0100
0010
1000
0100
0010
0001
1000
0100
1000
,
0010
0100
0010
1000
0100
0010
0001
0100
0010
1000
0100
0010
0100
1000
0001
0010
,
0001
0100
0010
1000
0100
1000
0010
0100
0001
0010
0100
1000
0001
1000
0100
0010
,
0100
1000
0010
0100
0001
0010
0001
0100
0001
1000
0100
0010
0001
1000
0100
1000
,
0010
0100
0001
0010
0100
1000
0010
0100
0001
0010
0100
0010
0001
1000
0100
0010
,
0001
0100
0010
1000
0100
0010
0001
0100
0001
0010
0100
0010
0001
0010
0100
1000
,
0010
1000
0001
0100
0010
1000
0100
1000
0010
1000
0100
0010
0001
1000
0100
1000
,
0010
0100
0001
0010
0001
0100
0001
1000
0100
1000
0001
0010
0100
1000
0100
0010
,
0001
1000
0010
1000
0100
1000
0010
0100
0001
0010
0100
0010
0001
0100
0010
1000
,
0100
1000
0001
0100
0010
0100
0001
0010
0100
1000
0010
0100
0010
1000
0001
0010
,
0100
0010
0001
0100
0010
1000
0100
1000
0001
0100
0010
1000
0100
0010
0001
0100
,
0010
0100
0001
1000
0100
1000
0010
0100
0001
0010
0001
1000
0100
0010
0001
1000
,
0010
0100
0010
1000
0100
1000
0010
0100
0001
0010
0100
1000
0001
1000
0100
0010
,
0001
0100
0010
1000
0010
0100
0001
0010
0001
0100
0010
1000
0010
0100
0001
1000
,
0100
0010
0001
1000
0100
1000
0010
0100
0001
0010
0100
0010
0001
0010
0100
1000
,
0010
0100
0001
0010
0100
0010
0001
0010
0100
1000
0010
0100
0001
0010
0100
0010
,
0001
0100
0010
0100
0001
0010
0100
1000
0001
0100
0010
1000
0001
1000
0010
0100
,
0001
0010
0001
1000
0100
0010
0001
0100
0001
0010
0100
1000
0100
0010
0001
0010
,
0100
1000
0010
0100
0001
0010
0100
0010
0001
0100
0001
1000
0001
0100
0001
0010
,
0100
1000
0001
0100
0001
1000
0001
0100
0001
0010
0100
1000
0001
0100
0001
1000
,
0001
0010
0100
1000
0100
0010
0001
0100
0010
1000
0001
0100
0001
1000
0010
1000
,
0100
0010
0001
1000
0001
0010
0001
0100
0010
1000
0100
1000
0001
0010
0100
1000
,
0010
0100
0001
0100
0010
1000
0100
0010
0001
1000
0100
1000
0001
1000
0100
1000
,
0010
0100
0001
1000
0100
1000
0001
1000
0010
0100
0001
1000
0100
1000
0001
1000
,
0010
0100
0001
0010
0100
1000
0010
1000
0001
0100
0010
1000
0010
0100
0001
0010
,
0100
1000
0100
0010
0001
0100
0001
0010
0100
1000
0001
0010
0001
1000
0100
1000
,
0010
0100
0001
1000
0001
0100
0001
0010
0100
1000
0100
0010
0100
1000
0100
0010
,
0001
0100
0010
1000
0100
0010
0100
1000
0100
0010
0001
0100
0001
1000
0010
1000
,
0100
0010
0001
0100
0010
1000
0100
1000
0001
0100
0010
1000
0001
1000
0010
0100
,
0001
0010
0100
1000
0100
0010
0001
0100
0001
0010
0100
1000
0100
0010
0001
1000
,
0010
0100
0001
1000
0010
1000
0100
0010
0001
0100
0010
0100
0001
0100
0010
1000
,
0100
0010
0001
0100
0010
0100
0001
0100
0010
1000
0100
0010
0001
0100
0010
0100
,
0001
0010
0100
0010
0001
0100
0010
1000
0001
0010
0100
1000
0001
1000
0100
0010
,
0001
0100
0001
1000
0010
0100
0001
0010
0001
0100
0010
1000
0010
0100
0001
0100
,
0010
1000
0100
0010
0001
0100
0010
0100
0001
0010
0001
1000
0001
0010
0001
0100
,
0010
1000
0001
0010
0001
1000
0001
0010
0001
0100
0010
1000
0001
0010
0001
1000
,
0001
0100
0010
1000
0010
0100
0001
0010
0100
1000
0001
0010
0001
1000
0100
1000
,
0010
0100
0001
1000
0001
0100
0001
0010
0100
1000
0010
1000
0001
0100
0010
1000
,
0100
0010
0001
0010
0100
1000
0010
0100
0001
1000
0010
1000
0001
1000
0010
1000
,
0100
0010
0001
1000
0010
1000
0001
1000
0100
0010
0001
1000
0010
1000
0001
1000
,
0100
0010
0001
0100
0010
1000
0100
1000
0001
0100
0010
1000
0001
0010
0100
0010
,
0001
0100
0010
1000
0100
0010
0100
1000
0010
0100
0010
1000
0001
0100
0001
0010
,
0100
1000
0100
0010
0001
0100
0001
1000
0010
1000
0100
0010
0001
1000
0001
0010
,
0100
1000
0010
0100
0001
0100
0010
1000
0100
1000
0010
0100
0001
0010
0100
1000
,
0100
0010
0001
0100
0010
1000
0100
1000
0010
0100
0001
1000
0001
0100
0010
1000
,
0001
1000
0100
0010
0001
0100
0010
1000
0001
0100
0001
1000
0010
1000
0001
0100
,
0001
1000
0100
1000
0001
0010
0100
1000
0010
0100
0001
1000
0010
1000
0001
0100
,
0001
1000
0100
0010
0001
0100
0010
1000
0001
0100
0001
1000
0010
0100
0010
1000
,
0001
1000
0100
0010
0001
0100
0010
1000
0100
0010
0001
1000
0100
1000
0001
0010
,
0100
1000
0001
0100
0010
1000
0010
0100
0001
0010
0100
0010
0001
1000
0100
0010
,
0001
1000
0001
0100
0010
1000
0010
0100
0001
0010
0100
1000
0100
0010
0001
1000
,
0001
0100
0010
1000
0010
0100
0001
0010
0100
0010
0001
1000
0100
0010
0001
1000
,
0100
1000
0001
0100
0010
1000
0100
1000
0010
0100
0001
1000
0010
1000
0001
0100
,
0001
1000
0100
0010
0001
1000
0100
1000
0010
0100
0001
1000
0010
1000
0001
0100
,
0010
1000
0001
1000
0100
0010
0001
0100
0010
1000
0001
0100
0001
1000
0010
0100
,
0001
1000
0001
0010
0100
0010
0001
0100
0010
1000
0001
0100
0001
1000
0001
0100
,
0010
1000
0001
0010
0100
1000
0010
0100
0001
0010
0100
0010
0001
1000
0100
0010
,
0001
0100
0010
1000
0010
0100
0010
1000
0100
0010
0001
1000
0100
1000
0001
0010
,
0100
1000
0001
0100
0010
0100
0001
0010
0100
1000
0100
0010
0001
1000
0100
0010
,
0100
1000
0001
1000
0010
0100
0001
0010
0100
1000
0010
1000
0100
1000
0001
1000
,
0200
0000
0300
0000
0020
0000
0030
0000
0001
0100
0001
1000
0010
0100
0010
1000
,
0001
1000
0100
0010
0100
1000
0001
0010
0001
0100
0010
1000
0001
1000
0010
0100
,
0010
1000
0001
1000
0100
0010
0001
0100
0010
1000
0001
0100
0001
1000
0010
1000
,
0001
0100
0010
1000
0001
0010
0100
1000
0010
0100
0001
0100
0010
1000
0010
0100
,
0001
1000
0001
0010
0100
1000
0010
0100
0001
0010
0100
1000
0100
0010
0001
1000
,
0001
0010
0001
1000
0010
0100
0001
0010
0100
1000
0001
0010
0001
1000
0100
0010
,
0001
1000
0001
0100
0010
1000
0010
0100
0001
0010
0100
1000
0100
0010
0100
1000
,
0001
1000
0010
0100
0001
0100
0010
1000
0100
1000
0001
0010
0100
1000
0001
0010
,
0100
0010
0001
1000
0010
0100
0001
0010
0001
0100
0010
1000
0010
0100
0001
1000
,
0010
1000
0001
0010
0100
1000
0100
0010
0001
0100
0010
1000
0001
1000
0010
0100
,
0010
1000
0001
0010
0100
1000
0001
0010
0001
0100
0010
1000
0001
1000
0010
0100
,
0001
0100
0010
1000
0001
1000
0100
0010
0001
0100
0010
1000
0010
0100
0001
0100
,
0010
1000
0001
1000
0100
0010
0001
0100
0010
1000
0100
0010
0001
1000
0100
1000
,
0001
0010
0001
1000
0010
0100
0010
1000
0100
0010
0001
1000
0001
0010
0100
1000
,
0001
1000
0010
0100
0001
0100
0010
1000
0100
1000
0010
1000
0001
1000
0010
1000
,
0100
0010
0001
0100
0010
1000
0010
0100
0001
0010
0001
0100
0001
1000
0001
0100
,
0001
0010
0100
1000
0010
0100
0001
1000
0100
0010
0001
1000
0001
0010
0100
1000
,
0001
1000
0010
0100
0001
0010
0100
1000
0001
0010
0001
1000
0100
1000
0001
0010
,
0001
1000
0010
1000
0001
0100
0010
1000
0100
0010
0001
1000
0100
1000
0001
0010
,
0001
1000
0010
0100
0001
0010
0100
1000
0001
0010
0001
1000
0100
0010
0100
1000
,
0001
1000
0010
0100
0001
0010
0100
1000
0010
0100
0001
1000
0010
1000
0001
0100
,
0010
1000
0001
0010
0100
1000
0100
0010
0001
0100
0010
0100
0001
1000
0010
0100
,
0001
1000
0001
0010
0100
1000
0100
0010
0001
0100
0010
1000
0010
0100
0001
1000
,
0001
0010
0100
1000
0100
0010
0001
0100
0010
0100
0001
1000
0010
0100
0001
1000
,
0010
1000
0001
0010
0100
1000
0010
1000
0100
0010
0001
1000
0100
1000
0001
0010
,
0001
1000
0010
0100
0001
1000
0010
1000
0100
0010
0001
1000
0100
1000
0001
0010
,
0100
1000
0001
1000
0010
0100
0001
0010
0100
1000
0001
0010
0001
1000
0100
0010
,
0001
1000
0001
0100
0010
0100
0001
0010
0100
1000
0001
0010
0001
1000
0001
0010
,
0100
1000
0001
0100
0010
1000
0100
0010
0001
0100
0010
0100
0001
1000
0010
0100
,
0001
0010
0100
1000
0100
0010
0100
1000
0010
0100
0001
1000
0010
1000
0001
0100
,
0010
1000
0001
0010
0100
1000
0010
0100
0001
0010
0001
0100
0001
1000
0001
0100
,
0001
0010
0100
1000
0010
0100
0001
0010
0100
1000
0010
1000
0001
1000
0010
1000
,
0100
0010
0001
0100
0010
0100
0001
0010
0001
0100
0001
1000
0010
1000
0001
0100
,
0010
1000
0001
1000
0100
0010
0001
0100
0010
1000
0010
0100
0001
1000
0001
0100
,
0010
1000
0001
0010
0100
1000
0001
0010
0001
0100
0010
1000
0010
0100
0001
1000
,
0001
0010
0001
1000
0100
0010
0001
0100
0010
1000
0010
0100
0001
1000
0001
0010
,
0100
1000
0001
1000
0100
0010
0001
0100
0010
1000
0001
1000
0100
0010
0001
0010
,
0100
1000
0001
1000
0010
0100
0001
0010
0100
1000
0100
0010
0001
1000
0001
0010
,
0100
1000
0001
0100
0010
1000
0001
0100
0001
0010
0100
1000
0100
0010
0001
1000
,
0001
0100
0001
1000
0010
0100
0001
0010
0100
1000
0100
0010
0001
1000
0001
0100
,
0010
1000
0001
1000
0010
0100
0001
0010
0001
0100
0010
1000
0010
0100
0001
1000
,
0001
0010
0100
0010
0001
1000
0100
0010
0001
0100
0010
1000
0001
0100
0001
1000
,
0010
1000
0001
0010
0100
1000
0100
0010
0001
0100
0010
1000
0010
0100
0001
0100
,
0010
1000
0001
0010
0100
0010
0001
0100
0010
0100
0001
1000
0001
0100
0010
0100
,
0001
1000
0100
0010
0100
1000
0010
0100
0001
0010
0100
1000
0001
0010
0001
1000
,
0100
1000
0001
0100
0010
1000
0010
0100
0001
0010
0100
1000
0100
0010
0001
1000
,
0001
0100
0010
1000
0010
0100
0001
0010
0100
1000
0010
1000
0001
1000
0010
1000
,
0100
0010
0001
0100
0010
1000
0010
0100
0001
0010
0001
0100
0001
1000
0001
0100
,
0001
0010
0100
1000
0010
0100
0001
1000
0001
0000
0000
0000
0000
0000
0000
0000
;

//---------------dance-single - 19- (@@TYLR)----------------
#NOTES:
     dance-single:
     19- (@@TYLR):
     Challenge:
     19:
     1.000,1.000,0.299,0.043,1.000,5167.000,140.000,20.000,61.000,0.000:
0000
0000
0000
0000
,
0000
0000
0000
0000
,
0000
0000
0000
0000
,
0000
0000
0000
0000
,
0000
0000
0000
0000
,
0000
0000
0000
0000
,
0000
0000
0000
0000
,
0000
0000
0000
0000
,
0000
0000
0000
0000
,
0000
0000
0000
0000
,
0000
0000
0000
0000
,
0000
0000
0000
0000
,
0000
0000
0000
0000
,
0001
0001
1000
1000
0002
0000
0003
0000
,
1000
1000
0010
0010
2000
0000
3000
0000
,
0010
0010
0100
0100
0020
0000
0030
0000
,
0100
0100
0001
0001
0200
0000
0300
0000
,
0001
0001
1000
1000
0002
0000
0003
0000
,
0010
0010
0100
0100
0020
0000
0030
0000
,
0100
0100
1000
1000
0200
0000
0300
0000
,
1000
1000
0001
0001
2000
0000
3000
0000
,
0010
0010
0100
0100
0020
0000
0030
0000
,
0100
0100
0001
0001
0200
0000
0300
0000
,
0001
0001
1000
1000
0002
0000
0003
0000
,
0010
0010
0001
0001
0020
0000
0030
0000
,
0100
0100
1000
1000
0200
0000
0300
0000
,
1000
1000
0010
0010
2000
0000
3000
0000
,
0001
0001
0010
0010
0002
0000
0003
0000
,
1001
0101
1010
1001
,
0011
1100
1001
0110
,
1010
0101
1001
0011
,
1100
1001
0011
0110
,
1100
1001
1010
0101
,
1001
0110
1010
1001
,
0011
0110
1100
1001
,
0101
1010
1001
0101
,
1001
0000
0001
1000
0001
0000
1001
0000
,
1010
0000
0010
1000
0010
0000
1010
0000
,
0101
0000
0100
0001
0100
0000
0101
0000
,
1001
0000
1000
0001
1000
0000
1001
0000
,
1100
0000
0100
1000
0100
0000
1100
0000
,
0011
0000
0001
0010
0001
0000
0011
0000
,
0110
0000
0100
0010
0100
0000
1100
0000
,
1001
0000
0001
1000
0001
0000
1001
0000
,
1000
0001
0100
0001
1000
0001
0010
0001
,
0100
0010
1000
0010
0100
0001
0010
0100
,
1000
0001
1000
0010
1000
0001
1000
0100
,
1000
0010
0100
0001
0010
0100
1000
0001
,
0100
0001
1000
0001
0010
0001
0100
0010
,
1000
0001
0100
0010
1000
0010
0100
0001
0010
0100
1000
0100
0010
0001
1000
0100
,
1000
0010
0100
0001
0100
0010
1000
0100
0010
0001
1000
0001
0010
0100
1000
0001
,
1000
0001
1000
0001
1000
0001
0040
0000
,
0031
1000
0100
0010
0001
1000
0001
0100
0010
1000
0001
1000
0001
0010
0100
1000
,
0010
0100
0001
1000
0001
0010
0100
1000
0001
1000
0001
0100
0010
1000
0001
0010
,
0100
1000
0001
1000
0010
0100
0001
1000
0001
0010
0100
0010
0001
1000
0010
0100
,
0001
1000
0010
0100
0001
1000
0001
0010
0100
1000
0001
1000
0010
0100
0001
1000
,
0100
0010
0001
1000
0100
1000
0001
1000
0010
0100
0001
1000
0010
1000
0001
1000
,
0100
0010
0001
0010
0100
1000
0001
1000
0010
0100
0001
0100
0010
1000
0001
1000
,
0100
0010
0001
1000
0001
1000
0010
0100
0001
1000
0001
0100
0001
1000
0100
0010
,
0001
1000
0010
1000
0001
0100
0010
1000
0001
0010
0100
1000
0100
0010
0001
1000
,
0010
0100
0001
1000
0001
0010
0100
1000
0001
1000
0001
0100
0010
1000
0001
1000
,
0001
0010
0100
1000
0100
0010
0001
1000
0010
0100
0010
1000
0001
1000
0100
0010
,
0001
0100
0001
1000
0010
0100
0001
1000
0100
0010
0100
1000
0001
1000
0010
0100
,
0001
0100
0010
1000
0010
0100
0001
1000
0001
0010
0100
1000
0001
0100
0010
1000
,
0100
0010
0001
1000
0100
1000
0001
1000
0010
0100
0001
0100
0010
1000
0001
1000
,
0100
0010
0001
1000
0001
0100
0010
1000
0001
1000
0010
0100
0001
1000
0100
1000
,
0001
0010
0100
1000
0001
1000
0010
1000
0001
0010
0100
1000
0001
0100
0001
0100
,
0010
0000
0000
0000
0010
0000
0000
0000
1000
0001
1000
0010
0100
0000
0100
0000
,
0001
1000
0100
0010
0001
1000
0001
0100
0010
1000
0001
1000
0001
0010
0100
1000
,
0010
0100
0001
1000
0001
0010
0100
1000
0001
1000
0001
0100
0010
1000
0001
0010
,
0100
1000
0001
1000
0010
0100
0001
1000
0001
0010
0100
0010
0001
1000
0010
0100
,
0001
1000
0010
0100
0001
1000
0001
0010
0100
1000
0001
1000
0010
0100
0001
1000
,
0100
0010
0001
1000
0100
1000
0001
1000
0010
0100
0001
1000
0010
1000
0001
1000
,
0100
0010
0001
0010
0100
1000
0001
1000
0010
0100
0001
0100
0010
1000
0001
1000
,
0100
0010
0001
1000
0001
1000
0010
0100
0001
1000
0001
0100
0001
1000
0100
0010
,
0001
1000
0010
1000
0001
0100
0010
1000
0001
0010
0100
1000
0100
0010
0001
1000
,
0010
0100
0001
1000
0001
0010
0100
1000
0001
1000
0001
0100
0010
1000
0001
1000
,
0001
0010
0100
1000
0100
0010
0001
1000
0010
0100
0010
1000
0001
1000
0100
0010
,
0001
0100
0001
1000
0010
0100
0001
1000
0100
0010
0100
1000
0001
1000
0010
0100
,
0001
0100
0010
1000
0010
0100
0001
1000
0001
0010
0100
1000
0001
0100
0010
1000
,
0100
0010
0001
1000
0100
1000
0001
1000
0010
0100
0001
0100
0010
1000
0001
1000
,
0100
0010
0001
1000
0001
0100
0010
1000
0001
1000
0010
0100
0001
1000
0100
1000
,
0001
0010
0100
1000
0001
1000
0010
1000
0001
0010
0100
1000
0001
1000
0001
0100
,
0010
0000
0000
0000
0010
0000
0000
0000
1000
0010
1000
0001
0010
0000
0010
0000
,
0001
1000
0100
0010
0001
1000
0001
0100
0010
1000
0001
1000
0001
0010
0100
1000
,
0010
0100
0001
1000
0001
0010
0100
1000
0001
1000
0001
0100
0010
1000
0001
0010
,
0100
1000
0001
1000
0010
0100
0001
1000
0001
0010
0100
0010
0001
1000
0010
0100
,
0001
1000
0010
0100
0001
1000
0001
0010
0100
1000
0001
1000
0010
0100
0001
1000
,
0100
0010
0001
1000
0100
1000
0001
1000
0010
0100
0001
1000
0010
1000
0001
1000
,
0100
0010
0001
0010
0100
1000
0001
1000
0010
0100
0001
0100
0010
1000
0001
1000
,
0100
0010
0001
1000
0001
1000
0010
0100
0001
1000
0001
0100
0001
1000
0100
0010
,
0001
1000
0010
1000
0001
0100
0010
1000
0001
0010
0100
1000
0100
0010
0001
1000
,
0010
0100
0001
1000
0001
0010
0100
1000
0001
1000
0001
0100
0010
1000
0001
1000
,
0001
0010
0100
1000
0100
0010
0001
1000
0010
0100
0010
1000
0001
1000
0100
0010
,
0001
0100
0001
1000
0010
0100
0001
1000
0100
0010
0100
1000
0001
1000
0010
0100
,
0001
0100
0010
1000
0010
0100
0001
1000
0001
0010
0100
1000
0001
0100
0010
1000
,
0100
0010
0001
1000
0100
1000
0001
1000
0010
0100
0001
0100
0010
1000
0001
1000
,
0100
0010
0001
1000
0001
0100
0010
1000
0001
1000
0010
0100
0001
1000
0100
1000
,
0001
0010
0100
1000
0001
1000
0010
1000
0001
0010
0100
1000
0001
0100
0001
0100
,
0010
0000
0000
0000
0010
0000
0000
0000
1000
0001
1000
0010
0100
0000
0100
0000
,
0001
1000
0100
0010
0001
1000
0001
0100
0010
1000
0001
1000
0001
0010
0100
1000
,
0010
0100
0001
1000
0001
0010
0100
1000
0001
1000
0001
0100
0010
1000
0001
0010
,
0100
1000
0001
1000
0010
0100
0001
1000
0001
0010
0100
0010
0001
1000
0010
0100
,
0001
1000
0010
0100
0001
1000
0001
0010
0100
1000
0001
1000
0010
0100
0001
1000
,
0100
0010
0001
1000
0100
1000
0001
1000
0010
0100
0001
1000
0010
1000
0001
1000
,
0100
0010
0001
0010
0100
1000
0001
1000
0010
0100
0001
0100
0010
1000
0001
1000
,
0100
0010
0001
1000
0001
1000
0010
0100
0001
1000
0001
0100
0001
1000
0100
0010
,
0001
1000
0010
1000
0001
0100
0010
1000
0001
0010
0100
1000
0100
0010
0001
1000
,
0010
0100
0001
1000
0001
0010
0100
1000
0001
1000
0001
0100
0010
1000
0001
1000
,
0001
0010
0100
1000
0100
0010
0001
1000
0010
0100
0010
1000
0001
1000
0100
0010
,
0001
0100
0001
1000
0010
0100
0001
1000
0100
0010
0100
1000
0001
1000
0010
0100
,
0001
0100
0010
1000
0010
0100
0001
1000
0001
0010
0100
1000
0001
0100
0010
1000
,
0100
0010
0001
1000
0100
1000
0001
1000
0010
0100
0001
0100
0010
1000
0001
1000
,
0100
0010
0001
1000
0001
0100
0010
1000
0001
1000
0010
0100
0001
1000
0100
0010
,
0002
0003
0000
0000
0000
0000
0000
0000
0000
0000
0000
0000
0000
0000
0000
0000
,
0000
0000
0000
0000
,
0000
0000
0000
0000
0000
0000
0000
0000
1000
0010
1000
0001
0100
0010
1000
0010
,
0100
0001
1000
0001
0010
0100
1000
0010
0100
0001
0100
0010
1000
0001
1000
0010
,
0100
0001
1000
0100
0010
0001
1000
0100
1000
0010
0100
0001
0100
0010
1000
0001
,
1000
0100
1000
0001
0010
0100
1000
0010
0100
0001
0100
0010
1000
0001
1000
0100
,
0010
0001
1000
0001
0010
0100
1000
0010
0100
0001
1000
0001
0010
0100
1000
0100
,
0010
0001
1000
0001
0100
0010
1000
0100
0010
0001
0010
0100
1000
0001
1000
0100
,
0010
0001
1000
0010
0100
0001
1000
0010
1000
0100
0010
0001
0010
0100
1000
0001
,
1000
0010
1000
0001
0100
0010
1000
0100
0010
0001
0010
0100
1000
0001
1000
0010
,
0100
0001
1000
0001
0100
0010
1000
0100
1000
0010
0100
0001
0100
0010
1000
0001
,
1000
0100
0010
0100
1000
0001
0010
0100
1000
0010
0100
0001
1000
0010
1000
0001
,
0100
0001
1000
0100
0010
0001
0010
0100
1000
0010
0100
0001
0100
0010
1000
0010
,
0100
0001
1000
0100
0010
0100
1000
0010
0100
0010
1000
0001
1000
0010
0100
0010
,
1000
0001
0010
0100
0010
0001
0100
0010
1000
0100
0010
0001
1000
0100
1000
0001
,
0010
0001
1000
0010
0100
0001
0100
0010
1000
0100
0010
0001
0010
0100
1000
0001
,
1000
0010
0100
0001
0100
0010
1000
0100
0010
0001
1000
0001
0010
0100
1000
0001
,
1000
0010
0100
0001
0100
0010
1000
0100
0010
0001
0100
0001
0010
0001
1000
0001
,
0020
0000
0030
0000
0200
0000
0300
0000
1000
0001
0100
0001
1000
0010
0100
0001
,
1000
0001
0010
0100
0010
0001
1000
0100
1000
0010
0100
0001
1000
0001
0100
0010
,
0100
0001
1000
0001
0010
0100
1000
0010
0100
0001
1000
0010
1000
0001
0100
0001
,
1000
0010
0100
0001
1000
0100
0010
0001
0100
0010
1000
0010
0100
0001
0100
0010
,
1000
0001
1000
0100
0010
0001
0100
0010
1000
0100
0010
0001
0010
0100
1000
0001
,
1000
0100
1000
0001
0100
0010
1000
0100
0010
0001
1000
0100
1000
0001
0010
0100
,
1000
0001
1000
0010
0100
0001
0100
0010
1000
0100
0010
0001
0010
0100
0010
0001
,
1000
0001
0100
0010
1000
0010
0100
0001
0010
0001
1000
0100
0010
0001
1000
0100
,
0010
0100
1000
0001
0100
0010
1000
0100
1000
0010
0100
0001
0100
0010
1000
0001
,
0100
0001
1000
0100
0010
0001
0010
0100
1000
0010
0100
0001
1000
0001
0100
0010
,
0100
0001
1000
0100
0010
0001
1000
0100
1000
0010
0100
0001
1000
0001
0100
0010
,
1000
0010
0100
0001
1000
0001
0010
0100
1000
0010
0100
0001
0100
0010
1000
0010
,
0100
0001
1000
0001
0010
0100
1000
0010
0100
0001
0010
0100
1000
0001
0010
0001
,
1000
0100
1000
0001
0100
0010
0100
0001
0010
0100
1000
0001
1000
0100
0010
0001
,
1000
0001
0100
0010
1000
0010
0100
0001
0010
0100
1000
0100
0010
0001
1000
0100
,
1000
0001
0100
0001
1000
0010
0100
0001
0010
0001
0100
0001
1000
0001
0100
0000
,
0010
1000
0100
0010
0001
0100
0010
1000
0100
0010
0001
1000
0100
0010
0001
0010
,
0100
1000
0001
1000
0010
0100
0001
0010
0100
1000
0100
0010
0001
1000
0001
0010
,
0100
1000
0001
0100
0010
1000
0001
0100
0001
0010
0100
1000
0100
0010
0001
1000
,
0001
0100
0001
1000
0010
0100
0001
0010
0100
1000
0100
0010
0001
1000
0001
0100
,
0010
1000
0001
1000
0010
0100
0001
0010
0100
1000
0001
1000
0010
0100
0001
0100
,
0010
1000
0001
1000
0100
0010
0001
0100
0010
1000
0010
0100
0001
1000
0001
0100
,
0010
1000
0001
0010
0100
1000
0001
0010
0001
0100
0010
1000
0010
0100
0001
1000
,
0001
0010
0001
1000
0100
0010
0001
0100
0010
1000
0010
0100
0001
1000
0001
0010
,
0100
1000
0001
1000
0100
0010
0001
0100
0001
0010
0100
1000
0100
0010
0001
1000
,
0001
0100
0010
0100
0001
1000
0010
0100
0001
0010
0100
1000
0001
0010
0001
1000
,
0100
1000
0001
0100
0010
1000
0010
0100
0001
0010
0100
1000
0100
0010
0001
0010
,
0100
1000
0001
0100
0010
0100
0001
0010
0100
0010
0001
1000
0001
0010
0100
0010
,
0001
1000
0010
0100
0010
1000
0100
0010
0001
0100
0010
1000
0001
0100
0001
1000
,
0010
1000
0001
0010
0100
1000
0100
0010
0001
0100
0010
1000
0010
0100
0001
1000
,
0001
0010
0100
1000
0100
0010
0001
0100
0010
1000
0001
1000
0010
0100
0001
1000
,
0001
0010
0100
1000
0100
0010
0001
0100
0001
1000
0100
1000
0010
1000
0100
1000
,
0010
0100
0010
1000
0100
1000
0010
0100
0001
0010
0001
1000
0100
0010
0100
1000
,
0001
1000
0010
0100
0010
1000
0001
0100
0001
0010
0100
1000
0001
1000
0100
0010
,
0100
1000
0001
1000
0010
0100
0001
0010
0100
1000
0001
0010
0001
1000
0100
1000
,
0001
0010
0100
1000
0001
0100
0010
1000
0100
0010
0001
0010
0100
1000
0100
0010
,
0001
1000
0001
0100
0010
1000
0100
0010
0001
0100
0010
1000
0010
0100
0001
1000
,
0001
0100
0001
1000
0100
0010
0001
0100
0010
1000
0001
0100
0001
1000
0010
0100
,
0001
1000
0001
0010
0100
1000
0100
0010
0001
0100
0010
1000
0010
0100
0010
1000
,
0001
1000
0100
0010
0001
0010
0100
1000
0010
1000
0001
0100
0010
1000
0001
0100
,
0010
0100
0001
1000
0100
0010
0001
0100
0001
0010
0100
1000
0100
0010
0001
1000
,
0100
1000
0001
0100
0010
1000
0010
0100
0001
0010
0100
1000
0001
1000
0100
0010
,
0100
1000
0001
0100
0010
1000
0001
0100
0001
0010
0100
1000
0001
1000
0100
0010
,
0001
0010
0100
1000
0001
1000
0010
0100
0001
0010
0100
1000
0100
0010
0001
0010
,
0100
1000
0001
1000
0010
0100
0001
0010
0100
1000
0010
0100
0001
1000
0010
1000
,
0001
0100
0001
1000
0100
0010
0100
1000
0010
0100
0001
1000
0001
0100
0010
1000
,
0001
1000
0100
0010
0001
0010
0100
1000
0010
0100
0001
0100
0010
1000
0001
0100
,
0001
1000
0100
1000
0001
0010
0100
1000
0010
0100
0001
1000
0001
0010
0100
1000
,
0010
0100
0010
1000
0400
0000
0000
0000
0310
0000
0001
0000
0100
0000
0010
0000
,
0000
00M1
0100
0010
0000
00M1
0100
0010
,
0000
00M1
0100
0010
0000
00M1
0100
0010
,
0000
00M1
0100
0010
0000
00M1
0100
0010
,
1000
0100
0010
0000
0010
0000
0010
0000
0001
0000
1000
0000
0100
0000
0010
0000
,
00M0
1000
0100
0010
0000
10M0
0100
0010
,
0000
10M0
0100
0010
0000
10M0
0100
0010
,
0000
10M0
0100
0010
0000
10M0
0100
0010
,
0001
0100
0010
0000
0010
0000
0010
0000
1000
0000
0001
0000
0010
0000
0100
0000
,
0000
0M01
0010
0100
0000
0M01
0010
0100
,
0000
0M01
0010
0100
0000
0M01
0010
0100
,
0000
0M01
0010
0100
0000
0M01
0010
0100
,
1000
0010
0100
0000
0100
0000
0100
0000
0001
0000
1000
0000
0010
0000
0100
0000
,
0001
1000
0001
0100
0010
1000
0010
0100
0001
1000
0100
0010
0001
1000
0001
0010
,
0100
1000
0001
0100
0010
0100
0001
1000
0001
0010
0100
1000
0001
1000
0100
0010
,
0001
1000
0010
0100
0001
0100
0010
1000
0001
0000
0010
0000
0001
0000
0001
0000
,
0001
0000
1000
0010
1000
0100
1000
0010
1000
0000
0001
0000
0010
0000
0100
0000
,
01M0
0001
0010
0100
01M0
0001
0010
0100
,
01M0
0001
0010
0100
01M0
0001
0010
0100
,
01M0
0001
0010
0100
01M0
0001
0010
0100
,
01M0
0001
1000
0000
0400
0000
0000
0000
1300
0000
0001
0000
0100
0000
0010
0000
,
0M10
0001
0100
0010
0M10
0001
0100
0010
,
0M10
0001
0100
0010
0M10
0001
0100
0010
,
0M10
0001
0100
0010
0M10
0001
0100
0010
,
0M10
0001
1000
0000
0040
0000
0000
0000
0130
0000
0001
0000
1000
0000
0100
0000
,
M100
0001
1000
0100
M100
0001
1000
0100
,
M100
0001
1000
0100
M100
0001
1000
0100
,
M100
0001
1000
0100
M100
0001
1000
0100
,
M100
0001
1000
0000
0400
0000
0000
0000
1300
0000
0001
0000
0100
0000
0010
0000
,
0M10
0001
0100
0010
0M10
0001
0100
0010
,
0M10
0001
0100
0010
0M10
0001
0100
0010
,
0M10
0001
0100
0010
0M10
0001
0100
0010
,
1000
0001
1000
0000
0001
0000
1000
0000
0004
0000
0013
0000
0100
0000
01M0
0000
,
0004
0013
0100
01M0
0001
0000
1000
0000
,
0010
0000
1000
0000
0400
1300
0010
M010
,
0400
1300
0010
M010
0001
1000
0001
0100
,
0001
1000
0001
0010
0400
1300
0010
M010
,
0400
1300
0010
M010
0001
0000
1000
0000
,
0001
0000
1000
0000
0040
1030
0100
M100
,
0040
1030
0100
M100
0001
0000
1000
0000
,
0001
0000
1000
0000
0004
1003
0100
M100
,
0004
0003
1000
0000
0100
0000
M100
0000
0001
0000
0000
0000
0010
0000
0000
0000
,
0100
0000
1000
0000
0004
0103
0010
0M10
,
0004
0103
0010
0M10
0001
0000
1000
0000
,
0100
0000
0010
0000
0004
1003
0010
M010
,
0004
1003
0010
M010
0001
0000
0100
0000
,
0010
0000
1000
0000
0004
0013
0100
01M0
,
0004
0013
0100
01M0
0001
0000
1000
0000
,
0001
0000
0000
0000
0001
0100
0010
0000
1000
0000
0100
0000
1000
0000
1000
0000
,
0001
0100
0000
0000
0000
0000
1001
0000
0000
0000
0000
0000
1100
0000
0000
0000
0000
0000
0000
0000
1000
0000
0000
0000
0001
0000
0000
0000
0001
0000
0000
0000
,
1000
0100
0000
0000
0000
0000
1001
0000
0000
0000
0000
0000
0101
0000
0000
0000
0000
0000
0000
0000
0001
0000
0000
0000
1000
0000
0000
0000
1000
0000
0000
0000
,
0001
0010
0000
0000
0000
0000
0110
0000
0000
0000
0000
0000
1100
0000
0000
0000
0000
0000
0000
0000
1000
0000
0000
0000
0001
0000
0000
0000
0001
0000
0000
0000
,
1000
0010
0000
0000
0000
0000
0110
0000
0000
0000
0000
0000
0101
0000
0000
0000
0001
0000
1000
0000
0010
0000
1000
0000
0001
0000
1000
0000
0010
0000
1000
0000
,
0001
0010
0100
0010
0001
0010
0100
0010
0001
0100
0010
0100
0001
0100
0010
0100
,
0001
1000
0100
1000
0001
1000
0100
1000
0010
0100
0010
1000
0010
0100
0010
1000
,
0100
0010
0100
1000
0100
0010
0100
1000
0010
0100
0001
0100
0010
0100
0001
0100
,
0010
1000
0001
1000
0100
1000
0001
1000
0010
0100
0001
1000
0010
0100
0010
1000
,
0100
0010
0001
0010
0100
1000
0001
0010
0001
0100
0010
1000
0001
1000
0010
0100
,
0001
0010
0100
0010
0001
1000
0100
0010
0001
0100
0010
1000
0001
0100
0001
1000
,
0100
0010
0001
1000
0001
0010
0100
1000
0010
0100
0001
0100
0010
1000
0010
0100
,
0001
0010
0100
1000
0100
0010
0001
1000
0010
0100
0001
0100
0010
1000
0100
0010
,
0001
1000
0001
0010
0100
1000
0010
0100
0001
0010
0001
1000
0010
0100
0010
1000
,
0100
0010
0001
1000
0001
0010
0100
1000
0010
0100
0001
0100
0010
1000
0100
0010
,
0100
1000
0001
0010
0001
0100
0010
1000
0100
1000
0010
0100
0010
1000
0001
0100
,
0001
0010
0100
1000
0010
0100
0001
0010
0100
1000
0010
1000
0001
0100
0001
0000
,
1000
0010
0000
0000
0000
0000
1001
0000
0000
0000
0000
0000
0011
0000
0000
0000
0001
0000
1000
0000
0100
0000
0010
0000
0001
0000
1000
0000
0001
0000
0000
0000
,
1000
0100
0000
0000
0000
0000
0110
0000
0000
0000
0000
0000
0011
0000
0000
0000
0001
0000
1000
0000
0010
0000
1000
0000
0001
0000
0100
0000
0001
0000
0000
0000
,
1000
0010
0000
0000
0000
0000
1001
0000
0000
0000
0000
0000
0011
0000
0000
0000
0001
0000
1000
0000
0100
0000
0010
0000
0100
0000
1000
0000
0001
0000
0000
0000
,
1000
0100
0000
0000
0000
0000
0110
0000
0000
0000
0000
0000
0011
0000
0000
0000
0001
0000
1000
0000
0010
0000
0100
0000
0001
0000
1000
0000
0001
0000
0000
0000
,
1000
0010
0000
0000
0000
0000
1001
0000
0000
0000
0000
0000
0011
0000
0000
0000
0001
0000
1000
0000
0100
0000
0010
0000
0100
0000
1000
0000
0001
0000
0000
0000
,
1000
0100
0000
0000
0000
0000
0110
0000
0000
0000
0000
0000
0011
0000
0000
0000
0001
0000
1000
0000
0010
0000
0100
0000
0010
0000
1000
0000
0001
0000
0000
0000
,
1000
0010
0000
0000
0000
0000
1001
0000
0000
0000
0000
0000
0011
0000
0000
0000
0001
0000
1000
0000
0100
0000
1000
0000
0001
0000
0010
0000
0001
0000
0000
0000
,
1000
0100
0000
0000
0000
0000
0110
0000
0000
0000
0000
0000
0011
0000
0000
0000
0001
0000
1000
0000
0010
0000
0100
0000
0001
0000
1000
0000
0001
0000
0000
0000
,
1000
0010
0000
0000
0000
0000
1001
0000
0000
0000
0000
0000
0011
0000
0000
0000
0001
0000
1000
0000
0100
0000
0010
0000
0100
0000
1000
0000
0001
0000
0000
0000
,
1000
0100
0000
0000
0000
0000
0110
0000
0000
0000
0000
0000
0011
0000
0000
0000
0001
0000
1000
0000
0010
0000
1000
0000
0001
0000
0100
0000
0001
0000
0000
0000
,
1000
0010
0000
0000
0000
0000
1001
0000
0000
0000
0000
0000
0011
0000
0000
0000
0001
0000
1000
0000
0100
0000
0010
0000
0100
0000
1000
0000
0001
0000
0000
0000
,
1000
0100
0000
0000
0000
0000
0110
0000
0000
0000
0000
0000
0011
0000
0000
0000
0001
0000
1000
0000
0010
0000
0100
0000
0010
0000
1000
0000
0001
0000
0000
0000
,
1000
0010
0000
0000
0000
0000
1001
0000
0000
0000
0000
0000
0011
0000
0000
0000
0001
0000
1000
0000
0100
0000
0010
0000
0001
0000
1000
0000
0001
0000
0000
0000
,
1000
0100
0000
0000
0000
0000
0110
0000
0000
0000
0000
0000
0011
0000
0000
0000
0001
0000
1000
0000
0001
0000
0000
0000
1000
0010
0000
0000
1000
0000
0000
0000
,
0001
0000
1000
0000
0001
0000
0000
0000
1000
0100
0000
0000
1000
0000
0000
0000
1001
0000
0000
0000
1000
0000
0000
0000
1010
0000
0000
0000
0010
0000
0000
0000
,
1010
0000
1000
0000
1001
0000
0001
0000
1000
0001
0010
0001
1000
0100
1000
0000
,
0001
0010
0000
0000
0000
0000
1001
0000
0000
0000
0000
0000
1010
0000
0000
0000
1000
0000
0001
0000
0100
0000
0010
0000
1000
0000
0001
0000
1000
0000
0000
0000
,
0001
0100
0000
0000
0000
0000
0110
0000
0000
0000
0000
0000
1010
0000
0000
0000
1000
0000
0001
0000
0010
0000
0001
0000
1000
0000
0100
0000
1000
0000
0000
0000
,
0001
0010
0000
0000
0000
0000
1001
0000
0000
0000
0000
0000
1010
0000
0000
0000
1000
0000
0001
0000
0100
0000
0010
0000
0100
0000
0001
0000
1000
0000
0000
0000
,
0001
0100
0000
0000
0000
0000
0110
0000
0000
0000
0000
0000
1010
0000
0000
0000
1000
0000
0001
0000
0010
0000
0100
0000
1000
0000
0001
0000
1000
0000
0000
0000
,
0001
0010
0000
0000
0000
0000
1001
0000
0000
0000
0000
0000
1010
0000
0000
0000
1000
0000
0001
0000
0100
0000
0010
0000
0100
0000
0001
0000
1000
0000
0000
0000
,
0001
0100
0000
0000
0000
0000
0110
0000
0000
0000
0000
0000
1010
0000
0000
0000
1000
0000
0001
0000
0010
0000
0100
0000
0010
0000
0001
0000
1000
0000
0000
0000
,
0001
0010
0000
0000
0000
0000
1001
0000
0000
0000
0000
0000
1010
0000
0000
0000
1000
0000
0001
0000
0100
0000
0001
0000
1000
0000
0010
0000
1000
0000
0000
0000
,
0001
0100
0000
0000
0000
0000
0110
0000
0000
0000
0000
0000
1010
0000
0000
0000
1000
0000
0001
0000
0010
0000
0100
0000
1000
0000
0001
0000
1000
0000
0000
0000
,
0001
0010
0000
0000
0000
0000
1001
0000
0000
0000
0000
0000
1010
0000
0000
0000
1000
0000
0001
0000
0100
0000
0010
0000
0100
0000
0001
0000
1000
0000
0000
0000
,
0001
0100
0000
0000
0000
0000
0110
0000
0000
0000
0000
0000
1010
0000
0000
0000
1000
0000
0001
0000
0010
0000
0001
0000
1000
0000
0100
0000
1000
0000
0000
0000
,
0001
0010
0000
0000
0000
0000
1001
0000
0000
0000
0000
0000
1010
0000
0000
0000
1000
0000
0001
0000
0100
0000
0010
0000
0100
0000
0001
0000
1000
0000
0000
0000
,
0001
0100
0000
0000
0000
0000
0110
0000
0000
0000
0000
0000
1010
0000
0000
0000
1000
0000
0001
0000
0010
0000
0100
0000
0010
0000
0001
0000
1000
0000
0000
0000
,
0001
0010
0000
0000
0000
0000
1001
0000
0000
0000
0000
0000
1010
0000
0000
0000
1000
0000
0001
0000
0100
0000
0010
0000
1000
0000
0001
0000
1000
0000
0000
0000
,
0001
0100
0000
0000
0000
0000
0110
0000
0000
0000
0000
0000
1010
0000
0000
0000
1000
0000
0001
0000
1000
0000
0000
0000
0001
0010
0000
0000
0001
0000
0000
0000
,
1000
0000
0001
0000
1000
0000
0000
0000
0001
0100
0000
0000
0001
0000
0000
0000
1001
0000
0000
0000
0001
0000
0000
0000
0011
0000
0000
0000
0010
0000
0000
0000
,
0011
0000
0001
0000
1001
0000
1000
0000
0010
0100
0010
1000
0001
1000
0010
0100
,
0001
0010
0100
1000
0001
1000
0100
0010
0001
0100
0010
1000
0010
0100
0001
0010
,
0100
1000
0001
1000
0100
0010
0100
1000
0010
0100
0001
0100
0010
1000
0001
0100
,
0001
0010
0100
1000
0100
0010
0001
0100
0010
1000
0001
1000
0010
0100
0001
0100
,
0010
1000
0100
0010
0001
0010
0100
1000
0010
0100
0001
0100
0010
1000
0010
0100
,
0001
0010
0100
1000
0100
0010
0001
0100
0001
1000
0010
0100
0010
1000
0001
1000
,
0010
0100
0001
0010
0100
1000
0001
0010
0001
0100
0010
1000
0001
0100
0001
1000
,
0010
0100
0001
0010
0100
0010
0001
0100
0010
1000
0010
0100
0010
1000
0001
0100
,
0001
0010
0100
0010
0001
1000
0100
0010
0001
0100
0010
1000
0010
0100
0001
1000
,
0010
1000
0100
0010
0001
0010
0100
1000
0010
0100
0010
1000
0001
0100
0001
0010
,
0100
1000
0001
1000
0100
0010
0001
0100
0001
1000
0010
0100
0001
0100
0010
1000
,
0100
0010
0100
1000
0001
0010
0100
1000
0010
0100
0001
1000
0010
1000
0001
0100
,
0001
0010
0100
1000
0100
0010
0001
0100
0010
0100
0001
1000
0010
1000
0001
0100
,
0001
0010
0100
1000
0001
0010
0001
0100
0010
1000
0010
0100
0001
1000
0001
0100
,
0010
0100
0001
0010
0001
1000
0100
0010
0001
1000
0010
1000
0001
1000
0010
1000
,
0100
0010
0001
0010
0100
0010
0001
0010
0100
1000
0010
0100
0001
1000
0100
0010
,
0001
1000
0010
0100
0001
0010
0001
0100
0010
1000
0100
0010
0001
1000
0100
1000
,
0010
0100
0001
1000
0100
0010
0001
0100
0001
0010
0100
1000
0001
0010
0001
0100
,
0010
1000
0010
0100
0001
0010
0001
0100
0010
1000
0100
0010
0001
1000
0100
1000
,
0010
1000
0001
0010
0001
0100
0001
0010
0100
1000
0001
0010
0100
0010
0001
0100
,
0010
1000
0001
0100
0001
0010
0001
0100
0010
1000
0100
0010
0001
1000
0100
1000
,
0010
0100
0010
1000
0100
0010
0001
0100
0010
1000
0100
0010
0100
1000
0001
0010
,
0001
0100
0010
1000
0100
1000
0010
0100
0001
0010
0100
1000
0001
1000
0100
0010
,
0100
1000
0010
0100
0001
0010
0001
0100
0001
1000
0100
0010
0001
1000
0100
1000
,
0010
0100
0001
0010
0100
1000
0010
0100
0001
0010
0100
0010
0001
1000
0100
0010
,
0001
0100
0010
1000
0100
0010
0001
0100
0001
0010
0100
0010
0001
0010
0100
1000
,
0010
1000
0001
0100
0010
1000
0100
1000
0010
1000
0100
0010
0001
1000
0100
1000
,
0010
0100
0001
0010
0001
0100
0001
1000
0100
1000
0001
0010
0100
1000
0100
0010
,
0001
1000
0010
1000
0100
1000
0010
0100
0001
0010
0100
0010
0001
0100
0010
1000
,
0100
1000
0001
0100
0010
0100
0001
0010
0100
1000
0010
0100
0010
1000
0001
0010
,
0100
0010
0001
0100
0010
1000
0100
1000
0001
0100
0010
1000
0100
0010
0001
0100
,
0010
0100
0001
1000
0100
1000
0010
0100
0001
0010
0001
1000
0100
0010
0001
1000
,
0010
0100
0010
1000
0100
1000
0010
0100
0001
0010
0100
1000
0001
1000
0100
0010
,
0001
0100
0010
1000
0010
0100
0001
0010
0001
0100
0010
1000
0010
0100
0001
1000
,
0100
0010
0001
1000
0100
1000
0010
0100
0001
0010
0100
0010
0001
0010
0100
1000
,
0010
0100
0001
0010
0100
0010
0001
0010
0100
1000
0010
0100
0001
0010
0100
0010
,
0001
0100
0010
0100
0001
0010
0100
1000
0001
0100
0010
1000
0001
1000
0010
0100
,
0001
0010
0001
1000
0100
0010
0001
0100
0001
0010
0100
1000
0100
0010
0001
0010
,
0100
1000
0010
0100
0001
0010
0100
0010
0001
0100
0001
1000
0001
0100
0001
0010
,
0100
1000
0001
0100
0001
1000
0001
0100
0001
0010
0100
1000
0001
0100
0001
1000
,
0001
0010
0100
1000
0100
0010
0001
0100
0010
1000
0001
0100
0001
1000
0010
1000
,
0100
0010
0001
1000
0001
0010
0001
0100
0010
1000
0100
1000
0001
0010
0100
1000
,
0010
0100
0001
0100
0010
1000
0100
0010
0001
1000
0100
1000
0001
1000
0100
1000
,
0010
0100
0001
1000
0100
1000
0001
1000
0010
0100
0001
1000
0100
1000
0001
1000
,
0010
0100
0001
0010
0100
1000
0010
1000
0001
0100
0010
1000
0010
0100
0001
0010
,
0100
1000
0100
0010
0001
0100
0001
0010
0100
1000
0001
0010
0001
1000
0100
1000
,
0010
0100
0001
1000
0001
0100
0001
0010
0100
1000
0100
0010
0100
1000
0100
0010
,
0001
0100
0010
1000
0100
0010
0100
1000
0100
0010
0001
0100
0001
1000
0010
1000
,
0100
0010
0001
0100
0010
1000
0100
1000
0001
0100
0010
1000
0001
1000
0010
0100
,
0001
0010
0100
1000
0100
0010
0001
0100
0001
0010
0100
1000
0100
0010
0001
1000
,
0010
0100
0001
1000
0010
1000
0100
0010
0001
0100
0010
0100
0001
0100
0010
1000
,
0100
0010
0001
0100
0010
0100
0001
0100
0010
1000
0100
0010
0001
0100
0010
0100
,
0001
0010
0100
0010
0001
0100
0010
1000
0001
0010
0100
1000
0001
1000
0100
0010
,
0001
0100
0001
1000
0010
0100
0001
0010
0001
0100
0010
1000
0010
0100
0001
0100
,
0010
1000
0100
0010
0001
0100
0010
0100
0001
0010
0001
1000
0001
0010
0001
0100
,
0010
1000
0001
0010
0001
1000
0001
0010
0001
0100
0010
1000
0001
0010
0001
1000
,
0001
0100
0010
1000
0010
0100
0001
0010
0100
1000
0001
0010
0001
1000
0100
1000
,
0010
0100
0001
1000
0001
0100
0001
0010
0100
1000
0010
1000
0001
0100
0010
1000
,
0100
0010
0001
0010
0100
1000
0010
0100
0001
1000
0010
1000
0001
1000
0010
1000
,
0100
0010
0001
1000
0010
1000
0001
1000
0100
0010
0001
1000
0010
1000
0001
1000
,
0100
0010
0001
0100
0010
1000
0100
1000
0001
0100
0010
1000
0001
0010
0100
0010
,
0001
0100
0010
1000
0100
0010
0100
1000
0010
0100
0010
1000
0001
0100
0001
0010
,
0100
1000
0100
0010
0001
0100
0001
1000
0010
1000
0100
0010
0001
1000
0001
0010
,
0100
1000
0010
0100
0001
0100
0010
1000
0100
1000
0010
0100
0001
0010
0100
1000
,
0100
0010
0001
0100
0010
1000
0100
1000
0010
0100
0001
1000
0001
0100
0010
1000
,
0001
1000
0100
0010
0001
0100
0010
1000
0001
0100
0001
1000
0010
1000
0001
0100
,
0001
1000
0100
1000
0001
0010
0100
1000
0010
0100
0001
1000
0010
1000
0001
0100
,
0001
1000
0100
0010
0001
0100
0010
1000
0001
0100
0001
1000
0010
0100
0010
1000
,
0001
1000
0100
0010
0001
0100
0010
1000
0100
0010
0001
1000
0100
1000
0001
0010
,
0100
1000
0001
0100
0010
1000
0010
0100
0001
0010
0100
0010
0001
1000
0100
0010
,
0001
1000
0001
0100
0010
1000
0010
0100
0001
0010
0100
1000
0100
0010
0001
1000
,
0001
0100
0010
1000
0010
0100
0001
0010
0100
0010
0001
1000
0100
0010
0001
1000
,
0100
1000
0001
0100
0010
1000
0100
1000
0010
0100
0001
1000
0010
1000
0001
0100
,
0001
1000
0100
0010
0001
1000
0100
1000
0010
0100
0001
1000
0010
1000
0001
0100
,
0010
1000
0001
1000
0100
0010
0001
0100
0010
1000
0001
0100
0001
1000
0010
0100
,
0001
1000
0001
0010
0100
0010
0001
0100
0010
1000
0001
0100
0001
1000
0001
0100
,
0010
1000
0001
0010
0100
1000
0010
0100
0001
0010
0100
0010
0001
1000
0100
0010
,
0001
0100
0010
1000
0010
0100
0010
1000
0100
0010
0001
1000
0100
1000
0001
0010
,
0100
1000
0001
0100
0010
0100
0001
0010
0100
1000
0100
0010
0001
1000
0100
0010
,
0100
1000
0001
1000
0010
0100
0001
0010
0100
1000
0010
1000
0100
1000
0001
1000
,
0200
0000
0300
0000
0020
0000
0030
0000
0001
0100
0001
1000
0010
0100
0010
1000
,
0001
1000
0100
0010
0100
1000
0001
0010
0001
0100
0010
1000
0001
1000
0010
0100
,
0010
1000
0001
1000
0100
0010
0001
0100
0010
1000
0001
0100
0001
1000
0010
1000
,
0001
0100
0010
1000
0001
0010
0100
1000
0010
0100
0001
0100
0010
1000
0010
0100
,
0001
1000
0001
0010
0100
1000
0010
0100
0001
0010
0100
1000
0100
0010
0001
1000
,
0001
0010
0001
1000
0010
0100
0001
0010
0100
1000
0001
0010
0001
1000
0100
0010
,
0001
1000
0001
0100
0010
1000
0010
0100
0001
0010
0100
1000
0100
0010
0100
1000
,
0001
1000
0010
0100
0001
0100
0010
1000
0100
1000
0001
0010
0100
1000
0001
0010
,
0100
0010
0001
1000
0010
0100
0001
0010
0001
0100
0010
1000
0010
0100
0001
1000
,
0010
1000
0001
0010
0100
1000
0100
0010
0001
0100
0010
1000
0001
1000
0010
0100
,
0010
1000
0001
0010
0100
1000
0001
0010
0001
0100
0010
1000
0001
1000
0010
0100
,
0001
0100
0010
1000
0001
1000
0100
0010
0001
0100
0010
1000
0010
0100
0001
0100
,
0010
1000
0001
1000
0100
0010
0001
0100
0010
1000
0100
0010
0001
1000
0100
1000
,
0001
0010
0001
1000
0010
0100
0010
1000
0100
0010
0001
1000
0001
0010
0100
1000
,
0001
1000
0010
0100
0001
0100
0010
1000
0100
1000
0010
1000
0001
1000
0010
1000
,
0100
0010
0001
0100
0010
1000
0010
0100
0001
0010
0001
0100
0001
1000
0001
0100
,
0001
0010
0100
1000
0010
0100
0001
1000
0100
0010
0001
1000
0001
0010
0100
1000
,
0001
1000
0010
0100
0001
0010
0100
1000
0001
0010
0001
1000
0100
1000
0001
0010
,
0001
1000
0010
1000
0001
0100
0010
1000
0100
0010
0001
1000
0100
1000
0001
0010
,
0001
1000
0010
0100
0001
0010
0100
1000
0001
0010
0001
1000
0100
0010
0100
1000
,
0001
1000
0010
0100
0001
0010
0100
1000
0010
0100
0001
1000
0010
1000
0001
0100
,
0010
1000
0001
0010
0100
1000
0100
0010
0001
0100
0010
0100
0001
1000
0010
0100
,
0001
1000
0001
0010
0100
1000
0100
0010
0001
0100
0010
1000
0010
0100
0001
1000
,
0001
0010
0100
1000
0100
0010
0001
0100
0010
0100
0001
1000
0010
0100
0001
1000
,
0010
1000
0001
0010
0100
1000
0010
1000
0100
0010
0001
1000
0100
1000
0001
0010
,
0001
1000
0010
0100
0001
1000
0010
1000
0100
0010
0001
1000
0100
1000
0001
0010
,
0100
1000
0001
1000
0010
0100
0001
0010
0100
1000
0001
0010
0001
1000
0100
0010
,
0001
1000
0001
0100
0010
0100
0001
0010
0100
1000
0001
0010
0001
1000
0001
0010
,
0100
1000
0001
0100
0010
1000
0100
0010
0001
0100
0010
0100
0001
1000
0010
0100
,
0001
0010
0100
1000
0100
0010
0100
1000
0010
0100
0001
1000
0010
1000
0001
0100
,
0010
1000
0001
0010
0100
1000
0010
0100
0001
0010
0001
0100
0001
1000
0001
0100
,
0001
0010
0100
1000
0010
0100
0001
0010
0100
1000
0010
1000
0001
1000
0010
1000
,
0100
0010
0001
0100
0010
0100
0001
0010
0001
0100
0001
1000
0010
1000
0001
0100
,
0010
1000
0001
1000
0100
0010
0001
0100
0010
1000
0010
0100
0001
1000
0001
0100
,
0010
1000
0001
0010
0100
1000
0001
0010
0001
0100
0010
1000
0010
0100
0001
1000
,
0001
0010
0001
1000
0100
0010
0001
0100
0010
1000
0010
0100
0001
1000
0001
0010
,
0100
1000
0001
1000
0100
0010
0001
0100
0010
1000
0001
1000
0100
0010
0001
0010
,
0100
1000
0001
1000
0010
0100
0001
0010
0100
1000
0100
0010
0001
1000
0001
0010
,
0100
1000
0001
0100
0010
1000
0001
0100
0001
0010
0100
1000
0100
0010
0001
1000
,
0001
0100
0001
1000
0010
0100
0001
0010
0100
1000
0100
0010
0001
1000
0001
0100
,
0010
1000
0001
1000
0010
0100
0001
0010
0001
0100
0010
1000
0010
0100
0001
1000
,
0001
0010
0100
0010
0001
1000
0100
0010
0001
0100
0010
1000
0001
0100
0001
1000
,
0010
1000
0001
0010
0100
1000
0100
0010
0001
0100
0010
1000
0010
0100
0001
0100
,
0010
1000
0001
0010
0100
0010
0001
0100
0010
0100
0001
1000
0001
0100
0010
0100
,
0001
1000
0100
0010
0100
1000
0010
0100
0001
0010
0100
1000
0001
0010
0001
1000
,
0100
1000
0001
0100
0010
1000
0010
0100
0001
0010
0100
1000
0100
0010
0001
1000
,
0001
0100
0010
1000
0010
0100
0001
0010
0100
1000
0010
1000
0001
1000
0010
1000
,
0100
0010
0001
0100
0010
1000
0010
0100
0001
0010
0001
0100
0001
1000
0001
0100
,
0001
0010
0100
1000
0010
0100
0001
1000
0001
0000
0000
0000
0000
0000
0000
0000
;

//---------------dance-single - S. Walczak (v2 SM18+----------------
#NOTES:
     dance-single:
     S. Walczak (v2 SM18+:
     Medium:
     18:
     1.000,1.000,0.258,0.045,1.000,5078.000,121.000,21.000,45.000,0.000:
0000
0000
0000
0000
,
0000
0000
0000
0000
,
0000
0000
0000
0000
,
0000
0000
0000
0000
,
0000
0000
0000
0000
,
0000
0000
0000
0000
,
0000
0000
0000
0000
,
0000
0000
0000
0000
,
0000
0000
0000
0000
,
0000
0000
0000
0000
,
0000
0000
0000
0000
,
0000
0000
0000
0000
,
0000
0000
0000
0000
,
1000
1000
0001
0001
2000
0000
3000
0000
,
0001
0001
0100
0100
0002
0000
0003
0000
,
0100
0100
0010
0010
0200
0000
0300
0000
,
0010
0010
1000
1000
0020
0000
0030
0000
,
1000
1000
0001
0001
2000
0000
3000
0000
,
0100
0100
0010
0010
0200
0000
0300
0000
,
0010
0010
0001
0001
0020
0000
0030
0000
,
0001
0001
1000
1000
0002
0000
0003
0000
,
0100
0100
0010
0010
0200
0000
0300
0000
,
0010
0010
1000
1000
0020
0000
0030
0000
,
1000
1000
0001
0001
2000
0000
3000
0000
,
0100
0100
1000
1000
0200
0000
0300
0000
,
0010
0010
0001
0001
0020
0000
0030
0000
,
0001
0001
0100
0100
0002
0000
0003
0000
,
1000
1000
0100
0100
2000
0000
3000
0000
,
1001
1010
0101
1001
,
1100
0011
1001
0110
,
0101
1010
1001
1100
,
0011
1001
1100
0110
,
0011
1001
0101
1010
,
1001
0110
0101
1001
,
1100
0110
0011
1001
,
1010
0101
1001
1010
,
1001
0000
1000
0001
1000
0000
1001
0000
,
0101
0000
0100
0001
0100
0000
0101
0000
,
1010
0000
0010
1000
0010
0000
1010
0000
,
1001
0000
0001
1000
0001
0000
1001
0000
,
0011
0000
0010
0001
0010
0000
0011
0000
,
1100
0000
1000
0100
1000
0000
1100
0000
,
0110
0000
0010
0100
0010
0000
0011
0000
,
1001
0000
1000
0001
1000
0000
1001
0000
,
0001
1000
0010
1000
0001
1000
0100
1000
,
0010
0100
0001
0100
0010
1000
0100
0010
,
0001
1000
0001
0100
0001
1000
0001
0010
,
0001
0100
0010
1000
0100
0010
0001
1000
,
0010
1000
0001
1000
0100
1000
0010
0100
,
0001
1000
0010
0100
0001
0100
0010
1000
0100
0010
0001
0010
0100
1000
0001
0010
,
0001
0100
0010
1000
0010
0100
0001
0010
0100
1000
0001
1000
0100
0010
0001
1000
,
0001
0000
1000
0000
1000
0000
1000
0000
1000
0000
1000
0000
0001
0100
0010
1000
,
0100
1000
0010
0100
0001
1000
0001
0000
0010
0000
0100
0000
1000
0100
0010
0000
,
0001
0100
0010
1000
0010
0100
0001
0000
1000
0000
0100
0000
0010
0001
1000
0000
,
0010
0100
0001
0100
0010
1000
0001
0000
1000
0000
0100
0000
1000
0001
0010
0000
,
0001
1000
0010
0100
0001
1000
0001
0010
0100
1000
0001
0000
0100
0010
1000
0100
,
0010
0001
1000
0100
0010
0100
1000
0000
0001
0000
0100
0000
0010
1000
0001
0000
,
1000
0100
0010
0001
0010
0100
0010
0000
0001
0000
1000
0000
0010
0100
0001
0000
,
1000
0100
0010
0100
1000
0001
1000
0000
0001
0000
0100
0000
0010
1000
0001
0000
,
1000
0100
0010
0100
1000
0001
0100
0010
1000
0001
1000
0000
0100
0010
0001
0100
,
0010
1000
0001
0100
0001
1000
0010
0000
1000
0000
0100
0000
0010
0001
1000
0000
,
0001
0100
0010
1000
0010
0100
0001
0000
1000
0000
0100
0000
0010
0100
1000
0000
,
0001
0100
0001
1000
0010
0100
0001
0000
1000
0000
0100
0000
0010
0001
1000
0000
,
0001
0100
0010
1000
0010
0100
0001
1000
0001
0010
0100
0000
1000
0010
0100
0001
,
0010
0100
1000
0001
0010
0001
1000
0000
0001
0000
0100
0000
0010
1000
0001
0000
,
1000
0100
0010
0001
0010
0100
1000
0000
0001
0000
1000
0000
0001
1000
0010
0000
,
1000
0100
0010
0001
0010
0100
0010
0000
0001
0000
1000
0000
0010
0100
0001
0000
,
1000
0000
0000
0000
1000
0000
0000
0000
0001
0010
0000
0001
0100
0000
0100
0000
,
0001
1000
0100
0010
0001
1000
0001
0000
0100
0000
0010
0000
1000
0010
0100
0000
,
0001
0010
0100
1000
0100
0010
0001
0000
1000
0000
0010
0000
0100
0001
1000
0000
,
0100
0010
0001
0010
0100
1000
0001
0000
1000
0000
0010
0000
1000
0001
0100
0000
,
0001
1000
0100
0010
0001
1000
0001
0100
0010
1000
0001
0000
0010
0100
1000
0010
,
0100
0001
1000
0010
0100
0010
1000
0000
0001
0000
0010
0000
0100
1000
0001
0000
,
1000
0010
0100
0001
0100
0010
0100
0000
0001
0000
1000
0000
0100
0010
0001
0000
,
1000
0010
0100
0010
1000
0001
1000
0000
0001
0000
0010
0000
0100
1000
0001
0000
,
1000
0010
0100
0010
1000
0001
0010
0100
1000
0001
1000
0000
0010
0100
0001
0010
,
0100
1000
0001
0010
0001
1000
0100
0000
1000
0000
0010
0000
0100
0001
1000
0000
,
0001
0010
0100
1000
0100
0010
0001
0000
1000
0000
0010
0000
0100
0010
1000
0000
,
0001
0010
0001
1000
0100
0010
0001
0000
1000
0000
0010
0000
0100
0001
1000
0000
,
0001
0010
0100
1000
0100
0010
0001
1000
0001
0100
0010
0000
1000
0100
0010
0001
,
0100
0010
1000
0001
0100
0001
1000
0000
0001
0000
0010
0000
0100
1000
0001
0000
,
1000
0010
0100
0001
0100
0010
1000
0000
0001
0000
1000
0000
0001
1000
0100
0000
,
1000
0010
0100
0010
1000
0001
0100
0000
0001
0000
1000
0000
0100
0010
0001
0000
,
1000
0000
0000
0000
1000
0000
0000
0000
0001
0100
0000
0001
0010
0000
0010
0000
,
0100
1000
0001
0010
0001
1000
0100
0010
0001
0000
0100
0000
0001
0010
0100
0000
,
1000
0010
0100
0010
1000
0001
0100
0001
1000
0000
0100
0000
1000
0010
0100
0000
,
0001
0010
0100
1000
0100
0010
0001
1000
0001
0000
0100
0000
0001
0010
0100
0000
,
1000
0010
0100
0001
0100
0010
1000
0001
0010
0100
1000
0000
0001
0100
0010
1000
,
0100
0010
0001
1000
0100
1000
0001
0010
0001
0000
0100
0000
0001
0010
0100
0000
,
1000
0010
0100
0001
0100
0010
1000
0001
1000
0000
0100
0000
1000
0010
0100
0000
,
0001
0010
0100
1000
0001
0010
0100
0010
0001
0000
0100
0000
0001
0010
0100
0000
,
1000
0010
0100
0001
1000
0001
0010
0100
1000
0001
1000
0000
0010
0100
0001
0010
,
0100
1000
0100
0010
0001
1000
0100
1000
0001
0000
0100
0000
0001
0010
0100
0000
,
1000
0010
0100
0001
0100
0010
1000
0001
1000
0000
0100
0000
1000
0010
0100
0000
,
0001
1000
0100
0010
0100
1000
0001
0010
0001
0000
0100
0000
0001
0010
0100
0000
,
1000
0010
0100
0001
0100
0010
1000
0001
0010
0100
1000
0000
0001
0100
0010
1000
,
0100
0010
0001
0010
0100
1000
0001
0010
0001
0000
0100
0000
0001
0010
0100
0000
,
1000
0010
0100
0001
1000
0001
0100
0010
1000
0000
0100
0000
1000
0001
0100
0000
,
0001
0010
0100
1000
0100
0010
0100
1000
0001
0000
0100
0000
0001
0010
0100
0000
,
1000
0000
0000
0000
1000
0000
0000
0000
0010
0100
0000
0001
0010
0000
0010
0000
,
0001
0100
0010
1000
0010
0100
0001
1000
0001
0010
0100
0000
1000
0001
0100
0000
,
0001
0010
0100
1000
0001
1000
0100
0010
0001
1000
0010
0000
1000
0100
0010
0000
,
0001
1000
0010
1000
0001
0100
0001
1000
0100
0010
0001
0000
1000
0010
0100
0000
,
0001
0010
0100
1000
0001
1000
0100
0010
0001
1000
0010
0100
0001
1000
0010
1000
,
0100
0010
0001
1000
0100
1000
0001
1000
0010
0100
0001
0000
1000
0100
0010
0000
,
0001
1000
0010
0100
0001
1000
0001
0010
0100
1000
0001
0000
1000
0010
0100
0000
,
0001
0010
0100
1000
0001
1000
0100
0010
0001
1000
0010
0000
1000
0100
0010
0000
,
0001
0100
0010
1000
0001
1000
0010
1000
0001
0010
0100
1000
0100
0010
0001
0100
,
0010
1000
0001
0100
0001
1000
0010
1000
0001
0010
0100
0000
1000
0010
0100
0000
,
0001
0010
0100
1000
0100
0010
0001
1000
0010
0100
0010
0000
1000
0001
0010
0000
,
0001
0100
0010
1000
0010
0100
0001
1000
0001
0010
0100
0000
1000
0010
0100
0000
,
0001
1000
0100
1000
0001
0010
0001
1000
0010
0100
0001
1000
0001
0100
0010
1000
,
0100
0010
0001
1000
0001
0100
0010
0100
0001
1000
0001
0000
1000
0100
0010
0000
,
0001
0100
0010
1000
0010
0100
0001
1000
0100
0010
0100
0000
1000
0001
0100
0000
,
0202
0303
0000
0000
0000
0000
0000
0000
0000
0000
0000
0000
0000
0000
0000
0000
,
0000
0000
0000
0000
,
0000
0000
0000
0000
0000
0000
0000
0000
0001
0100
0001
1000
0010
0100
0001
0100
,
0010
1000
0001
1000
0100
0010
0001
0100
0010
1000
0010
0100
0001
1000
0001
0100
,
0010
1000
0001
0010
0100
1000
0001
0010
0001
0100
0010
1000
0010
0100
0001
1000
,
0001
0010
0001
1000
0100
0010
0001
0100
0010
1000
0010
0100
0001
1000
0001
0010
,
0100
1000
0001
1000
0100
0010
0001
0100
0010
1000
0001
1000
0100
0010
0001
0010
,
0100
1000
0001
1000
0010
0100
0001
0010
0100
1000
0100
0010
0001
1000
0001
0010
,
0100
1000
0001
0100
0010
1000
0001
0100
0001
0010
0100
1000
0100
0010
0001
1000
,
0001
0100
0001
1000
0010
0100
0001
0010
0100
1000
0100
0010
0001
1000
0001
0100
,
0010
1000
0001
1000
0010
0100
0001
0010
0001
0100
0010
1000
0010
0100
0001
1000
,
0001
0010
0100
0010
0001
1000
0100
0010
0001
0100
0010
1000
0001
0100
0001
1000
,
0010
1000
0001
0010
0100
1000
0100
0010
0001
0100
0010
1000
0010
0100
0001
0100
,
0010
1000
0001
0010
0100
0010
0001
0100
0010
0100
0001
1000
0001
0100
0010
0100
,
0001
1000
0100
0010
0100
1000
0010
0100
0001
0010
0100
1000
0001
0010
0001
1000
,
0100
1000
0001
0100
0010
1000
0010
0100
0001
0010
0100
1000
0100
0010
0001
1000
,
0001
0100
0010
1000
0010
0100
0001
0010
0100
1000
0001
1000
0100
0010
0001
1000
,
0001
0100
0010
1000
0010
0100
0001
0010
0100
1000
0010
1000
0100
1000
0001
1000
,
0200
0000
0300
0000
0020
0000
0030
0000
0001
1000
0010
1000
0001
0100
0010
1000
,
0001
1000
0100
0010
0100
1000
0001
0010
0001
0100
0010
1000
0001
1000
0010
0100
,
0010
1000
0001
1000
0100
0010
0001
0100
0010
1000
0001
0100
0001
1000
0010
1000
,
0001
0100
0010
1000
0001
0010
0100
1000
0010
0100
0001
0100
0010
1000
0010
0100
,
0001
1000
0001
0010
0100
1000
0010
0100
0001
0010
0100
1000
0100
0010
0001
1000
,
0001
0010
0001
1000
0010
0100
0001
0010
0100
1000
0001
0010
0001
1000
0100
0010
,
0001
1000
0001
0100
0010
1000
0010
0100
0001
0010
0100
1000
0100
0010
0100
1000
,
0001
1000
0010
0100
0001
0100
0010
1000
0100
1000
0001
0010
0100
1000
0001
0010
,
0100
0010
0001
1000
0010
0100
0001
0010
0001
0100
0010
1000
0010
0100
0001
1000
,
0010
1000
0001
0010
0100
1000
0100
0010
0001
0100
0010
1000
0001
1000
0010
0100
,
0010
1000
0001
0010
0100
1000
0001
0010
0001
0100
0010
1000
0001
1000
0010
0100
,
0001
0100
0010
1000
0001
1000
0100
0010
0001
0100
0010
1000
0010
0100
0001
0100
,
0010
1000
0001
1000
0100
0010
0001
0100
0010
1000
0100
0010
0001
1000
0100
1000
,
0001
0010
0001
1000
0010
0100
0010
1000
0100
0010
0001
1000
0001
0010
0100
1000
,
0001
1000
0010
0100
0001
0100
0010
1000
0100
0010
0001
0010
0100
1000
0001
0010
,
0001
1000
0010
1000
0001
0100
0010
1000
0100
1000
0010
1000
0001
1000
0010
0000
,
0100
0001
0010
0100
1000
0010
0100
0001
0010
0100
1000
0001
0010
0100
1000
0100
,
0010
0001
1000
0001
0100
0010
1000
0100
0010
0001
0010
0100
1000
0001
1000
0100
,
0010
0001
1000
0010
0100
0001
1000
0010
1000
0100
0010
0001
0010
0100
1000
0001
,
1000
0010
1000
0001
0100
0010
1000
0100
0010
0001
0010
0100
1000
0001
1000
0010
,
0100
0001
1000
0001
0100
0010
1000
0100
0010
0001
1000
0001
0100
0010
1000
0010
,
0100
0001
1000
0001
0010
0100
1000
0010
0100
0001
0100
0010
1000
0001
1000
0010
,
0100
0001
1000
0100
0010
0001
1000
0100
1000
0010
0100
0001
0100
0010
1000
0001
,
1000
0100
1000
0001
0010
0100
1000
0010
0100
0001
0100
0010
1000
0001
1000
0100
,
0010
0001
1000
0001
0010
0100
1000
0010
1000
0100
0010
0001
0010
0100
1000
0001
,
1000
0010
0100
0010
1000
0001
0100
0010
1000
0100
0010
0001
1000
0100
1000
0001
,
0010
0001
1000
0010
0100
0001
0100
0010
1000
0100
0010
0001
0010
0100
1000
0100
,
0010
0001
1000
0010
0100
0010
1000
0100
0010
0100
1000
0001
1000
0100
0010
0100
,
1000
0001
0100
0010
0100
0001
0010
0100
1000
0010
0100
0001
1000
0010
1000
0001
,
0100
0001
1000
0100
0010
0001
0010
0100
1000
0010
0100
0001
0100
0010
1000
0001
,
1000
0100
0010
0001
0010
0100
1000
0010
0100
0001
1000
0001
0100
0010
1000
0001
,
1000
0100
0010
0001
0010
0100
1000
0010
1000
0001
0010
0001
0100
0001
0010
0001
,
0100
0010
0100
0001
0010
0001
0100
0010
1000
0100
1000
0001
0010
0100
0010
0001
,
1000
0001
0100
0010
0100
0001
1000
0010
1000
0100
0010
0001
1000
0001
0010
0100
,
0010
0001
1000
0001
0100
0010
1000
0100
0010
0001
1000
0100
1000
0001
0010
0001
,
1000
0100
0010
0001
1000
0010
0100
0001
0010
0100
1000
0100
0010
0001
0010
0100
,
1000
0001
1000
0010
0100
0001
0010
0100
1000
0010
0100
0001
0100
0010
1000
0001
,
1000
0010
1000
0001
0010
0100
1000
0010
0100
0001
1000
0010
1000
0001
0100
0010
,
1000
0001
1000
0100
0010
0001
0010
0100
1000
0010
0100
0001
0100
0010
0100
0001
,
1000
0001
0010
0100
1000
0100
0010
0001
0100
0001
1000
0010
0100
0001
1000
0010
,
0100
0010
1000
0001
0010
0100
1000
0010
1000
0100
0010
0001
0010
0100
1000
0001
,
0010
0001
1000
0010
0100
0001
0100
0010
1000
0100
0010
0001
1000
0001
0010
0100
,
0010
0001
1000
0010
0100
0001
1000
0010
1000
0100
0010
0001
1000
0001
0010
0100
,
1000
0100
0010
0001
1000
0001
0100
0010
1000
0100
0010
0001
0010
0100
1000
0100
,
0010
0001
1000
0001
0100
0010
1000
0100
0010
0001
0100
0010
1000
0001
0100
0001
,
1000
0010
1000
0001
0010
0100
0010
0001
0100
0010
1000
0001
1000
0010
0100
0001
,
1000
0001
0010
0100
1000
0100
0010
0001
0100
0010
1000
0010
0100
0001
1000
0010
,
1000
0001
0010
0001
1000
0100
0010
0001
0100
0010
1000
0001
1000
0100
0010
0001
,
0100
0010
0100
0001
0010
0100
1000
0010
1000
0000
0001
0000
0100
0000
0010
0000
,
M000
0001
0100
0010
M000
0001
0100
0010
,
M000
0001
0100
0010
M000
0001
0100
0010
,
M000
0001
0100
0010
M000
0001
0100
0010
,
1000
0100
0010
0000
0010
0000
0010
0000
0001
0000
1000
0000
0100
0000
0010
0000
,
000M
1000
0100
0010
000M
1000
0100
0010
,
000M
1000
0100
0010
000M
1000
0100
0010
,
000M
1000
0100
0010
000M
1000
0100
0010
,
0001
0100
0010
0000
0010
0000
0010
0000
1000
0000
0001
0000
0010
0000
0100
0000
,
M000
0001
0010
0100
M000
0001
0010
0100
,
M000
0001
0010
0100
M000
0001
0010
0100
,
M000
0001
0010
0100
M000
0001
0010
0100
,
1000
0010
0100
0000
0100
0000
0100
0000
0001
0000
1000
0000
0010
0000
0100
0000
,
0001
1000
0001
0100
0010
1000
0010
0100
0001
1000
0100
0010
0001
1000
0001
0010
,
0100
1000
0001
0100
0010
0100
0001
1000
0001
0010
0100
1000
0001
1000
0100
0010
,
0001
1000
0010
0100
0001
0100
0010
1000
0001
0000
0010
0000
0001
0000
0001
0000
,
0001
0000
1000
0010
1000
0100
1000
0010
1000
0000
0001
0000
0010
0000
0100
0000
,
M100
0001
0010
0100
M100
0001
0010
0100
,
M100
0001
0010
0100
M100
0001
0010
0100
,
M100
0001
0010
0100
M100
0001
0010
0100
,
M100
0001
0010
0000
0001
0100
0010
1000
0100
0000
1000
0000
0010
0000
0100
0000
,
010M
1000
0010
0100
010M
1000
0010
0100
,
010M
1000
0010
0100
010M
1000
0010
0100
,
010M
1000
0010
0100
010M
1000
0010
0100
,
010M
1000
0010
0000
0100
0001
0010
0100
1000
0000
0001
0000
0010
0000
0100
0000
,
M100
0001
0010
0100
M100
0001
0010
0100
,
M100
0001
0010
0100
M100
0001
0010
0100
,
M100
0001
0010
0100
M100
0001
0010
0100
,
M100
0001
0010
0000
0001
0010
0100
1000
0010
0000
1000
0000
0100
0000
0010
0000
,
001M
1000
0100
0010
001M
1000
0100
0010
,
001M
1000
0100
0010
001M
1000
0100
0010
,
001M
1000
0100
0010
001M
0100
0010
0100
,
0010
1000
0001
0000
0001
0000
1000
0000
0001
0010
0100
1000
0010
0000
1000
0000
,
0100
0010
0001
0100
0001
0000
0010
0000
0100
0000
0000
0000
1000
0000
0000
0000
,
0001
0000
0000
0000
0100
0000
0000
0000
0001
0010
0100
1000
0010
0000
0100
0000
,
0001
0010
0100
1000
0010
0000
1000
0000
0001
0000
0001
0000
1000
0000
1000
0000
,
0001
0000
0001
0000
1000
0000
1000
0000
0010
0100
0001
0010
0100
0000
1000
0000
,
0100
0010
0001
0100
0010
0000
0100
0000
0010
0000
0000
0000
1000
0000
0000
0000
,
0001
0000
0000
0000
0010
0000
0000
0000
0100
0010
0001
0100
0010
0000
1000
0000
,
0100
1000
0010
0100
0001
0000
0010
0000
0001
0000
0001
0000
1000
0000
1000
0000
,
0001
0000
0001
0000
1000
0000
1000
0000
0010
0100
0001
0010
0100
0000
1000
0000
,
0100
0010
0001
0100
0001
0000
0010
0000
0001
0000
0000
0000
0100
0000
0000
0000
,
0001
0000
0000
0000
0010
0000
0000
0000
0100
0010
0001
0100
0010
0000
1000
0000
,
0010
1000
0100
0010
0001
0000
0100
0000
0010
0000
0010
0000
0100
0000
0100
0000
,
0010
0000
0010
0000
0100
0000
0100
0000
0010
0100
0001
0010
0100
0000
1000
0000
,
0010
0100
0001
0010
0100
0000
1000
0000
0100
0000
0000
0000
1000
0000
0000
0000
,
0010
0000
0000
0000
1000
0000
0000
0000
0001
0010
0001
0100
0010
0000
0100
0000
,
0010
1000
0100
0010
0001
0000
0100
0000
0010
0000
0010
0000
1000
0000
0001
0000
,
0000
0000
0000
0000
0001
0100
0010
0000
1000
0000
0100
0000
1000
0000
1000
0000
,
0001
0100
0000
0000
0000
0000
1001
0000
0000
0000
0000
0000
1100
0000
0000
0000
0000
0000
0000
0000
1000
0000
0000
0000
0001
0000
0000
0000
0001
0000
0000
0000
,
1000
0100
0000
0000
0000
0000
1001
0000
0000
0000
0000
0000
0101
0000
0000
0000
0000
0000
0000
0000
0001
0000
0000
0000
1000
0000
0000
0000
1000
0000
0000
0000
,
0001
0010
0000
0000
0000
0000
0110
0000
0000
0000
0000
0000
1100
0000
0000
0000
0000
0000
0000
0000
1000
0000
0000
0000
0001
0000
0000
0000
0001
0000
0000
0000
,
1000
0010
0000
0000
0000
0000
0110
0000
0000
0000
0000
0000
0101
0000
0000
0000
0001
0000
1000
0000
0010
0000
1000
0000
0001
0000
1000
0000
0010
0000
1000
0000
,
0001
0010
0100
0010
0001
0010
0100
0010
0001
0100
0010
0100
0001
0100
0010
0100
,
0001
1000
0100
1000
0001
1000
0100
1000
0010
0100
0010
1000
0010
0100
0010
1000
,
0100
0010
0100
1000
0100
0010
0100
1000
0010
0100
0001
0100
0010
0100
0001
0100
,
0010
1000
0001
1000
0100
1000
0001
1000
0010
0100
0001
1000
0010
0100
0010
1000
,
0100
0010
0001
0010
0100
1000
0001
0010
0001
0100
0010
1000
0001
1000
0010
0100
,
0001
0010
0100
0010
0001
1000
0100
0010
0001
0100
0010
1000
0001
0100
0001
1000
,
0100
0010
0001
1000
0001
0010
0100
1000
0010
0100
0001
0100
0010
1000
0010
0100
,
0001
0010
0100
1000
0100
0010
0001
1000
0010
0100
0001
0100
0010
1000
0100
0010
,
0001
1000
0001
0010
0100
1000
0010
0100
0001
0010
0001
1000
0010
0100
0010
1000
,
0100
0010
0001
1000
0001
0010
0100
1000
0010
0100
0001
0100
0010
1000
0100
0010
,
0100
1000
0001
0010
0001
0100
0010
1000
0100
1000
0010
0100
0010
1000
0001
0100
,
0001
0010
0100
1000
0010
0100
0001
0010
0100
1000
0010
1000
0001
0100
0001
0000
,
1000
0010
0000
0000
0000
0000
1001
0000
0000
0000
0000
0000
0011
0000
0000
0000
0001
0000
1000
0000
0100
0000
0010
0000
0001
0000
1000
0000
0001
0000
0000
0000
,
1000
0100
0000
0000
0000
0000
0110
0000
0000
0000
0000
0000
0011
0000
0000
0000
0001
0000
1000
0000
0010
0000
1000
0000
0001
0000
0100
0000
0001
0000
0000
0000
,
1000
0010
0000
0000
0000
0000
1001
0000
0000
0000
0000
0000
0011
0000
0000
0000
0001
0000
1000
0000
0100
0000
0010
0000
0100
0000
1000
0000
0001
0000
0000
0000
,
1000
0100
0000
0000
0000
0000
0110
0000
0000
0000
0000
0000
0011
0000
0000
0000
0001
0000
1000
0000
0010
0000
0100
0000
0001
0000
1000
0000
0001
0000
0000
0000
,
1000
0010
0000
0000
0000
0000
1001
0000
0000
0000
0000
0000
0011
0000
0000
0000
0001
0000
1000
0000
0100
0000
0010
0000
0100
0000
1000
0000
0001
0000
0000
0000
,
1000
0100
0000
0000
0000
0000
0110
0000
0000
0000
0000
0000
0011
0000
0000
0000
0001
0000
1000
0000
0010
0000
0100
0000
0010
0000
1000
0000
0001
0000
0000
0000
,
1000
0010
0000
0000
0000
0000
1001
0000
0000
0000
0000
0000
0011
0000
0000
0000
0001
0000
1000
0000
0100
0000
1000
0000
0001
0000
0010
0000
0001
0000
0000
0000
,
1000
0100
0000
0000
0000
0000
0110
0000
0000
0000
0000
0000
0011
0000
0000
0000
0001
0000
1000
0000
0010
0000
0100
0000
0001
0000
1000
0000
0001
0000
0000
0000
,
1000
0010
0000
0000
0000
0000
1001
0000
0000
0000
0000
0000
0011
0000
0000
0000
0001
0000
1000
0000
0100
0000
0010
0000
0100
0000
1000
0000
0001
0000
0000
0000
,
1000
0100
0000
0000
0000
0000
0110
0000
0000
0000
0000
0000
0011
0000
0000
0000
0001
0000
1000
0000
0010
0000
1000
0000
0001
0000
0100
0000
0001
0000
0000
0000
,
1000
0010
0000
0000
0000
0000
1001
0000
0000
0000
0000
0000
0011
0000
0000
0000
0001
0000
1000
0000
0100
0000
0010
0000
0100
0000
1000
0000
0001
0000
0000
0000
,
1000
0100
0000
0000
0000
0000
0110
0000
0000
0000
0000
0000
0011
0000
0000
0000
0001
0000
1000
0000
0010
0000
0100
0000
0010
0000
1000
0000
0001
0000
0000
0000
,
1000
0010
0000
0000
0000
0000
1001
0000
0000
0000
0000
0000
0011
0000
0000
0000
0001
0000
1000
0000
0100
0000
0010
0000
0001
0000
1000
0000
0001
0000
0000
0000
,
1000
0100
0000
0000
0000
0000
0110
0000
0000
0000
0000
0000
0011
0000
0000
0000
0001
0000
1000
0000
0001
0000
0000
0000
1000
0010
0000
0000
1000
0000
0000
0000
,
0001
0000
1000
0000
0001
0000
0000
0000
1000
0100
0000
0000
1000
0000
0000
0000
1001
0000
0000
0000
1000
0000
0000
0000
1010
0000
0000
0000
0010
0000
0000
0000
,
1010
0000
1000
0000
1001
0000
0001
0000
1000
0001
0010
0001
1000
0100
1000
0000
,
0001
0010
0000
0000
0000
0000
1001
0000
0000
0000
0000
0000
1010
0000
0000
0000
1000
0000
0001
0000
0100
0000
0010
0000
1000
0000
0001
0000
1000
0000
0000
0000
,
0001
0100
0000
0000
0000
0000
0110
0000
0000
0000
0000
0000
1010
0000
0000
0000
1000
0000
0001
0000
0010
0000
0001
0000
1000
0000
0100
0000
1000
0000
0000
0000
,
0001
0010
0000
0000
0000
0000
1001
0000
0000
0000
0000
0000
1010
0000
0000
0000
1000
0000
0001
0000
0100
0000
0010
0000
0100
0000
0001
0000
1000
0000
0000
0000
,
0001
0100
0000
0000
0000
0000
0110
0000
0000
0000
0000
0000
1010
0000
0000
0000
1000
0000
0001
0000
0010
0000
0100
0000
1000
0000
0001
0000
1000
0000
0000
0000
,
0001
0010
0000
0000
0000
0000
1001
0000
0000
0000
0000
0000
1010
0000
0000
0000
1000
0000
0001
0000
0100
0000
0010
0000
0100
0000
0001
0000
1000
0000
0000
0000
,
0001
0100
0000
0000
0000
0000
0110
0000
0000
0000
0000
0000
1010
0000
0000
0000
1000
0000
0001
0000
0010
0000
0100
0000
0010
0000
0001
0000
1000
0000
0000
0000
,
0001
0010
0000
0000
0000
0000
1001
0000
0000
0000
0000
0000
1010
0000
0000
0000
1000
0000
0001
0000
0100
0000
0001
0000
1000
0000
0010
0000
1000
0000
0000
0000
,
0001
0100
0000
0000
0000
0000
0110
0000
0000
0000
0000
0000
1010
0000
0000
0000
1000
0000
0001
0000
0010
0000
0100
0000
1000
0000
0001
0000
1000
0000
0000
0000
,
0001
0010
0000
0000
0000
0000
1001
0000
0000
0000
0000
0000
1010
0000
0000
0000
1000
0000
0001
0000
0100
0000
0010
0000
0100
0000
0001
0000
1000
0000
0000
0000
,
0001
0100
0000
0000
0000
0000
0110
0000
0000
0000
0000
0000
1010
0000
0000
0000
1000
0000
0001
0000
0010
0000
0001
0000
1000
0000
0100
0000
1000
0000
0000
0000
,
0001
0010
0000
0000
0000
0000
1001
0000
0000
0000
0000
0000
1010
0000
0000
0000
1000
0000
0001
0000
0100
0000
0010
0000
0100
0000
0001
0000
1000
0000
0000
0000
,
0001
0100
0000
0000
0000
0000
0110
0000
0000
0000
0000
0000
1010
0000
0000
0000
1000
0000
0001
0000
0010
0000
0100
0000
0010
0000
0001
0000
1000
0000
0000
0000
,
0001
0010
0000
0000
0000
0000
1001
0000
0000
0000
0000
0000
1010
0000
0000
0000
1000
0000
0001
0000
0100
0000
0010
0000
1000
0000
0001
0000
1000
0000
0000
0000
,
0001
0100
0000
0000
0000
0000
0110
0000
0000
0000
0000
0000
1010
0000
0000
0000
1000
0000
0001
0000
1000
0000
0000
0000
0001
0010
0000
0000
0001
0000
0000
0000
,
1000
0000
0001
0000
1000
0000
0000
0000
0001
0100
0000
0000
0001
0000
0000
0000
1001
0000
0000
0000
0001
0000
0000
0000
0011
0000
0000
0000
0010
0000
0000
0000
,
0011
0000
0001
0000
1001
0000
1000
0000
0010
0100
0010
1000
0001
1000
0010
0100
,
0001
0010
0100
1000
0001
1000
0100
0010
0001
0100
0010
1000
0010
0100
0001
0010
,
0100
1000
0001
1000
0100
0010
0100
1000
0010
0100
0001
0100
0010
1000
0001
0100
,
0001
0010
0100
1000
0100
0010
0001
0100
0010
1000
0001
1000
0010
0100
0001
0100
,
0010
1000
0100
0010
0001
0010
0100
1000
0010
0100
0001
0100
0010
1000
0010
0100
,
0001
0010
0100
1000
0100
0010
0001
0100
0001
1000
0010
0100
0010
1000
0001
1000
,
0010
0100
0001
0010
0100
1000
0001
0010
0001
0100
0010
1000
0001
0100
0001
1000
,
0010
0100
0001
0010
0100
0010
0001
0100
0010
1000
0010
0100
0010
1000
0001
0100
,
0001
0010
0100
0010
0001
1000
0100
0010
0001
0100
0010
1000
0010
0100
0001
1000
,
0010
1000
0100
0010
0001
0010
0100
1000
0010
0100
0010
1000
0001
0100
0001
0010
,
0100
1000
0001
1000
0100
0010
0001
0100
0001
1000
0010
0100
0001
0100
0010
1000
,
0100
0010
0100
1000
0001
0010
0100
1000
0010
0100
0001
1000
0010
1000
0001
0100
,
0001
0010
0100
1000
0100
0010
0001
0100
0010
0100
0001
1000
0010
1000
0001
0100
,
0001
0010
0100
1000
0001
0010
0001
0100
0010
1000
0010
0100
0001
1000
0001
0100
,
0010
0100
0001
0010
0001
1000
0100
0010
0001
1000
0010
1000
0001
1000
0010
1000
,
0100
0010
0001
0010
0100
0010
0001
0010
0100
1000
0010
0100
0001
1000
0100
0010
,
0001
1000
0010
0100
0001
0010
0001
0100
0010
1000
0100
0010
0001
1000
0100
1000
,
0010
0100
0001
1000
0100
0010
0001
0100
0001
0010
0100
1000
0001
0010
0001
0100
,
0010
1000
0010
0100
0001
0010
0001
0100
0010
1000
0100
0010
0001
1000
0100
1000
,
0010
1000
0001
0010
0001
0100
0001
0010
0100
1000
0001
0010
0100
0010
0001
0100
,
0010
1000
0001
0100
0001
0010
0001
0100
0010
1000
0100
0010
0001
1000
0100
1000
,
0010
0100
0010
1000
0100
0010
0001
0100
0010
1000
0100
0010
0100
1000
0001
0010
,
0001
0100
0010
1000
0100
1000
0010
0100
0001
0010
0100
1000
0001
1000
0100
0010
,
0100
1000
0010
0100
0001
0010
0001
0100
0001
1000
0100
0010
0001
1000
0100
1000
,
0010
0100
0001
0010
0100
1000
0010
0100
0001
0010
0100
0010
0001
1000
0100
0010
,
0001
0100
0010
1000
0100
0010
0001
0100
0001
0010
0100
0010
0001
0010
0100
1000
,
0010
1000
0001
0100
0010
1000
0100
1000
0010
1000
0100
0010
0001
1000
0100
1000
,
0010
0100
0001
0010
0001
0100
0001
1000
0100
1000
0001
0010
0100
1000
0100
0010
,
0001
1000
0010
1000
0100
1000
0010
0100
0001
0010
0100
0010
0001
0100
0010
1000
,
0100
1000
0001
0100
0010
0100
0001
0010
0100
1000
0010
0100
0010
1000
0001
0010
,
0100
0010
0001
0100
0010
1000
0100
1000
0001
0100
0010
1000
0100
0010
0001
0100
,
0010
0100
0001
1000
0100
1000
0010
0100
0001
0010
0001
1000
0100
0010
0001
1000
,
0010
0100
0010
1000
0100
1000
0010
0100
0001
0010
0100
1000
0001
1000
0100
0010
,
0001
0100
0010
1000
0010
0100
0001
0010
0001
0100
0010
1000
0010
0100
0001
1000
,
0100
0010
0001
1000
0100
1000
0010
0100
0001
0010
0100
0010
0001
0010
0100
1000
,
0010
0100
0001
0010
0100
0010
0001
0010
0100
1000
0010
0100
0001
0010
0100
0010
,
0001
0100
0010
0100
0001
0010
0100
1000
0001
0100
0010
1000
0001
1000
0010
0100
,
0001
0010
0001
1000
0100
0010
0001
0100
0001
0010
0100
1000
0100
0010
0001
0010
,
0100
1000
0010
0100
0001
0010
0100
0010
0001
0100
0001
1000
0001
0100
0001
0010
,
0100
1000
0001
0100
0001
1000
0001
0100
0001
0010
0100
1000
0001
0100
0001
1000
,
0001
0010
0100
1000
0100
0010
0001
0100
0010
1000
0001
0100
0001
1000
0010
1000
,
0100
0010
0001
1000
0001
0010
0001
0100
0010
1000
0100
1000
0001
0010
0100
1000
,
0010
0100
0001
0100
0010
1000
0100
0010
0001
1000
0100
1000
0001
1000
0100
1000
,
0010
0100
0001
1000
0100
1000
0001
1000
0010
0100
0001
1000
0100
1000
0001
1000
,
0010
0100
0001
0010
0100
1000
0010
1000
0001
0100
0010
1000
0010
0100
0001
0010
,
0100
1000
0100
0010
0001
0100
0001
0010
0100
1000
0001
0010
0001
1000
0100
1000
,
0010
0100
0001
1000
0001
0100
0001
0010
0100
1000
0100
0010
0100
1000
0100
0010
,
0001
0100
0010
1000
0100
0010
0100
1000
0100
0010
0001
0100
0001
1000
0010
1000
,
0100
0010
0001
0100
0010
1000
0100
1000
0001
0100
0010
1000
0001
1000
0010
0100
,
0001
0010
0100
1000
0100
0010
0001
0100
0001
0010
0100
1000
0100
0010
0001
1000
,
0010
0100
0001
1000
0010
1000
0100
0010
0001
0100
0010
0100
0001
0100
0010
1000
,
0100
0010
0001
0100
0010
0100
0001
0100
0010
1000
0100
0010
0001
0100
0010
0100
,
0001
0010
0100
0010
0001
0100
0010
1000
0001
0010
0100
1000
0001
1000
0100
0010
,
0001
0100
0001
1000
0010
0100
0001
0010
0001
0100
0010
1000
0010
0100
0001
0100
,
0010
1000
0100
0010
0001
0100
0010
0100
0001
0010
0001
1000
0001
0010
0001
0100
,
0010
1000
0001
0010
0001
1000
0001
0010
0001
0100
0010
1000
0001
0010
0001
1000
,
0001
0100
0010
1000
0010
0100
0001
0010
0100
1000
0001
0010
0001
1000
0100
1000
,
0010
0100
0001
1000
0001
0100
0001
0010
0100
1000
0010
1000
0001
0100
0010
1000
,
0100
0010
0001
0010
0100
1000
0010
0100
0001
1000
0010
1000
0001
1000
0010
1000
,
0100
0010
0001
1000
0010
1000
0001
1000
0100
0010
0001
1000
0010
1000
0001
1000
,
0100
0010
0001
0100
0010
1000
0100
1000
0001
0100
0010
1000
0001
0010
0100
0010
,
0001
0100
0010
1000
0100
0010
0100
1000
0010
0100
0010
1000
0001
0100
0001
0010
,
0100
1000
0100
0010
0001
0100
0001
1000
0010
1000
0100
0010
0001
1000
0001
0010
,
0100
1000
0010
0100
0001
0100
0010
1000
0100
1000
0010
0100
0001
0010
0100
1000
,
0100
0010
0001
0100
0010
1000
0100
1000
0010
0100
0001
1000
0001
0100
0010
1000
,
0001
1000
0100
0010
0001
0100
0010
1000
0001
0100
0001
1000
0010
1000
0001
0100
,
0001
1000
0100
1000
0001
0010
0100
1000
0010
0100
0001
1000
0010
1000
0001
0100
,
0001
1000
0100
0010
0001
0100
0010
1000
0001
0100
0001
1000
0010
0100
0010
1000
,
0001
1000
0100
0010
0001
0100
0010
1000
0100
0010
0001
1000
0100
1000
0001
0010
,
0100
1000
0001
0100
0010
1000
0010
0100
0001
0010
0100
0010
0001
1000
0100
0010
,
0001
1000
0001
0100
0010
1000
0010
0100
0001
0010
0100
1000
0100
0010
0001
1000
,
0001
0100
0010
1000
0010
0100
0001
0010
0100
0010
0001
1000
0100
0010
0001
1000
,
0100
1000
0001
0100
0010
1000
0100
1000
0010
0100
0001
1000
0010
1000
0001
0100
,
0001
1000
0100
0010
0001
1000
0100
1000
0010
0100
0001
1000
0010
1000
0001
0100
,
0010
1000
0001
1000
0100
0010
0001
0100
0010
1000
0001
0100
0001
1000
0010
0100
,
0001
1000
0001
0010
0100
0010
0001
0100
0010
1000
0001
0100
0001
1000
0001
0100
,
0010
1000
0001
0010
0100
1000
0010
0100
0001
0010
0100
0010
0001
1000
0100
0010
,
0001
0100
0010
1000
0010
0100
0010
1000
0100
0010
0001
1000
0100
1000
0001
0010
,
0100
1000
0001
0100
0010
0100
0001
0010
0100
1000
0100
0010
0001
1000
0100
0010
,
0100
1000
0001
1000
0010
0100
0001
0010
0100
1000
0010
1000
0100
1000
0001
1000
,
0200
0000
0300
0000
0020
0000
0030
0000
0001
0100
0001
1000
0010
0100
0010
1000
,
0001
1000
0100
0010
0100
1000
0001
0010
0001
0100
0010
1000
0001
1000
0010
0100
,
0010
1000
0001
1000
0100
0010
0001
0100
0010
1000
0001
0100
0001
1000
0010
1000
,
0001
0100
0010
1000
0001
0010
0100
1000
0010
0100
0001
0100
0010
1000
0010
0100
,
0001
1000
0001
0010
0100
1000
0010
0100
0001
0010
0100
1000
0100
0010
0001
1000
,
0001
0010
0001
1000
0010
0100
0001
0010
0100
1000
0001
0010
0001
1000
0100
0010
,
0001
1000
0001
0100
0010
1000
0010
0100
0001
0010
0100
1000
0100
0010
0100
1000
,
0001
1000
0010
0100
0001
0100
0010
1000
0100
1000
0001
0010
0100
1000
0001
0010
,
0100
0010
0001
1000
0010
0100
0001
0010
0001
0100
0010
1000
0010
0100
0001
1000
,
0010
1000
0001
0010
0100
1000
0100
0010
0001
0100
0010
1000
0001
1000
0010
0100
,
0010
1000
0001
0010
0100
1000
0001
0010
0001
0100
0010
1000
0001
1000
0010
0100
,
0001
0100
0010
1000
0001
1000
0100
0010
0001
0100
0010
1000
0010
0100
0001
0100
,
0010
1000
0001
1000
0100
0010
0001
0100
0010
1000
0100
0010
0001
1000
0100
1000
,
0001
0010
0001
1000
0010
0100
0010
1000
0100
0010
0001
1000
0001
0010
0100
1000
,
0001
1000
0010
0100
0001
0100
0010
1000
0100
1000
0010
1000
0001
1000
0010
1000
,
0100
0010
0001
0100
0010
1000
0010
0100
0001
0010
0001
0100
0001
1000
0001
0100
,
0001
0010
0100
1000
0010
0100
0001
1000
0100
0010
0001
1000
0001
0010
0100
1000
,
0001
1000
0010
0100
0001
0010
0100
1000
0001
0010
0001
1000
0100
1000
0001
0010
,
0001
1000
0010
1000
0001
0100
0010
1000
0100
0010
0001
1000
0100
1000
0001
0010
,
0001
1000
0010
0100
0001
0010
0100
1000
0001
0010
0001
1000
0100
0010
0100
1000
,
0001
1000
0010
0100
0001
0010
0100
1000
0010
0100
0001
1000
0010
1000
0001
0100
,
0010
1000
0001
0010
0100
1000
0100
0010
0001
0100
0010
0100
0001
1000
0010
0100
,
0001
1000
0001
0010
0100
1000
0100
0010
0001
0100
0010
1000
0010
0100
0001
1000
,
0001
0010
0100
1000
0100
0010
0001
0100
0010
0100
0001
1000
0010
0100
0001
1000
,
0010
1000
0001
0010
0100
1000
0010
1000
0100
0010
0001
1000
0100
1000
0001
0010
,
0001
1000
0010
0100
0001
1000
0010
1000
0100
0010
0001
1000
0100
1000
0001
0010
,
0100
1000
0001
1000
0010
0100
0001
0010
0100
1000
0001
0010
0001
1000
0100
0010
,
0001
1000
0001
0100
0010
0100
0001
0010
0100
1000
0001
0010
0001
1000
0001
0010
,
0100
1000
0001
0100
0010
1000
0100
0010
0001
0100
0010
0100
0001
1000
0010
0100
,
0001
0010
0100
1000
0100
0010
0100
1000
0010
0100
0001
1000
0010
1000
0001
0100
,
0010
1000
0001
0010
0100
1000
0010
0100
0001
0010
0001
0100
0001
1000
0001
0100
,
0001
0010
0100
1000
0010
0100
0001
0010
0100
1000
0010
1000
0001
1000
0010
1000
,
0100
0010
0001
0100
0010
0100
0001
0010
0001
0100
0001
1000
0010
1000
0001
0100
,
0010
1000
0001
1000
0100
0010
0001
0100
0010
1000
0010
0100
0001
1000
0001
0100
,
0010
1000
0001
0010
0100
1000
0001
0010
0001
0100
0010
1000
0010
0100
0001
1000
,
0001
0010
0001
1000
0100
0010
0001
0100
0010
1000
0010
0100
0001
1000
0001
0010
,
0100
1000
0001
1000
0100
0010
0001
0100
0010
1000
0001
1000
0100
0010
0001
0010
,
0100
1000
0001
1000
0010
0100
0001
0010
0100
1000
0100
0010
0001
1000
0001
0010
,
0100
1000
0001
0100
0010
1000
0001
0100
0001
0010
0100
1000
0100
0010
0001
1000
,
0001
0100
0001
1000
0010
0100
0001
0010
0100
1000
0100
0010
0001
1000
0001
0100
,
0010
1000
0001
1000
0010
0100
0001
0010
0001
0100
0010
1000
0010
0100
0001
1000
,
0001
0010
0100
0010
0001
1000
0100
0010
0001
0100
0010
1000
0001
0100
0001
1000
,
0010
1000
0001
0010
0100
1000
0100
0010
0001
0100
0010
1000
0010
0100
0001
0100
,
0010
1000
0001
0010
0100
0010
0001
0100
0010
0100
0001
1000
0001
0100
0010
0100
,
0001
1000
0100
0010
0100
1000
0010
0100
0001
0010
0100
1000
0001
0010
0001
1000
,
0100
1000
0001
0100
0010
1000
0010
0100
0001
0010
0100
1000
0100
0010
0001
1000
,
0001
0100
0010
1000
0010
0100
0001
0010
0100
1000
0010
1000
0001
1000
0010
1000
,
0100
0010
0001
0100
0010
1000
0010
0100
0001
0010
0001
0100
0001
1000
0001
0100
,
0001
0010
0100
1000
0010
0100
0001
1000
0001
0000
0000
0000
0000
0000
0000
0000
;
