#TITLE:Frozen Ray;
#SUBTITLE:(Original Mix);
#ARTIST:dj TAKA;
#TITLETRANSLIT:;
#SUBTITLETRANSLIT:;
#ARTISTTRANSLIT:;
#CREDIT:;
#BANNER:Frozen Ray (Original Mix)-BN.png;
#BACKGROUND:Frozen Ray (Original Mix)-BG.png;
#LYRICSPATH:;
#CDTITLE:!cattitle.png;
#MUSIC:Frozen Ray (Original Mix).ogg;
#OFFSET:-0.440;
#SAMPLESTART:98.660;
#SAMPLELENGTH:12.000;
#SELECTABLE:YES;
#BPMS:0.000=156.000,192.000=78.000,208.000=156.000;
#STOPS:;
#BGCHANGES:;
// cache tags:
#FIRSTBEAT:0.000;
#LASTBEAT:282.000;
#SONGFILENAME:Songs/Fresh Flock of Fantastic Files F4/(cat) Frozen Ray (Original Mix)/Frozen Ray (Original Mix).sm;
#HASMUSIC:1;
#HASBANNER:1;
#MUSICLENGTH:119.759;
// end cache tags

//---------------dance-single - ----------------
#NOTES:
     dance-single:
     :
     Challenge:
     12:
     1.000,1.000,1.000,0.017,0.618,660.000,226.000,2.000,0.000,0.000:  // measure 1
1001
0100
0010
0001
0010
1100
0010
0001
,  // measure 2
1010
0100
0010
0001
0000
0001
0010
0100
,  // measure 3
1010
1100
0100
0010
0000
0001
0000
0000
,  // measure 4
0000
0000
0001
0000
0010
0000
0100
0000
1010
0100
0001
0010
1100
0000
0100
0000
,  // measure 5
1001
0100
0010
0101
0000
0010
0100
0000
,  // measure 6
1010
0100
0011
0100
0000
1010
0000
0001
,  // measure 7
1010
0100
0010
0101
0010
0100
0000
0000
,  // measure 8
0001
0010
0100
1000
0101
0010
1100
0010
,  // measure 9
1001
0100
1010
0001
1000
0001
1100
0000
,  // measure 10
1010
0001
1010
0100
1000
0011
1010
1001
,  // measure 11
1010
0100
0110
0001
1000
0010
1000
0000
,  // measure 12
1010
0000
0000
0000
1000
0000
0001
0000
1010
0000
0000
0000
1001
0100
0000
0100
,  // measure 13
1010
0100
1010
0001
1000
0010
1000
0000
,  // measure 14
1001
0010
1100
0010
1000
0001
1000
1000
,  // measure 15
1010
0100
1010
0001
1000
0010
1000
0000
,  // measure 16
0010
0000
0000
0000
0000
0000
0000
0000
1010
0100
0010
0100
1010
0100
0010
0000
,  // measure 17
1100
0100
1010
0010
1000
0011
1010
0000
,  // measure 18
1100
0011
1010
0101
1000
0011
1010
1000
,  // measure 19
1001
0010
1010
0101
1000
0001
1100
0010
,  // measure 20
1000
0000
0000
0000
1000
0000
0001
0000
1010
0000
0001
0000
1010
0100
0010
0100
,  // measure 21
1010
0100
1010
0001
1100
0101
1010
0100
,  // measure 22
1100
0001
1001
0011
1000
0110
1000
1000
,  // measure 23
1010
0000
0100
0000
1100
0000
0011
0100
1010
0000
0001
0000
1000
0000
0001
0010
,  // measure 24
0100
0000
0001
0010
0100
0000
0010
0100
1001
0000
0010
0100
1010
0000
0100
1000
,  // measure 25
1010
0000
0100
0000
1010
0000
0001
0000
1001
0010
0100
1000
1001
0010
0100
1000
,  // measure 26
1010
0010
0100
0010
1010
0100
0001
0100
1010
0010
0001
0010
1001
0100
1010
0001
,  // measure 27
1000
0010
0000
0010
1001
0000
0000
0001
1000
0010
0100
0001
1010
0100
0001
0000
,  // measure 28
1000
0010
0000
0000
1001
0010
0100
1000
1010
0001
0010
0100
1010
0110
1000
0110
,  // measure 29
1000
0000
0010
0000
1010
0100
1000
0000
1010
0100
1000
0000
1010
0100
0001
0010
,  // measure 30
1001
0000
0001
0000
1001
0010
0100
1000
1001
0010
0100
1000
1001
0010
1100
0010
,  // measure 31
1000
0000
0000
0000
1010
0100
1000
0000
1000
0010
0000
0000
1010
0100
1000
0000
,  // measure 32
0010
0100
1001
0000
0110
0100
1010
0000
1010
0100
1001
0100
0011
0100
1010
0000
,  // measure 33
1000
0010
1100
0010
1000
0010
1100
0010
,  // measure 34
1000
0000
0010
0000
1010
0000
0100
0000
1000
0100
0010
0000
1100
0000
1100
0000
,  // measure 35
1000
0001
1010
0100
1000
0001
1010
0100
,  // measure 36
1000
0000
0001
0000
1010
0000
0100
0000
1000
0010
0001
0000
1001
0010
0100
0010
,  // measure 37
1000
0100
0010
0000
1010
0000
0100
0000
1000
0100
0010
0000
1010
0000
0100
0000
,  // measure 38
1000
0000
0010
0000
1010
0000
0001
0000
1000
0100
0010
0000
1010
0000
1001
0000
,  // measure 39
1000
0000
0010
0000
1010
0000
0001
0000
1000
0100
0010
0000
1010
0000
0001
0000
,  // measure 40
0000
0000
0100
0000
0010
0000
0001
0000
0100
1010
0101
1000
0101
1000
0101
0000
,  // measure 41
1000
0100
0010
0000
1010
0000
0001
0000
1000
0100
0010
0000
1010
0000
0001
0000
,  // measure 42
1000
0000
0100
0000
1010
0000
0001
0000
1000
0100
0010
0000
1010
0000
1001
0000
,  // measure 43
1000
0000
0010
0000
1010
0000
0001
0000
1000
0100
0010
0000
1010
0000
0001
0000
,  // measure 44
1000
0000
0100
0000
1010
0000
0001
0000
1000
0010
0100
0000
1010
0100
0001
0100
,  // measure 45
1000
0001
0010
0000
1010
0000
0100
0000
1000
0001
0100
0000
1010
0000
0100
0000
,  // measure 46
1000
0000
0001
0000
1010
0000
0100
0000
1000
0001
0100
0000
1010
0000
1100
0000
,  // measure 47
1000
0001
1010
0100
1000
0001
1010
0100
,  // measure 48
0001
0000
0010
0000
0100
0000
1000
0000
0101
1000
0101
1000
0110
1000
1010
0000
,  // measure 49
1001
0010
0100
0101
0000
1010
0001
0000
1010
0100
0011
0010
0100
0001
0100
0010
,  // measure 50
1100
0100
0010
0001
0010
0100
0000
0000
0100
0000
0000
0000
1010
0000
0010
0000
,  // measure 51
1001
0100
0010
1010
0000
0101
0010
0000
1001
0100
0010
0101
0000
0011
0100
0000
,  // measure 52
0101
0000
0010
0000
0100
0000
0010
0000
1010
0000
0100
0000
0010
0000
0100
0000
1010
0000
0010
0000
0100
0000
0010
0000
0101
1000
0010
1000
0101
0000
0110
0000
,  // measure 53
1010
0100
1010
0001
1000
0001
1000
0000
,  // measure 54
1010
0010
1001
0010
1000
0011
1100
1010
,  // measure 55
1100
0010
1100
0101
1001
0010
1000
0000
,  // measure 56
1010
0000
0000
0000
1000
0000
0001
0000
1010
0000
0000
0000
0101
0010
0000
0010
,  // measure 57
0101
0100
1010
0010
1000
0001
1000
0000
,  // measure 58
1100
0010
1010
0001
1000
0001
1010
0000
,  // measure 59
1010
0100
1010
0001
1000
0010
1000
0010
,  // measure 60
1010
0000
1000
0000
0100
0000
1010
0000
1000
0010
1000
0010
1001
0100
1000
0010
,  // measure 61
1010
0100
0001
0000
1010
0100
0001
0000
1010
0100
0001
0000
1010
0100
0001
0000
,  // measure 62
0101
0010
1000
0000
0101
0010
1000
0000
0101
0010
1000
0000
0101
0010
1100
0000
,  // measure 63
1010
0001
0100
0000
1010
0001
0100
0000
1010
0001
0100
0000
1010
0001
0100
0000
,  // measure 64
1010
0100
0001
0000
1010
0100
0001
0000
1010
0100
0001
0000
1010
0101
0010
1000
,  // measure 65
0101
1000
0010
0000
0101
1000
0010
0000
0101
1000
0010
0000
0101
1000
0010
0000
,  // measure 66
0101
0010
1000
0000
0101
0010
1000
0000
0101
0010
1000
0000
0101
1000
0101
0000
,  // measure 67
1001
0100
0010
0000
1001
0100
0010
0000
1001
0100
0010
0000
1001
0100
0010
0000
,  // measure 68
0001
0100
0010
0000
0001
0100
0010
0000
0110
1010
0101
1000
0110
1010
0101
0000
,  // measure 69
1000
0101
1000
0101
,  // measure 70
1000
0101
1000
0101
,  // measure 71
2002
0000
3003
0000
;

//---------------dance-single - ----------------
#NOTES:
     dance-single:
     :
     Hard:
     10:
     0.944,1.000,1.000,0.017,0.614,659.000,130.000,2.000,0.000,0.000:  // measure 1
1001
0100
0010
0001
0010
1100
0010
0001
,  // measure 2
1010
0100
0010
0001
0000
0001
0010
0100
,  // measure 3
1010
1100
0100
0010
0000
0001
0000
0000
,  // measure 4
0000
0000
0001
0000
0010
0000
0100
0000
1000
0100
0010
0001
1000
0000
0100
0000
,  // measure 5
1001
0100
0010
0101
0000
0010
0100
0000
,  // measure 6
1010
0100
0011
0100
0000
1010
0000
0001
,  // measure 7
1010
0100
0010
0101
0010
0100
0000
0000
,  // measure 8
0001
0010
0100
1000
0101
0010
1100
0010
,  // measure 9
1001
0100
1010
0001
1000
0001
1100
0000
,  // measure 10
1010
0001
1010
0100
1000
0011
1010
1001
,  // measure 11
1010
0100
0110
0001
1000
0010
1000
0000
,  // measure 12
1010
0000
0000
0000
1000
0000
0001
0000
1010
0000
0000
0000
1000
0100
0000
0100
,  // measure 13
1000
0100
1010
0001
1000
0010
1000
0000
,  // measure 14
1001
0010
1100
0010
1000
0001
1000
1000
,  // measure 15
1010
0100
1010
0001
1000
0010
1000
0000
,  // measure 16
0010
0000
0000
0000
0000
0000
0000
0000
0010
0100
0010
0100
0010
0100
0010
0000
,  // measure 17
1100
0100
1010
0010
1000
0011
1010
0000
,  // measure 18
1100
0011
1010
0101
1000
0011
1010
1000
,  // measure 19
1001
0010
1010
0101
1000
0001
1100
0010
,  // measure 20
1000
0000
0000
0000
1000
0000
0001
0000
1010
0000
0001
0000
0010
0100
0010
0100
,  // measure 21
0010
0100
1010
0001
1100
0101
1010
0100
,  // measure 22
1100
0001
1001
0011
1000
0110
1000
1000
,  // measure 23
1010
0000
0100
0000
1100
0000
0001
0010
0100
0000
0001
0000
1000
0000
0001
0010
,  // measure 24
0100
0000
0001
0010
0100
0000
0010
0100
1000
0000
0010
0100
1000
0000
0100
1000
,  // measure 25
0001
0000
0100
0000
1010
0000
0001
0000
0001
0010
0100
1000
0001
0100
0010
1000
,  // measure 26
0001
0010
0100
1000
0001
0010
1000
0010
0001
1000
0100
0010
0001
0010
0100
1000
,  // measure 27
0001
0010
0000
0010
0001
0000
0000
0001
1000
0010
0100
0001
1000
0100
0010
0000
,  // measure 28
1000
0010
0000
0000
0001
0010
0100
1000
0010
0100
0001
0100
0010
1000
0010
1000
,  // measure 29
0010
0000
0010
0000
1000
0100
0010
0000
1000
0100
0010
0000
1000
0100
0010
0001
,  // measure 30
1000
0000
0001
0000
0001
0100
0010
1000
0001
0010
0100
1000
0001
0100
0010
1000
,  // measure 31
0001
0000
0000
0000
0010
0100
1000
0000
1000
0010
0000
0000
0010
0100
1000
0000
,  // measure 32
0010
0100
1000
0000
0010
0100
1000
0000
0010
0100
0010
0100
0010
0100
0010
0000
,  // measure 33
1000
0010
1100
0010
1000
0010
1100
0010
,  // measure 34
1000
0000
0010
0000
1010
0000
0100
0000
1000
0100
0010
0000
1100
0000
1100
0000
,  // measure 35
1000
0001
1010
0100
1000
0001
1010
0100
,  // measure 36
1000
0000
0001
0000
1010
0000
0100
0000
1000
0010
0001
0000
1000
0010
0100
0010
,  // measure 37
1000
0100
0010
0000
1010
0000
0100
0000
1000
0100
0010
0000
1010
0000
0100
0000
,  // measure 38
1000
0000
0010
0000
1010
0000
0001
0000
1000
0100
0010
0000
1010
0000
1001
0000
,  // measure 39
1000
0000
0010
0000
1010
0000
0001
0000
1000
0100
0010
0000
1010
0000
0001
0000
,  // measure 40
0000
0000
0100
0000
0010
0000
0001
0000
0100
0010
0100
0010
0100
0010
0100
0000
,  // measure 41
1000
0100
0010
0000
1010
0000
0001
0000
1000
0100
0010
0000
1010
0000
0001
0000
,  // measure 42
1000
0000
0100
0000
1010
0000
0001
0000
1000
0100
0010
0000
1010
0000
1001
0000
,  // measure 43
1000
0000
0010
0000
1010
0000
0001
0000
1000
0100
0010
0000
1010
0000
0001
0000
,  // measure 44
1000
0000
0100
0000
1010
0000
0001
0000
1000
0010
0100
0000
1000
0100
0001
0100
,  // measure 45
1000
0001
0010
0000
1010
0000
0100
0000
1000
0001
0100
0000
1010
0000
0100
0000
,  // measure 46
1000
0000
0001
0000
1010
0000
0100
0000
1000
0001
0100
0000
1010
0000
1100
0000
,  // measure 47
1000
0001
1010
0100
1000
0001
1010
0100
,  // measure 48
0001
0000
0010
0000
0100
0000
1000
0000
0100
0010
0100
0010
0100
0010
0100
0000
,  // measure 49
1001
0010
0100
0101
0000
1010
0001
0000
1010
0100
0011
0010
0100
0001
0100
0010
,  // measure 50
1100
0100
0010
0001
0010
0100
0000
0000
0100
0000
0000
0000
1010
0000
0010
0000
,  // measure 51
1001
0100
0010
1010
0000
0101
0010
0000
1001
0100
0010
0101
0000
0011
0100
0000
,  // measure 52
0101
0000
0010
0000
0100
0000
0010
0000
1010
0000
0100
0000
0010
0000
0100
0000
1010
0000
0001
0000
0010
0000
0100
0000
0010
0100
0000
0100
0010
0000
0110
0000
,  // measure 53
1010
0100
1010
0001
1000
0001
1000
0000
,  // measure 54
1010
0010
1001
0010
1000
0011
1100
1010
,  // measure 55
1100
0010
1100
0101
1001
0010
1000
0000
,  // measure 56
1010
0000
0000
0000
1000
0000
0001
0000
1010
0000
0000
0000
0001
0010
0000
0010
,  // measure 57
0001
0100
1010
0010
1000
0001
1000
0000
,  // measure 58
1100
0010
1010
0001
1000
0001
1010
0000
,  // measure 59
1010
0100
1010
0001
1000
0010
1000
0010
,  // measure 60
1010
0000
1000
0000
0100
0000
1010
0000
1000
0010
1000
0010
1000
0100
1000
0010
,  // measure 61
1000
0100
0001
0000
1000
0100
0001
0000
1000
0100
0001
0000
1000
0100
0001
0000
,  // measure 62
0001
0010
1000
0000
0001
0010
1000
0000
0001
0010
1000
0000
0001
0010
1000
0000
,  // measure 63
1000
0001
0100
0000
1000
0001
0100
0000
1000
0001
0100
0000
1000
0001
0100
0000
,  // measure 64
0010
0100
0001
0000
0010
0100
0001
0000
0010
0100
0001
0000
0010
0100
0010
1000
,  // measure 65
0001
1000
0010
0000
0001
1000
0010
0000
0001
1000
0010
0000
0001
1000
0010
0000
,  // measure 66
0100
0010
1000
0000
0100
0010
1000
0000
0100
0010
1000
0000
0100
1000
0001
0000
,  // measure 67
1000
0100
0010
0000
1000
0100
0010
0000
1000
0100
0010
0000
1000
0100
0010
0000
,  // measure 68
0001
0100
0010
0000
0001
0100
0010
0000
0100
1000
0100
1000
0100
1000
0100
0000
,  // measure 69
1000
0101
1000
0101
,  // measure 70
1000
0101
1000
0101
,  // measure 71
2002
0000
3003
0000
;
