#TITLE:Enemy Storm;
#SUBTITLE:;
#ARTIST:Croove;
#TITLETRANSLIT:;
#SUBTITLETRANSLIT:;
#ARTISTTRANSLIT:;
#CREDIT:;
#BANNER:Enemy Storm.png;
#BACKGROUND:Enemy Storm-bg.png;
#LYRICSPATH:;
#CDTITLE:NVLM-cdtitle.png;
#MUSIC:Enemy Storm.mp3;
#OFFSET:-0.044;
#SAMPLESTART:12.655;
#SAMPLELENGTH:12.000;
#SELECTABLE:YES;
#BPMS:0.000=133.000;
#STOPS:;
#BGCHANGES:;
// cache tags:
#FIRSTBEAT:8.000;
#LASTBEAT:255.000;
#SONGFILENAME:Songs/toune 8/Enemy Storm/Enemy Storm.sm;
#HASMUSIC:1;
#HASBANNER:1;
#MUSICLENGTH:114.886;
// end cache tags

//---------------dance-single - ----------------
#NOTES:
     dance-single:
     :
     Hard:
     9:
     0.701,0.775,0.627,0.200,0.762,469.000,72.000,23.000,0.000,0.000:
0000
0000
0000
0000
,
0000
0000
0000
0000
,
1001
0000
0000
1000
0000
0000
1100
0000
0000
0000
0000
0000
0000
0000
0000
0000
,
0000
0000
0000
0000
0000
0110
0000
0000
,
0101
0000
0000
0001
0000
0000
1001
0000
0000
0000
0000
0000
0000
0000
0000
0000
,
0000
0000
0000
0000
0000
0000
0000
0000
0000
0000
0110
0000
0000
0110
0000
0000
,
1010
0000
0000
1000
0000
0000
1001
0000
0000
0000
0000
0000
0000
0000
0000
0000
,
0102
0000
0000
0000
1003
0100
1000
0000
0020
0000
0000
0000
0130
0000
0000
0000
,
0001
0000
0100
0001
0000
1000
0100
0000
0010
0001
0000
1000
0010
0000
0100
0000
,
0001
1000
0001
0000
1000
0100
0000
0001
0100
0000
1000
0010
0000
0100
0001
0000
,
0001
0000
1000
0100
0000
0010
0100
0000
1000
0001
0000
0001
0010
0000
0100
0000
,
1000
0010
1000
0000
0001
0100
0000
0100
0010
0000
1000
0100
1000
0000
0001
0000
,
0101
0000
0010
1000
0000
0100
1000
0000
0001
0010
0000
0001
0100
0000
0010
0000
,
1000
0001
1000
0000
0100
0010
0000
0001
0010
0000
0100
1000
0100
0000
1000
0000
,
0010
0000
0100
0001
0000
0001
1000
0000
0100
1000
0000
0010
0100
0000
0001
0000
,
1000
0100
0000
1000
0010
1000
0010
0000
0100
0000
0000
0000
0101
0000
0000
0000
,
0010
0100
0000
0001
0000
0000
1000
0100
0000
0010
0000
0000
1001
0000
1001
0000
,
0001
0100
0000
0100
0000
0000
0010
1000
0000
0100
0000
0000
0110
0000
0110
0000
,
0001
1000
0000
0100
0000
0000
1000
0010
0000
1000
0000
0000
0101
0000
0101
0000
,
0010
1000
0000
0100
0000
0000
1000
0001
0000
0100
0000
0000
0110
0000
0110
0000
,
0001
1000
0000
0001
0000
0000
0100
0010
0000
1000
0000
0000
1100
0000
1100
0000
,
0010
0001
0000
0001
0000
0000
0100
0010
0000
1000
0000
0000
1001
0000
1001
0000
,
0010
0100
0000
1000
0000
0000
0001
0100
0000
0010
0000
0000
1010
0000
1010
0000
,
2002
0000
0000
0000
3003
0000
0100
0100
,
0010
0001
0010
0001
0010
0001
0010
0002
0000
0000
1003
0000
1000
0000
0000
0000
,
0010
0100
0010
0100
0010
0100
0010
0200
0000
0000
0301
0000
0001
0000
0000
0000
,
1000
0100
1000
0100
1000
0100
1000
0200
0000
0000
0310
0000
0010
0000
0000
0000
,
0001
1000
0001
1000
0001
1000
0001
2000
0000
0000
3100
0000
0100
0000
0000
0000
,
0010
1000
0010
1000
0010
1000
0010
2000
0000
0000
3001
0000
0001
0000
0000
0000
,
0100
0010
0100
0010
1000
0010
1000
0002
0000
0000
0013
0000
0010
0000
0000
0000
,
0100
1000
0100
1000
0001
1000
0001
0200
0000
0000
0310
0000
0010
0000
0000
0000
,
1000
0001
1000
0001
0010
0001
0010
0200
0000
0000
1300
0000
1000
0000
0000
0000
,
1001
0000
0000
0000
0100
0000
0000
0000
0010
0000
0000
0010
0000
0000
0001
0000
,
0000
0000
0000
0000
0100
0000
0000
0010
0000
0000
0010
0001
0000
1000
0000
0000
,
1100
0000
0000
0000
0001
0000
0000
0000
0010
0000
0000
0010
0000
0000
0100
0000
,
0000
1000
0000
0000
0001
0000
0000
0001
0000
0000
0100
0000
0000
0010
0000
0000
,
1010
0000
0000
0000
1000
0000
0000
0000
0001
0000
0000
0001
0000
0000
0100
0000
,
0000
0010
0000
0000
0001
0000
0000
0001
0000
0000
0100
0000
0000
0010
0000
0000
,
1010
0000
0000
0000
1000
0000
0000
0000
0001
0000
0000
0100
0000
0000
0100
0000
,
0000
0010
0000
0000
1000
0000
0000
1000
0000
0000
0001
0000
0000
0010
0000
0000
,
0210
1300
0102
0013
,
2100
3010
0102
1003
,
2001
3100
0120
0031
,
0201
1300
1020
0031
,
1001
1100
0110
1010
,
1001
0101
1100
1010
,
0010
0010
0010
0010
0010
0010
0010
0010
,
1001
0000
0000
0000
1000
0100
1000
0000
0020
0000
0000
0000
0130
0000
0000
0000
,
0001
0000
1000
0100
0000
1000
0010
0000
0100
0001
0000
1000
0100
0000
0100
0000
,
0010
0000
0001
0100
0000
0010
1000
0000
0100
1000
0000
0001
0100
0000
0100
0000
,
0010
0000
1000
0100
0000
1000
0001
0000
0001
0100
0000
0010
1000
0000
1000
0000
,
0100
0000
0010
0001
0000
0010
1000
0000
0100
0001
0000
0100
0010
0000
0010
0000
,
0001
0000
1000
0010
0000
1000
0100
0000
0001
1000
0000
0001
0010
0000
0010
0000
,
0100
0000
1000
0010
0000
0100
0001
0000
0001
1000
0000
0100
1000
0000
1000
0000
,
0010
0000
0100
0001
0000
0010
0001
0000
1000
0100
0000
1000
0010
0000
0010
0000
,
0100
0000
0001
0010
0000
0100
1000
0000
0010
0001
0000
0010
0100
0000
0100
0000
,
1001
0000
0000
0101
0000
0000
0110
0000
0010
1000
0010
1000
0100
1000
0100
0000
,
1100
0000
0000
1001
0000
0000
0101
0000
0100
0010
0100
0010
1000
0100
1000
0000
,
1001
0000
0000
0011
0000
0000
0110
0000
0100
1000
0100
1000
0001
1000
0001
0000
,
0011
0000
0000
1010
0000
0000
1100
0000
0100
0010
0100
0010
0001
0010
0001
0000
,
0101
0000
0000
0110
0000
0000
0011
0000
1000
0001
1000
0001
0010
0001
0010
0000
,
0110
0000
0000
1100
0000
0000
1001
0000
0001
0100
0001
1000
0010
1000
0010
0000
,
1010
0000
0000
1100
0000
0000
0101
0000
0001
1000
0001
1000
0100
0010
0100
0000
,
0110
0000
0000
0011
0000
0000
0202
0000
0000
0000
0303
0000
0000
0000
0000
0000
;

//---------------dance-single - ----------------
#NOTES:
     dance-single:
     :
     Challenge:
     12:
     0.933,0.886,0.853,0.235,1.000,625.000,98.000,27.000,0.000,0.000:
0000
0000
0000
0000
,
0000
0000
0000
0000
,
1001
0000
0000
1010
0000
0000
0220
0000
0000
0000
0330
0000
0000
0000
0000
0000
,
1000
0200
0000
0000
0000
0000
0300
0000
0000
0000
0110
0000
0000
0011
0000
0000
,
0101
0000
0000
1001
0000
0000
2200
0000
0000
0000
3300
0000
0000
0000
0000
0000
,
0010
0002
0000
0000
0000
0000
0003
0000
0000
0000
0110
0000
0000
1100
0000
0000
,
1010
0000
0000
0110
0000
0000
0202
0000
0000
0000
0303
0000
0000
0000
0000
0000
,
0102
0000
0000
0000
1003
0100
1000
0000
1010
0000
0000
0000
1100
0000
0000
0000
,
0101
0000
0100
0001
0000
0001
0010
0000
0100
1000
0000
0100
0010
0000
0001
0100
,
0001
1000
0100
1000
0010
0100
0010
0100
0001
0010
0001
1000
0100
0010
0000
0010
,
0001
0000
0100
0010
0000
1000
0100
0000
0010
0001
0000
0001
0100
0000
0010
1000
,
0010
1000
0100
1000
0100
0010
0001
0100
0001
0100
0010
1000
0100
1000
0000
0001
,
0100
0000
0010
1000
0000
0100
1000
0000
0001
0010
0000
0010
0100
0000
1000
0010
,
1000
0100
1000
0100
0010
0001
0010
0001
0100
0001
1000
0100
1000
0010
0000
0100
,
0010
0000
1000
0001
0000
0001
0010
0000
0100
1000
0000
1000
0010
0000
0100
0001
,
1000
0100
1000
0100
0010
0001
0010
0001
0010
0100
1000
0100
2100
0000
0001
0000
,
3010
0100
0000
0001
0100
0000
1000
0100
0000
0010
0001
0000
1100
0000
1100
0000
,
1000
0010
0000
0100
0001
0000
0010
0100
0000
1000
0010
0000
0101
0000
0101
0000
,
0001
1000
0000
0100
1000
0000
0010
0100
0000
0001
0010
0000
1100
0000
1100
0000
,
1000
0010
0000
0100
0001
0000
0010
0100
0000
1000
0010
0000
1001
0000
1001
0000
,
0100
0010
0000
0010
1000
0000
0001
0010
0000
0100
1000
0000
0110
0000
0110
0000
,
0001
0100
0000
0010
1000
0000
0100
1000
0000
0001
0100
0000
1001
0000
1001
0000
,
0100
0010
0000
0001
1000
0000
0010
1000
0000
0100
1000
0000
0110
0000
0110
0000
,
2002
0000
0000
0000
3003
0000
1100
1100
,
0010
0001
0010
0001
0100
0001
0100
0002
0000
0000
1000
0000
1003
0000
1000
0000
,
0010
0100
0010
0100
0001
0010
0001
0020
0000
0000
0130
0000
0100
0000
0100
0000
,
1000
0010
1000
0010
0100
0001
0100
0002
0000
0000
0013
0000
0010
0000
0010
0000
,
0100
1000
0100
1000
0001
1000
0001
0200
0000
0000
0310
0000
0010
0000
0010
0000
,
1000
0100
1000
0100
0010
0001
0010
0002
0000
0000
0103
0000
0100
0000
0100
0000
,
0010
1000
0010
1000
0001
0010
0001
0020
0000
0000
0130
0000
0100
0000
0100
0000
,
1000
0010
1000
0010
0100
0001
0100
0002
0000
0000
0013
0000
0010
0000
0010
0000
,
0100
1000
0100
1000
0001
1000
0001
0200
0000
0000
0310
0000
0010
0000
0010
0000
,
2001
0000
0000
0000
3100
0010
0000
0000
0001
0100
0000
0010
1000
0000
0100
0010
,
0000
0001
0010
0000
0100
1000
0000
0010
0010
0000
0100
0001
0000
1000
0100
0000
,
1200
0000
0000
0000
0310
0010
0000
0000
0001
0100
0000
0010
1000
0000
0100
1000
,
0000
0100
0010
0000
0001
1000
0000
0100
0001
0000
0100
0010
0000
0001
1000
0000
,
1020
0000
0000
0000
0130
0100
0000
0000
0001
0010
0000
0100
0010
0000
1000
0100
,
0000
0010
0001
0000
0100
0010
0000
0001
0010
0000
0100
1000
0000
0010
0100
0000
,
0102
0000
0000
0000
1003
1000
0000
0000
0100
0010
0000
0001
1000
0000
0100
1000
,
0000
0010
0001
0000
0010
0100
0000
1000
0100
0000
0001
1000
0000
0010
0001
0000
,
0110
0000
1000
0100
1000
0100
1000
0000
0101
0000
0001
0010
0001
0010
0100
0000
,
1100
0000
1000
0010
0100
0001
0100
0000
0011
0000
0001
1000
0001
1000
0100
0000
,
0110
0000
0010
0001
0010
0100
0100
0000
1001
0000
1000
0010
1000
0010
0100
0000
,
0101
0000
0001
0010
0001
0010
0100
0000
1100
0000
1000
0010
1000
0001
0010
0000
,
1001
0010
1100
0001
0110
1000
0011
0100
,
1001
0010
0101
1000
0110
0001
1010
0100
,
0010
0001
0010
0001
0100
0010
0100
0010
1000
0100
1000
0100
0010
0001
0010
0001
,
1001
0000
0000
0000
1000
0100
1000
0000
1020
0000
0000
0000
0130
0100
0000
0000
,
1001
0000
1000
0100
0000
0010
0001
0000
0100
0010
0000
1000
1100
0000
1100
0000
,
0010
0001
0100
0001
0000
0010
1000
0000
0100
0001
0000
0010
0011
0000
0011
0000
,
0100
0010
1000
0100
0000
1000
0001
0000
0010
0100
0000
0010
1010
0000
1010
0000
,
0100
0001
0010
0100
0000
1000
1000
0000
0100
0001
0000
0100
0110
0000
0011
0000
,
0001
0100
0010
1000
0000
1000
0100
0000
0001
0100
0000
0001
0011
0000
0110
0000
,
1000
0100
1000
0010
0000
0100
0001
0000
0010
0001
0000
0100
1100
0000
1100
0000
,
0010
0100
0001
0010
0000
1000
0100
0000
0001
0100
0000
1000
1010
0000
1010
0000
,
0100
0001
0001
0010
0000
0100
1000
0000
0010
0001
0000
0010
0110
0000
1100
0000
,
1010
0000
0010
0110
0000
0000
0101
0000
0001
0010
0001
0010
0100
1000
0100
1000
,
1010
0000
0010
0110
0000
0000
0101
0000
1000
0100
1000
0100
0010
0001
0010
0001
,
0101
0000
0100
0110
0000
0000
1010
0000
0100
0001
0100
0001
1000
0100
1000
0100
,
0110
0000
0010
0011
0000
0000
0101
0000
0010
1000
0010
1000
0100
0010
0100
0010
,
0011
0000
0001
0101
0000
0000
0110
0000
1000
0001
1000
0001
0010
0100
0010
0100
,
1100
0000
1000
1010
0000
0000
0110
0000
0001
0010
0001
0010
0100
1000
0100
1000
,
1010
0000
0010
0110
0000
0000
0101
0000
0010
1000
0010
1000
0100
0010
0100
0010
,
0011
0000
0001
0101
0000
0000
0220
0000
0000
0000
0330
0000
0000
0000
0000
0000
;

//---------------dance-double - ----------------
#NOTES:
     dance-double:
     :
     Hard:
     9:
     0.676,0.748,0.653,0.261,0.596,439.000,75.000,30.000,0.000,0.000:
00000000
00000000
00000000
00000000
,
00000000
00000000
00000000
00000000
,
10010000
00000000
00000000
00011000
00000000
00000000
00000000
00000000
,
00000000
00000000
00000000
00000000
00000000
00000110
00000000
00000000
,
00011000
00000000
00000000
00110000
00000000
00000000
00000000
00000000
,
00000000
00000000
00000000
00000000
00000000
00000000
00000000
00000000
00000000
00000000
01100000
00000000
00000000
01010000
00000000
00000000
,
00110000
00000000
00000000
00101000
00000000
00000000
00011000
00000000
00000000
00000000
00000000
00000000
00000000
00000000
00000000
00000000
,
00002000
00000000
00000000
00000000
00013000
00010000
00000100
00000000
00001100
00000000
00000000
00000000
00101000
00000000
00000000
00000000
,
01000000
00000000
00010000
00100000
00000000
00001000
00100000
00000000
00010000
01000000
00000000
00100000
10000000
00000000
01000000
00000000
,
00100000
00010000
00001000
00000100
00000010
00000001
00000100
00000010
,
00010000
00000000
00001000
00100000
00000000
00010000
01000000
00000000
00010000
10000000
00000000
01000000
00100000
00000000
00010000
00000000
,
00001000
00000100
00000010
00000001
00000100
00000010
00010000
00001000
,
01000000
00000000
00100000
10000000
00000000
01000000
10000000
00000000
00010000
00100000
00000000
00001000
00100000
00000000
00010000
00000000
,
00001000
01000000
00100000
10000000
01000000
00010000
00001000
00000100
,
00000010
00000001
00000000
00001000
00000100
00000000
00001000
00000010
00000000
00010000
00001000
00000000
00100000
00000000
00010000
00000000
,
01000000
01000000
00000000
00000000
00100000
00100000
00000000
00000000
00010000
00000000
00001000
00000000
00001100
00000000
00000000
00000000
,
00000010
00000001
00000000
00000010
00000100
00000000
00001000
00010000
00000000
00100000
01000000
00000000
10000000
00000000
11000000
00000000
,
00100000
00010000
00000000
01000000
00001000
00000000
00010000
00000100
00000000
00001000
00000010
00000000
00000100
00000000
00000101
00000000
,
00000001
00000010
00000000
00000100
00001000
00000000
00000010
00010000
00000000
00001000
00100000
00000000
00010000
00000000
01010000
00000000
,
00100000
10000000
00000000
01000000
10000000
00000000
00010000
00100000
00000000
00001000
00010000
00000000
00000100
00000000
00000110
00000000
,
00000001
00001000
00000000
00000100
00000010
00000000
00000100
00001000
00000000
00010000
00010000
00000000
00100000
00000000
01100000
00000000
,
10000000
00010000
00000000
10000000
01000000
00000000
00100000
00010000
00000000
00010000
00001000
00000000
00000100
00000000
00000110
00000000
,
00000001
00001000
00000000
00000100
00001000
00000000
00010000
00010000
00000000
00100000
01000000
00000000
10000000
00000000
10010000
00000000
,
00220000
00000000
00330000
00000000
,
01000000
00010000
01000000
00010000
00100000
00001000
00100000
00002000
00000000
00000000
00000000
00000000
00013000
00000000
00000000
00000000
,
00000010
00001000
00000010
00001000
00000100
00010000
00000100
00020000
00000000
00000000
00000000
00000000
00031000
00000000
00000000
00000000
,
10000000
00010000
10000000
00010000
01000000
00001000
01000000
00002000
00000000
00000000
00000000
00000000
00013000
00000000
00000000
00000000
,
00000100
00001000
00000100
00001000
00000010
00010000
00000010
00020000
00000000
00000000
00000000
00000000
00130000
00000000
00000000
00000000
,
01000000
10000000
01000000
10000000
00010000
01000000
00010000
02000000
00000000
00000000
00000000
00000000
03001000
00000000
00000000
00000000
,
00100000
00010000
00100000
00010000
00001000
00000100
00001000
00000200
00000000
00000000
00000000
00000000
00000310
00000000
00000000
00000000
,
00000001
00001000
00000001
00001000
00000100
00010000
00000100
00020000
00000000
00000000
00000000
00000000
00031000
00000000
00000000
00000000
,
01000000
00010000
01000000
00010000
00100000
00001000
00100000
00002000
00000000
00000000
00000000
00000000
00013000
00000000
00000000
00000000
,
10010000
00000000
00000000
00000000
01000000
00000000
00000000
00000000
00100000
00000000
00000000
00001000
00000000
00000000
00010000
00000000
,
00000000
00000100
00000000
00000000
00001000
00000000
00000000
00010000
00000000
00000000
00100000
00000000
00000000
01000000
00000000
00000000
,
11000000
00000000
00000000
00000000
00010000
00000000
00000000
00000000
00001000
00000000
00000000
00000100
00000000
00000000
00000010
00000000
,
00000000
00000001
00000000
00000000
00001000
00000000
00000000
00000100
00000000
00000000
00010000
00000000
00000000
00001000
00000000
00000000
,
00101000
00000000
00000000
00000000
10000000
00000000
00000000
00000000
01000000
00000000
00000000
00010000
00000000
00000000
01000000
00000000
,
00000000
00100000
00000000
00000000
00010000
00000000
00000000
00001000
00000000
00000000
00000100
00000000
00000000
00000010
00000000
00000000
,
00000011
00000000
00000000
00000000
00000100
00000000
00000000
00000000
00001000
00000000
00000000
00010000
00000000
00000000
01000000
00000000
,
00000000
00100000
00000000
00000000
10000000
00000000
00000000
00100000
00000000
00000000
00010000
00000000
00000000
00001000
00000000
00000000
,
00001200
00000310
00002001
00013000
,
00210000
01300000
20010000
30100000
,
02100000
03001000
00012000
00003100
,
00000120
00000031
00002001
00003100
,
00001100
00011000
00110000
10100000
,
11000000
01010000
00011000
00001100
,
00000110
00000110
00001100
00001100
00011000
00011000
00110000
00110000
,
01100000
00000000
00000000
00000000
10000000
01000000
10000000
00000000
10020000
00000000
00000000
00000000
00130000
00100000
00000000
00000000
,
00001000
00000000
00010000
00000100
00000000
00010000
00000100
00000000
00000010
00000000
00000001
00000000
00002000
00000000
00003000
00000000
,
00000100
00000000
00010000
00001000
00000000
00001000
00100000
00000000
00010000
00000000
01000000
00000000
02000000
00000000
03000000
00000000
,
00100000
00000000
10000000
01000000
00000000
10000000
00010000
00000000
01000000
00000000
00001000
00000000
00020000
00000000
00030000
00000000
,
00000100
00000000
00001000
00000010
00000000
00001000
00000100
00000000
00010000
00000000
00001000
00000000
00200000
00000000
00300000
00000000
,
01000000
00000000
10000000
00100000
00000000
01000000
00010000
00000000
00100000
00000000
00001000
00000000
00020000
00000000
00030000
00000000
,
00000100
00000000
00000010
00000001
00000000
00000001
00001000
00000000
00000100
00000000
00010000
00000000
00002000
00000000
00003000
00000000
,
00100000
00000000
00010000
01000000
00000000
00100000
10000000
00000000
01000000
00000000
00100000
00000000
00020000
00000000
00030000
00000000
,
00001000
00000000
00000100
00000010
00000000
00000001
00000010
00000000
00000100
00000000
00001000
00000000
00020000
00000000
00030000
00000000
,
01100000
00000000
00000000
00110000
00000000
00000000
00011000
00000000
00001000
00000100
00001000
00000000
00010000
00001000
00010000
00000000
,
01010000
00000000
00000000
01100000
00000000
00000000
10100000
00000000
10000000
01000000
10000000
00000000
00010000
00100000
00010000
00000000
,
01010000
00000000
00000000
01001000
00000000
00000000
00011000
00000000
00010000
00000100
00010000
00000000
00000010
00001000
00000010
00000000
,
00000110
00000000
00000000
00000101
00000000
00000000
00001001
00000000
00001000
00000100
00001000
00000000
00000100
00010000
00000100
00000000
,
00001100
00000000
00000000
00011000
00000000
00000000
00110000
00000000
00010000
01000000
00010000
00000000
10000000
00100000
10000000
00000000
,
11000000
00000000
00000000
01100000
00000000
00000000
00110000
00000000
00100000
00001000
00100000
00000000
00001000
00010000
00001000
00000000
,
00011000
00000000
00000000
00010100
00000000
00000000
00001100
00000000
00001000
00000010
00001000
00000000
00000010
00010000
00000010
00000000
,
00010100
00000000
00000000
00011000
00000000
00000000
02020000
00000000
00000000
00000000
03030000
00000000
00000000
00000000
00000000
00000000
;

//---------------dance-double - ----------------
#NOTES:
     dance-double:
     :
     Challenge:
     12:
     0.925,0.914,0.862,0.209,1.000,621.000,99.000,24.000,0.000,0.000:
00000000
00000000
00000000
00000000
,
00000000
00000000
00000000
00000000
,
10010000
00000000
00010000
00110000
00000000
00000000
00022000
00000000
00000000
00000000
00000000
00000000
00033000
00000000
00000000
00000000
,
00000000
00000000
00000000
00000000
00000000
00000000
00000000
00000000
00000000
00000000
00000110
00000000
00000000
00001100
00000000
00000000
,
00011000
00000000
00010000
00110000
00000000
00000000
02200000
00000000
00000000
00000000
00000000
00000000
03300000
00000000
00000000
00000000
,
00000000
00000000
00000000
00000000
00000000
00000000
00000000
00000000
00000000
00000000
01100000
00000000
00000000
01010000
00000000
00000000
,
00110000
00000000
00100000
00101000
00000000
00000000
00022000
00000000
00000000
00000000
00000000
00000000
00033000
00000000
00000000
00000000
,
00102000
00000000
00000000
00000000
00013000
00010000
00000100
00000000
00001100
00000000
00000000
00000000
00101000
00000000
00000000
00000000
,
01010000
00000000
00010000
00100000
00000000
00001000
00100000
00000000
00010000
01000000
00000000
00100000
10000000
00100000
10000000
01000000
,
00100000
00010000
00001000
00000000
00001100
00000000
00000100
00000000
00000010
00000001
00000010
00000001
00000100
00000010
00000100
00000010
,
00010000
00000000
00001000
00100000
00000000
00010000
01000000
00000000
00010000
10000000
00000000
01000000
00100000
00010000
00100000
00010000
,
00001000
00000000
00000100
00000010
00000001
00000010
00000001
00000000
00001000
00000010
00001000
00000100
00010000
00001000
00010000
00000000
,
00001000
00000000
00100000
00010000
00000000
01000000
00100000
00000000
10000000
01000000
00000000
00100000
00010000
00100000
00010000
00001000
,
00000100
00000000
00000010
00000001
00000001
00000100
00000001
00000000
00001000
00000000
00010000
00001000
00010000
00001000
00000100
00000000
,
00000010
00000001
00000000
00001000
00000100
00000000
00001000
00000010
00000000
00010000
00001000
00000000
00100000
00010000
00100000
00100000
,
01000000
10000000
01000000
10000000
00100000
01000000
00100000
01000000
00010000
00100000
00001000
00010000
00001100
00000000
00000110
00000000
,
00000010
00000001
00000000
00000010
00000100
00000000
00001000
00010000
00000000
00100000
01000000
00000000
10010000
00000000
11000000
00000000
,
00100000
00010000
00000000
01000000
00001000
00000000
00010000
00000100
00000000
00001000
00000010
00000000
00001100
00000000
00000101
00000000
,
00000001
00000010
00000000
00000100
00001000
00000000
00000010
00010000
00000000
00001000
00100000
00000000
10010000
00000000
01010000
00000000
,
00100000
10000000
00000000
01000000
10000000
00000000
00010000
00100000
00000000
00001000
00010000
00000000
00001100
00000000
00000110
00000000
,
00000001
00001000
00000000
00000100
00000010
00000000
00000100
00001000
00000000
00010000
00010000
00000000
00110000
00000000
01100000
00000000
,
10000000
00010000
00000000
10000000
01000000
00000000
00100000
00010000
00000000
00010000
00001000
00000000
00001100
00000000
00000110
00000000
,
00000001
00001000
00000000
00000100
00001000
00000000
00010000
00010000
00000000
00100000
01000000
00000000
10100000
00000000
10010000
00000000
,
00220000
00000000
00000000
00000000
00330000
00000000
10010000
10010000
,
01000000
00010000
01000000
00010000
00100000
00001000
00100000
00002000
00000000
00000000
00000000
00000000
00013000
00000100
00010000
00000000
,
00000010
00001000
00000010
00001000
00000100
00010000
00000100
00020000
00000000
00000000
00000000
00000000
00031000
00100000
00001000
00000000
,
10000000
00010000
10000000
00010000
01000000
00001000
01000000
00002000
00000000
00000000
00000000
00000000
00013000
00000010
00010000
00000000
,
00000100
00001000
00000100
00001000
00000010
00010000
00000010
00020000
00000000
00000000
00000000
00000000
00031000
00100000
00001000
00000000
,
01000000
10000000
01000000
10000000
00010000
01000000
00010000
02000000
00000000
00000000
00000000
00000000
03001000
00010000
00001000
00000000
,
00100000
00010000
00100000
00010000
00001000
00000100
00001000
00000200
00000000
00000000
00000000
00000000
00000310
00000001
00000010
00000000
,
00000001
00001000
00000001
00001000
00000100
00010000
00000100
00020000
00000000
00000000
00000000
00000000
00031000
00100000
00001000
00000000
,
01000000
00010000
01000000
00010000
00100000
00001000
00100000
00002000
00000000
00000000
00000000
00000000
00013000
00100000
00010000
00000000
,
20010000
00000000
00000000
00000000
31000000
01000000
00000000
00000000
00100000
00010000
00000000
00001000
00010000
00000000
00010000
00001000
,
00000000
00000100
00000010
00000000
00001000
00000100
00000000
00010000
00000100
00000000
00100000
00001000
00000000
01000000
00010000
00000000
,
21000000
00000000
00000000
00000000
30010000
00010000
00000000
00000000
00001000
00010000
00000000
00000100
00001000
00000000
00000010
00000100
,
00000000
00000001
00000010
00000000
00001000
00000100
00000000
00000100
00010000
00000000
00010000
00000010
00000000
00001000
00010000
00000000
,
00102000
00000000
00000000
00000000
10003000
10000000
00000000
00000000
01000000
00100000
00000000
00010000
00001000
00000000
01000000
00100000
,
00000000
00100000
10000000
00000000
00010000
00100000
00000000
00001000
00010000
00000000
00000100
00001000
00000000
00000010
00000100
00000000
,
00000012
00000000
00000000
00000000
00000103
00000100
00000000
00000000
00001000
00000010
00000000
00010000
00001000
00000000
01000000
00010000
,
00000000
00100000
01000000
00000000
10000000
01000000
00000000
00100000
00010000
00000000
00010000
00001000
00000000
00001000
00000100
00000000
,
00000011
00000000
00000001
00000100
00000001
00000100
00001000
00000000
00001100
00000000
00000100
00010000
00000100
00010000
00001000
00000000
,
00101000
00000000
00010000
01000000
00010000
01000000
00100000
00000000
10100000
00000000
10000000
01000000
10000000
01000000
00100000
00000000
,
00110000
00000000
00010000
00001000
00010000
00001000
00000100
00000000
00000110
00000000
00000010
00000001
00000010
00000001
00001000
00000000
,
00001100
00000000
00000100
00010000
00000100
00010000
00001000
00000000
00101000
00000000
00010000
01000000
00010000
01000000
00100000
00000000
,
00011000
00101000
00011000
00010100
00001100
00011000
00110000
01100000
,
11000000
10100000
01010000
00110000
00011000
00001100
00000110
00000011
,
00000100
00000010
00000100
00000010
00001000
00000100
00001000
00000100
00010000
00001000
00010000
00001000
00100000
00010000
00100000
00010000
,
01100000
00000000
00000000
00000000
10000000
01000000
10000000
00000000
10020000
00000000
00000000
00000000
00130000
00100000
00000000
00000000
,
00001000
00000100
00010000
00000100
00000000
00010000
00000100
00000000
00000010
00000001
00000000
00000100
00000010
00000000
00001010
00000000
,
00000100
00010000
00001000
00010000
00000000
00001000
00100000
00000000
00010000
00100000
00000000
01000000
10000000
00000000
10010000
00000000
,
00100000
01000000
00001000
01000000
00000000
00100000
00010000
00000000
00001000
00000100
00000000
00000010
00000001
00000000
00001001
00000000
,
00000100
00000010
00000001
00000001
00000000
00001000
00000100
00000000
00010000
00001000
00000000
00100000
00100000
00000000
01100000
00000000
,
10000000
01000000
10000000
00100000
00000000
01000000
00010000
00000000
00100000
00001000
00000000
00010000
00000010
00000000
00001010
00000000
,
00000100
00001000
00000100
00000010
00000000
00000001
00001000
00000000
00000100
00010000
00000000
00001000
00100000
00000000
00110000
00000000
,
00010000
01000000
00100000
01000000
00000000
10000000
10000000
00000000
01000000
00100000
00000000
00010000
00001000
00000000
00001100
00000000
,
00000010
00000001
00000100
00000010
00000000
00001000
00000001
00000000
00000010
00000100
00000000
00001000
00010000
00000000
00110000
00000000
,
01100000
00000000
00010000
00110000
00000000
00000000
00011000
00000000
00001000
00000100
00001000
00000100
00010000
00001000
00010000
00001000
,
01010000
00000000
01000000
01100000
00000000
00000000
10100000
00000000
10000000
01000000
10000000
01000000
00100000
00010000
00100000
00010000
,
01010000
00000000
01000000
01001000
00000000
00000000
00011000
00000000
00010000
00000100
00010000
00000010
00000010
00001000
00000010
00000000
,
00000110
00000000
00000100
00000101
00000000
00000000
00001001
00000000
00001000
00000100
00001000
00000100
00000100
00010000
00000100
00010000
,
00001100
00000000
00010000
00011000
00000000
00000000
00110000
00000000
00010000
01000000
00010000
00010000
10000000
00100000
10000000
01000000
,
11000000
00000000
00010000
01010000
00000000
00000000
00110000
00000000
00100000
00001000
00100000
00001000
00001000
00010000
00001000
00100000
,
00011000
00000000
00010000
00010100
00000000
00000000
00001100
00000000
00001000
00000010
00001000
00001000
00000010
00010000
00000010
00010000
,
00010100
00000000
00001000
00011000
00000000
00000000
02020000
00000000
00000000
00000000
03030000
00000000
00000000
00000000
00000000
00000000
;

//---------------dance-single - ----------------
#NOTES:
     dance-single:
     :
     Edit:
     14:
     1.000,1.000,1.000,0.348,1.000,888.000,179.000,40.000,0.000,15.000:
0000
0000
0000
0000
,
0000
0000
0000
0000
,
1101
0000
0001
0111
0000
0000
2202
0000
0000
0000
0000
0000
3303
0000
0000
0000
,
0010
1000
0001
0010
0100
0001
1000
0100
0010
0001
0111
0000
0000
1011
0000
0000
,
1101
0000
1000
1011
0000
0000
0222
0000
0000
0000
0333
0000
0000
0000
0000
0000
,
1000
0100
0010
0001
0100
1000
0010
0100
0001
1000
0111
0000
0000
1101
0000
0000
,
1110
0000
0010
0111
0000
0000
2202
0000
0000
0000
3303
0000
0000
0000
0000
0000
,
0012
0010
0000
0000
0103
0100
0100
0000
1010
2020
3030
0000
0011
0022
0033
0000
,
1001
0100
0010
0001
0100
1000
0100
0010
1000
0001
0010
0010
0100
0001
1000
0100
,
0110
0001
0100
1000
0100
0010
1000
0001
0100
0010
0010
0001
0100
0010
1000
0100
,
0101
1000
0010
0100
0001
1000
0001
0001
0010
0100
0001
1000
0100
0010
0001
0100
,
0110
1000
1000
0100
0010
0001
0100
1000
0100
0010
1000
0001
0001
0100
0010
1000
,
1100
0001
0100
0010
1000
0001
0010
0100
0001
1000
0100
0001
0100
0010
1000
0100
,
0110
0001
0010
0100
0001
1000
0100
0001
0100
0010
1000
0100
0100
0010
1000
0001
,
0011
0100
0001
1000
0100
0001
0100
0010
1000
0100
0001
0100
0010
0001
0100
0010
,
1001
1000
0100
0010
0001
0100
1000
0100
0010
1000
0100
0010
1001
0000
1001
0000
,
1100
0010
0001
0100
0010
1000
0100
0001
0010
0100
1000
0001
0110
0110
0110
1000
,
0001
0100
0010
0001
0010
0100
0001
1000
0100
0001
0100
0010
1001
1001
1001
0100
,
0010
1000
0001
0010
0100
0001
1000
0100
0010
1000
0001
0010
1100
1100
1100
0001
,
0100
0010
0100
1000
0010
0001
0100
0010
1000
0100
0001
0010
1100
1100
1100
0001
,
1000
0010
0100
0001
0010
1000
0100
0010
0001
0100
1000
0100
0011
0011
0011
1000
,
0001
0100
0010
0001
0100
1000
0100
0010
1000
0001
0010
0100
1001
1001
1001
0100
,
0010
0001
0010
0100
0001
1000
0100
0001
0100
0010
1000
0100
0011
0011
0011
0100
,
2222
0000
0000
0000
0000
0000
0000
0000
3333
0000
0000
0000
1100
1100
1100
0000
,
0010
0001
0100
0010
0001
0100
0010
0002
0000
0000
1000
0100
1003
0010
0001
0001
,
0010
0100
1000
0010
0001
0100
1000
0020
0000
0000
0130
0001
0010
0010
0100
1000
,
1000
0100
1000
0010
0001
1000
0100
0002
0000
0000
0013
0100
1000
0001
0010
0001
,
0100
1000
1000
0010
0001
1000
0010
0200
0000
0000
0310
0001
0100
1000
0001
0010
,
1000
0100
0001
0100
0010
1000
0010
0002
0000
0000
0103
0010
0010
1000
0100
0001
,
0010
1000
0100
1000
0001
0010
0100
0002
0000
0000
0103
0010
0001
1000
0100
0001
,
0010
0100
1000
0010
0001
0100
0100
0002
0000
0000
0013
1000
0100
0001
0010
0010
,
0100
1000
0100
0010
0001
1000
0100
0020
0000
0000
0031
0100
0010
0001
0010
0100
,
2001
0100
3010
0001
0010
0100
0001
1000
0100
0010
0001
0100
0010
1000
0110
0000
,
0002
0010
0103
1000
0010
0100
0001
1000
0100
0010
0001
0100
0010
1000
1100
0000
,
0120
0001
0130
1000
0001
0100
0010
0001
0100
0010
1000
0100
0010
0001
0101
0000
,
1000
0020
0100
1030
0100
0001
0010
0100
0001
1000
1000
0100
0010
0001
0101
0000
,
1200
0010
1300
0001
0010
0100
0001
1000
0100
0010
0001
0100
0010
1000
1100
0000
,
0002
0010
0103
1000
0010
0100
0001
1000
0100
0001
0010
0100
0001
1000
1100
0000
,
0210
0001
0310
1000
0100
0001
0100
0010
1000
0100
0001
0010
0100
1000
1010
0000
,
0100
0002
0100
1003
0010
0100
0001
0010
0100
0001
1000
0100
0010
0001
0101
0000
,
1001
0100
0010
0001
0100
1000
0100
0010
1001
0100
0010
1000
0001
0010
0100
1000
,
1010
0100
0001
0100
0010
0001
0100
0010
1001
0100
0010
1000
0001
0010
0100
0001
,
0110
1000
0001
0100
0010
0001
0100
0010
1001
0100
1000
0010
0100
0001
0010
0100
,
1001
0100
0010
0001
0100
1000
0100
0010
1001
0100
1000
0010
0100
0001
0010
0100
,
1001
0100
0010
0001
0101
0100
0010
1000
1100
0010
0001
0100
0110
1000
0001
0010
,
0110
1000
0001
0100
1100
0010
0001
0100
0101
1000
0010
0100
1100
0001
1000
0100
,
0011
1100
0011
1100
0011
1100
0011
1100
0011
1100
0011
1100
0011
1100
0011
1100
,
1002
0010
0000
0000
1003
0100
1100
0000
1020
1000
0000
0000
0130
0200
0300
0000
,
1001
0010
0100
0001
1000
0100
0010
0001
0100
0010
1000
0100
0011
0011
0011
1000
,
0001
0010
0100
0001
1000
0100
0010
1000
0001
0010
0100
1000
0110
0110
0110
0001
,
1000
0010
0100
1000
0100
0010
0001
0100
0010
1000
0001
0010
1100
1100
1100
0010
,
0001
0100
0010
1000
0100
0001
0010
1000
0001
0100
0010
0100
1001
1001
1001
0010
,
0100
0001
1000
0100
0001
0100
0010
1000
0001
0010
0100
1000
0011
0011
0011
0100
,
0001
1000
0100
0010
0001
0100
1000
0100
0010
1000
0100
0001
0110
0110
0110
1000
,
0001
0010
0100
0001
1000
0100
0010
1000
0001
0010
1000
0001
0110
0110
0110
0001
,
1000
0001
0100
0010
0001
0100
1000
0100
0010
1000
0001
0010
1100
1100
1100
0010
,
1001
0010
0010
1001
0100
0100
1001
0010
0110
1000
0100
0010
1001
1001
1001
0100
,
0011
1000
1000
0110
0001
0001
1100
0010
0110
0001
0100
0010
1001
1001
1001
0100
,
0011
1000
1000
0110
0001
0001
1100
0010
0110
1000
0001
0100
1010
1010
1010
0001
,
1100
0010
0010
1100
0001
0001
0110
1000
1001
0100
0010
0001
1100
1100
1100
0010
,
1001
0100
0100
0011
1000
1000
0110
0001
0101
1000
0010
0100
1001
1001
1001
0100
,
0011
1000
1000
0110
0001
0001
1100
0010
1010
0001
0100
0010
1001
1001
1001
0100
,
0110
0001
0001
1100
0010
0010
1001
0100
0110
1000
0001
0010
1100
1100
1100
0001
,
0110
1000
1000
0101
0010
0010
1001
0222
0000
0000
0000
0000
0333
0000
0000
0000
;

//---------------dance-single - ----------------
#NOTES:
     dance-single:
     :
     Medium:
     8:
     0.505,0.498,0.400,0.218,0.261,335.000,46.000,25.000,0.000,0.000:
0000
0000
0000
0000
,
0000
0000
0000
0000
,
1001
0000
0000
0110
0000
0000
0000
0000
,
0000
0000
0000
0000
0000
0110
0000
0000
,
0101
0000
0000
1001
0000
0000
0000
0000
,
0000
0000
0000
0000
0000
0110
0000
0000
,
1001
0000
0000
0101
0000
0000
0000
0000
,
0200
0000
0000
0000
0310
0001
0010
0000
0002
0000
0000
0000
2003
0000
0000
0000
,
3010
0000
0000
0010
0000
0000
0100
0000
0001
0000
1000
0000
0100
0000
0010
0000
,
0001
1000
0000
0001
1000
0000
0010
0000
0100
0000
0000
0000
0100
0000
0000
0000
,
0010
0000
0000
1000
0000
0000
1000
0000
0001
0000
0100
0000
0010
0000
0010
0000
,
1000
0100
0000
1000
0100
0000
0010
0000
0001
0000
0000
0000
0001
0000
0000
0000
,
0100
0000
0000
0100
0000
0000
0010
0000
1000
0000
0100
0000
0010
0000
0001
0000
,
1000
0010
0000
1000
0010
0000
0100
0000
0001
0000
0000
0000
0001
0000
0000
0000
,
0010
0000
0000
0010
0000
0000
0100
0000
1000
0000
0010
0000
1000
0000
0001
0000
,
0100
0010
0000
0100
0010
0000
1000
0000
1100
0000
0000
0000
0101
0000
0000
0000
,
0001
0000
0000
0001
0000
0000
0010
0000
0000
0100
0000
0000
1000
0000
1000
0000
,
0010
0000
0000
0100
0000
0000
0001
0000
0000
0001
0000
0000
1000
0000
0100
0000
,
0010
0000
0000
0010
0000
0000
0001
0000
0000
0100
0000
0000
0010
0000
0010
0000
,
1000
0000
0000
1000
0000
0000
0001
0000
0000
0010
0000
0000
0100
0000
0100
0000
,
1000
0000
0000
1000
0000
0000
0010
0000
0000
0010
0000
0000
0100
0000
0100
0000
,
0001
0000
0000
0001
0000
0000
0010
0000
0000
0100
0000
0000
1000
0000
1000
0000
,
0010
0000
0000
0100
0000
0000
0001
0000
0000
1000
0000
0000
0100
0000
0100
0000
,
2002
0000
3003
1100
,
0010
0001
0010
0000
0001
0000
0002
0000
0000
0000
0000
0000
1003
0000
0000
0000
,
0010
0100
0010
0000
0100
0000
0200
0000
0000
0000
0000
0000
0301
0000
0000
0000
,
1000
0100
1000
0000
0100
0000
0200
0000
0000
0000
0000
0000
0310
0000
0000
0000
,
1000
0001
1000
0000
0001
0000
0002
0000
0000
0000
0000
0000
0013
0000
0000
0000
,
0100
1000
0100
0000
1000
0000
2000
0000
0000
0000
0000
0000
3010
0000
0000
0000
,
0100
0001
0100
0000
0001
0000
0002
0000
0000
0000
0000
0000
0013
0000
0000
0000
,
0100
1000
0100
0000
1000
0000
2000
0000
0000
0000
0000
0000
3010
0000
0000
0000
,
0100
0001
0100
0000
0001
0000
0002
0000
0000
0000
0000
0000
0013
0000
0000
0000
,
1001
0100
0010
0001
,
0100
0000
0010
0000
1000
0110
0001
0000
,
1001
0100
0010
1000
,
0001
0000
0010
0000
0100
1001
0010
0000
,
1010
1000
0001
0010
,
0100
0000
1000
0000
0010
1001
0100
0000
,
1010
1000
0001
0010
,
0100
1000
0010
0010
,
1002
0013
2100
3010
,
0102
0013
2100
3001
,
0021
0130
2100
3001
,
0201
1300
1020
0031
,
1001
1100
0110
0011
,
1001
0101
1100
1010
,
0010
0100
0010
0100
0010
0100
0010
0100
,
1002
0000
0000
0000
1003
0100
1000
0000
0020
0000
0000
0000
0130
0000
0000
0000
,
1000
0000
0000
1000
0000
0000
0001
0000
0000
0001
0000
0000
0100
0000
0100
0000
,
0010
0000
0000
0010
0000
0000
1000
0000
0000
0001
0000
0000
1000
0000
0100
0000
,
0010
0000
0000
0001
0000
0000
0010
0000
0000
0100
0000
0000
1000
0000
0001
0000
,
1000
0000
0000
0010
0000
0000
0100
0000
0000
0001
0000
0000
0010
0000
0100
0000
,
1000
0000
0000
1000
0000
0000
0010
0000
0000
0100
0000
0000
0001
0000
0001
0000
,
0010
0000
0000
0100
0000
0000
1000
0000
0000
0010
0000
0000
0100
0000
0001
0000
,
0100
0000
0000
0100
0000
0000
0010
0000
0000
1000
0000
0000
0100
0000
0100
0000
,
0010
0000
0000
0010
0000
0000
0001
0000
0000
0100
0000
0000
0010
0000
1000
0000
,
1001
0000
0000
0001
0000
0000
0001
0000
0010
0000
0100
0000
1000
0000
1000
0000
,
0110
0000
0000
0010
0000
0000
0100
0000
0001
0000
0010
0000
0100
0000
1000
0000
,
1010
0000
0000
0010
0000
0000
0100
0000
0001
0000
1000
0000
0100
0000
0010
0000
,
0011
0000
0000
0001
0000
0000
0100
0000
0010
0000
1000
0000
0001
0000
0010
0000
,
0110
0000
0000
0100
0000
0000
0100
0000
1000
0000
0010
0000
0100
0000
0001
0000
,
0011
0000
0000
0010
0000
0000
0100
0000
1000
0000
0010
0000
0100
0000
0001
0000
,
0011
0000
0000
0010
0000
0000
0100
0000
1000
0000
0010
0000
0100
0000
0001
0000
,
0101
0000
0000
0110
0000
0000
2020
0000
0000
0000
3030
0000
0000
0000
0000
0000
;

//---------------dance-single - ----------------
#NOTES:
     dance-single:
     :
     Easy:
     7:
     0.487,0.692,0.496,0.418,0.187,287.000,57.000,48.000,0.000,0.000:
0000
0000
0000
0000
,
0000
0000
0000
0000
,
1001
0000
0000
1100
0000
0000
0000
0000
,
0000
0000
0000
0000
0000
0110
0000
0000
,
0101
0000
0000
1001
0000
0000
0000
0000
,
0000
0000
0000
0000
0000
0000
0000
0000
0000
0000
0110
0000
0000
0101
0000
0000
,
1001
0000
0000
0101
0000
0000
0000
0000
,
2001
3100
0220
0330
,
1000
0000
0000
1000
0000
0000
0010
0000
0100
0000
0000
0000
0001
0000
0000
0000
,
0010
0100
1000
0000
0100
0000
0001
0000
,
1000
0000
0000
1000
0000
0000
0010
0000
0100
0000
0000
0000
0001
0000
0000
0000
,
1000
1000
0100
0000
0010
0000
0001
0000
,
1000
0000
0000
1000
0000
0000
0100
0000
0010
0000
0000
0000
0001
0000
0000
0000
,
1000
0010
1000
0000
0100
0000
0001
0000
,
0010
0000
0000
0010
0000
0000
0100
0000
1000
0000
0000
0000
0001
0000
0000
0000
,
0200
0310
1100
1001
,
0010
0000
0000
0010
0000
0000
0100
0000
0000
1000
0000
0000
1000
0000
0001
0000
,
0100
0000
0000
0010
0000
0000
1000
0000
0000
1000
0000
0000
0001
0000
0001
0000
,
0010
0000
0000
0100
0000
0000
1000
0000
0000
1000
0000
0000
0010
0000
0100
0000
,
0001
0000
0000
0001
0000
0000
1000
0000
0000
0100
0000
0000
0010
0000
0010
0000
,
0001
0000
0000
0001
0000
0000
0100
0000
0000
0010
0000
0000
1000
0000
1000
0000
,
0100
0000
0000
0100
0000
0000
0010
0000
0000
0001
0000
0000
0100
0000
0100
0000
,
0010
0000
0000
0010
0000
0000
1000
0000
0000
0001
0000
0000
0010
0000
0100
0000
,
2002
0000
3003
1100
,
1000
0010
0100
0002
0000
0000
0013
0000
,
0100
1000
0010
0200
0000
0000
0301
0000
,
1000
0100
0001
0200
0000
0000
0310
0000
,
0001
1000
0100
2000
0000
0000
3010
0000
,
0100
0001
1000
0200
0000
0000
0310
0000
,
0001
1000
0100
0020
0000
0000
0031
0000
,
0100
0010
1000
0200
0000
0000
0310
0000
,
0001
0100
0010
2000
0000
0000
3100
0000
,
1001
0100
0010
0001
,
0100
0000
0010
0000
1000
2002
3003
0000
,
0110
0100
1000
0010
,
0100
0000
0001
0000
0100
0220
0330
0000
,
1010
1000
0001
0010
,
0100
0000
1000
0000
0010
0220
0330
0000
,
1001
1000
0100
0010
,
0001
1000
0100
0010
,
0022
0033
0202
0303
,
0220
0330
2020
3030
,
2200
3300
0202
0303
,
2002
3003
2200
3300
,
1001
1100
0110
0011
,
1001
0101
0110
1010
,
0110
0110
0110
0110
0110
0110
0110
0110
,
1002
0103
0220
0330
,
1000
0000
0000
1000
0000
0000
0010
0000
0000
0100
0000
0000
0001
0000
0001
0000
,
0010
0000
0000
0100
0000
0000
1000
0000
0000
1000
0000
0000
0010
0000
0100
0000
,
0001
0000
0000
1000
0000
0000
0001
0000
0000
0001
0000
0000
0010
0000
0100
0000
,
1000
0000
0000
1000
0000
0000
0010
0000
0000
0010
0000
0000
0100
0000
0100
0000
,
0001
0000
0000
0001
0000
0000
0010
0000
0000
0100
0000
0000
1000
0000
1000
0000
,
0010
0000
0000
0100
0000
0000
0001
0000
0000
0001
0000
0000
1000
0000
0100
0000
,
0010
0000
0000
0010
0000
0000
0001
0000
0000
0100
0000
0000
0010
0000
1000
0000
,
0100
0000
0000
0100
0000
0000
0010
0000
0000
0001
0000
0000
1000
0000
1000
0000
,
1001
0000
0000
0001
0000
0000
0002
0000
0000
0000
0103
0000
0010
0000
1000
0000
,
1100
0000
0000
0100
0000
0000
0200
0000
0000
0000
0310
0000
0001
0000
1000
0000
,
1010
0000
0000
0010
0000
0000
0020
0000
0000
0000
1030
0000
0100
0000
0010
0000
,
0011
0000
0000
0001
0000
0000
0002
0000
0000
0000
0013
0000
0100
0000
1000
0000
,
1001
0000
0000
0001
0000
0000
0002
0000
0000
0000
0103
0000
0010
0000
1000
0000
,
1100
0000
0000
0100
0000
0000
0200
0000
0000
0000
0310
0000
0001
0000
1000
0000
,
1010
0000
0000
0010
0000
0000
0200
0000
0000
0000
0310
0000
0001
0000
1000
0000
,
1100
0000
0000
0100
0000
0000
0220
0000
0000
0000
0330
0000
0000
0000
0000
0000
;
