#TITLE:Tori no Uta;
#SUBTITLE:(The Speed Freak's Noise Rave Remix);
#ARTIST:DJ Sharpnel;
#TITLETRANSLIT:;
#SUBTITLETRANSLIT:;
#ARTISTTRANSLIT:;
#CREDIT:;
#BANNER:tori no noise rave bn.png;
#BACKGROUND:tori no noise rave bg.png;
#LYRICSPATH:;
#CDTITLE:;
#MUSIC:Torinouta (Noise-Rave Remix).ogg;
#OFFSET:0.009;
#SAMPLESTART:114.667;
#SAMPLELENGTH:21.332;
#SELECTABLE:YES;
#DISPLAYBPM:180.000;
#BPMS:0.000=180.000;
#STOPS:;
#BGCHANGES:;
// cache tags:
#FIRSTBEAT:48.000;
#LASTBEAT:996.000;
#SONGFILENAME:Songs/SHARPNELSTREAMZ v2/Tori no Uta (Noise Rave Remix)/Torinouta (Noise-Rave Remix).sm;
#HASMUSIC:1;
#HASBANNER:1;
#MUSICLENGTH:333.333;
// end cache tags

//---------------dance-single - 14+ (Aoreo)----------------
#NOTES:
     dance-single:
     14+ (Aoreo):
     Challenge:
     14:
     1.000,1.000,0.132,0.165,1.000,2450.000,44.000,55.000,24.000,0.000:
0000
0000
0000
0000
,
0000
0000
0000
0000
,
0000
0000
0000
0000
,
0000
0000
0000
0000
,
0000
0000
0000
0000
,
0000
0000
0000
0000
,
0000
0000
0000
0000
,
0000
0000
0000
0000
,
0000
0000
0000
0000
,
0000
0000
0000
0000
,
0000
0000
0000
0000
,
0000
0000
0000
0000
,
0001
0000
0000
0000
0000
0000
1000
0000
0100
0000
1000
0000
0100
0000
0000
0000
0000
0000
0010
0000
0000
0000
0000
0000
0001
0000
0000
0000
0000
0000
0400
0000
0000
0300
0000
0000
0010
0000
0000
0000
0000
0000
1000
0000
0000
0000
0000
0000
,
0001
0000
0000
0000
0000
0000
0100
0000
0001
0000
0100
0000
0001
0000
0000
0000
0000
0000
0010
0000
0000
0000
0000
0000
0100
0000
0000
0000
0000
0000
4000
0000
0000
3000
0000
0000
0100
0000
0000
0000
0000
0000
0100
0000
0000
0000
0000
0000
,
0010
0000
0000
0000
0000
0000
0001
0000
1000
0000
0001
0000
1000
0000
0000
0000
0000
0000
0010
0000
0000
0000
0000
0000
0100
0000
0000
0000
0000
0000
0004
0000
0000
0003
0000
0000
1000
0000
0000
0000
0000
0000
0100
0000
0000
0000
0000
0000
,
1000
0000
0000
0000
0000
0000
0000
0000
0000
0000
0000
0000
0000
0000
0000
0000
0000
0000
0000
0000
0000
0000
0000
0000
0001
0000
0000
0000
0000
0000
0000
0000
0100
0000
0000
0000
0000
0000
0000
0000
0001
0000
0000
0000
0000
0000
0000
0000
1000
0000
0000
0000
0000
0000
0000
0000
0000
0000
0000
0000
0000
0000
0000
0000
0000
0000
0000
0000
0000
0000
0000
0000
0010
0000
0000
0000
0000
0000
0000
0000
0000
0000
0000
0000
0000
0000
0000
0000
0000
0000
0000
0000
0000
0000
0000
0000
0200
0000
0000
0000
0000
0000
0300
0000
0000
0000
0000
0000
0000
0000
0000
0000
0000
0000
0000
0000
0000
0000
0000
0000
0004
0000
0000
0000
0000
0000
0000
0000
0000
0000
0000
0000
0003
0000
0000
0000
0000
0000
0000
0000
0000
0000
0000
0000
0020
0000
0000
0000
0000
0000
0030
0000
0000
0000
0000
0000
0000
0000
0000
0000
0000
0000
0000
0000
0000
0000
0000
0000
0100
0000
0000
0000
0000
0000
0000
0000
0000
0000
0000
0000
0000
0000
0000
0000
0000
0000
0000
0000
0000
0000
0000
0000
,
1000
0000
0000
0000
0000
0000
0001
0000
0010
0000
0001
0000
0010
0000
0000
0000
0000
0000
0001
0000
0000
0000
0000
0000
0100
0000
0000
0000
0000
0000
0040
0000
0000
0030
0000
0000
1000
0000
0000
0000
0000
0000
0100
0000
0000
0000
0000
0000
,
1000
0000
0000
0000
0000
0000
0001
0000
0100
0000
0001
0000
1000
0000
0000
0000
0000
0000
0001
0000
0000
0000
0000
0000
0010
0000
0000
0000
0000
0000
0400
0000
0000
0300
0000
0000
1000
0000
0000
0000
0000
0000
1000
0000
0000
0000
0000
0000
,
0100
0000
0000
0000
0000
0000
1000
0000
0001
0000
1000
0000
0010
0000
0000
0000
0000
0000
0100
0000
0000
0000
0000
0000
0001
0000
0000
0000
0000
0000
0040
0000
0000
0030
0000
0000
0100
0000
0000
0000
0000
0000
1000
0000
0000
0000
0000
0000
,
0001
0000
0000
0000
0000
0000
0000
0000
0000
0000
0000
0000
0000
0000
0000
0000
0000
0000
0000
0000
0000
0000
0000
0000
1000
0000
0000
0000
0000
0000
0000
0000
0010
0000
0000
0000
0000
0000
0000
0000
0100
0000
0000
0000
0000
0000
0000
0000
0001
0000
0000
0000
0000
0000
0000
0000
0000
0000
0000
0000
0000
0000
0000
0000
0000
0000
0000
0000
0000
0000
0000
0000
1000
0000
0000
0000
0000
0000
0000
0000
0000
0000
0000
0000
0000
0000
0000
0000
0000
0000
0000
0000
0000
0000
0000
0000
0020
0000
0000
0000
0000
0000
0030
0000
0000
0000
0000
0000
0000
0000
0000
0000
0000
0000
0000
0000
0000
0000
0000
0000
0400
0000
0000
0000
0000
0000
0000
0000
0000
0000
0000
0000
0300
0000
0000
0000
0000
0000
0000
0000
0000
0000
0000
0000
0002
0000
0000
0000
0000
0000
0003
0000
0000
0000
0000
0000
0000
0000
0000
0000
0000
0000
0000
0000
0000
0000
0000
0000
0010
0000
0000
0000
0000
0000
0000
0000
0000
0000
0000
0000
0000
0000
0000
0000
0000
0000
0000
0000
0000
0000
0000
0000
,
0200
0300
2000
3020
0030
0000
0200
0302
,
0003
0020
0230
0320
0030
0200
2300
3002
,
0003
0020
0032
0103
0100
0100
0100
0100
,
0200
0000
0302
2003
3000
0200
2300
3002
,
0403
0000
0000
0000
,
0000
0000
0000
0000
,
0300
0000
0000
0000
,
0000
0000
0000
0000
0000
0000
0001
0001
,
1000
0010
0100
0000
0001
0010
0100
0000
1000
0010
0100
0000
0010
0100
0001
1000
,
0000
0001
0100
0000
0001
0010
0100
0000
1000
0100
1000
0000
0001
0100
0010
0100
,
0000
0001
1000
0000
0100
1000
0010
0000
0100
0001
1000
0100
0010
0001
1000
0100
,
0000
1000
0010
0100
0001
1000
0100
0000
1000
0001
0100
0010
0100
0001
1000
0000
,
0MM1
1000
0100
0000
0010
0100
1000
0000
0010
0100
0001
0000
1000
0010
0100
0001
,
0000
0100
0001
0000
0010
0100
1000
0000
0001
0100
0010
0000
1000
0100
1000
0001
,
0000
0100
0010
0000
1000
0100
0010
0000
0100
1000
0001
0100
0010
1000
0001
0100
,
0000
0001
0010
0100
1000
0001
1000
0000
0001
0100
0010
1000
0100
0010
0001
0000
,
1001
1000
0010
0010
0100
0001
0010
0010
,
0100
0000
1000
0000
0010
0000
0010
0000
1000
0000
0001
0010
0100
0000
1000
0000
,
1001
0001
0100
0100
0001
0010
0100
0100
,
1000
0000
0000
0000
0000
0000
0000
0000
0000
0000
0000
0000
0000
0000
0000
0000
0000
0000
0000
0000
0000
0000
0000
0000
0001
0000
0000
0000
0000
0000
0000
0000
0100
0000
0000
0000
0000
0000
0000
0000
0001
0000
0000
0000
0000
0000
0000
0000
0100
0000
0000
0000
0000
0000
0000
0000
0000
0000
0000
0000
0000
0000
0000
0000
0000
0000
0000
0000
0000
0000
0000
0000
0010
0000
0000
0000
0000
0000
0000
0000
0000
0000
0000
0000
0000
0000
0000
0000
0000
0000
0000
0000
0000
0000
0000
0000
2000
0000
0000
0000
0000
0000
3000
0000
0000
0000
0000
0000
0000
0000
0000
0000
0000
0000
0000
0000
0000
0000
0000
0000
0200
0000
0000
0000
0000
0000
0300
0000
0000
0000
0000
0000
0000
0000
0000
0000
0000
0000
0000
0000
0000
0000
0000
0000
2000
0000
0000
0000
0000
0000
3000
0000
0000
0000
0000
0000
0000
0000
0000
0000
0000
0000
0000
0000
0000
0000
0000
0000
0020
0000
0000
0000
0000
0000
0030
0000
0000
0000
0000
0000
0000
0000
0000
0000
0000
0000
0000
0000
0000
0000
0000
0000
,
0110
0100
0001
0001
0010
0100
1000
1000
,
0010
0000
0000
0000
0000
0000
0100
0000
0000
0000
0000
0000
0001
0000
0000
0000
0000
0000
0001
0000
1000
0000
0100
0000
1000
0000
0000
0000
0000
0000
0400
0000
0000
0300
0000
0000
1000
0000
0000
0000
0000
0000
0000
0000
0000
0000
0000
0000
,
1100
0000
0000
0000
0110
0000
0000
0000
0011
0000
0000
0000
1001
0000
0000
1000
,
0010
0000
0000
0000
0110
0000
0400
0300
0001
0000
0000
0000
0001
0000
0000
0000
,
1001
1000
0100
1000
0010
0100
0010
0100
,
0000
0001
0100
0010
0100
0001
0010
0010
,
0000
0100
1000
0001
0100
0010
0100
0010
,
0000
0000
0000
1000
0000
0000
0100
0000
0000
1000
0000
0000
0001
0000
0000
0010
0000
0000
0100
1000
0100
1000
0000
0000
,
0000
0000
0001
0000
1000
0000
0010
0000
0100
0000
0001
0000
0100
0001
1000
0100
,
0010
0001
0100
0010
0100
0001
4000
3000
,
1001
0101
0110
1010
,
1000
0100
1000
0001
0010
0100
1000
0001
0100
0000
0010
0000
0100
0000
0010
0000
,
0100
0001
0010
0100
1000
0001
1000
0001
,
0100
0010
1000
0100
0010
0001
0010
0001
,
1000
0100
1000
0010
0100
0001
0100
0001
,
0010
0100
2000
3010
0100
0001
0040
0130
,
0000
0000
1000
0000
0100
0000
1000
0000
0001
0000
0100
0000
0001
0100
0001
1000
,
0100
0010
0100
1000
0010
0100
0004
0003
,
1000
0000
1000
0000
0010
0000
0100
0100
,
0001
0100
0001
1000
0100
0000
0010
0000
0100
0000
1000
0000
0001
0000
1000
0000
,
1MM2
0000
0000
0000
0003
1000
0100
1000
,
0010
0000
0000
0000
0000
0100
0001
0010
,
0100
0000
0000
0000
0000
0000
0000
1000
,
0100
0000
0100
0000
0000
1000
0001
0100
,
M1M2
0000
0000
0000
0003
0100
0001
1000
,
0100
0000
0000
0000
0000
1000
0100
0010
,
0001
0000
0000
0000
,
1000
0100
1000
0001
0010
0100
1000
0001
0100
0000
0010
0000
0100
0000
0001
0000
,
1000
0100
0000
1000
0000
0100
0000
1000
,
0001
1000
0000
0010
0000
0100
0000
0001
,
0010
0100
0000
1000
0000
0010
0000
0100
,
0001
0010
0000
0001
0000
1000
0000
0010
,
0100
0001
0000
1000
0000
0100
0000
1000
,
0010
0100
0000
0001
0000
0010
0000
0100
,
1000
0001
0000
0100
0000
0010
0000
0100
,
0001
1000
0000
0100
0000
1000
0000
0010
,
M100
0001
0000
0010
0000
0100
0000
1000
,
0001
0100
0000
0010
0000
0100
0000
0001
,
0010
0100
0000
1000
0000
0010
0000
0100
,
0001
0010
0000
0100
0000
1000
0000
0010
,
0100
0001
0000
1000
0000
0100
0000
1000
,
0010
0100
0000
0001
0000
0010
0000
0100
,
1000
0100
1000
0001
0100
0001
1000
0010
0100
0010
1000
0001
1000
0100
0010
0001
,
1000
0100
1000
0001
0100
0010
0100
0001
1000
0001
0010
0100
1000
0001
0100
0010
,
1000
0000
0000
0001
0000
0000
0100
0000
0001
0000
0000
0000
0000
0000
0000
0000
,
4000
3000
0400
0300
0040
0030
0004
0003
1000
0010
0100
0000
0101
0000
0000
0000
,
0001
0100
0001
1000
0010
0100
0010
1000
0001
0010
0100
1000
0001
0100
0010
0100
,
0001
1000
0100
0010
0001
1000
0001
0100
0001
1000
0010
0100
0010
1000
0001
0100
,
0001
1000
0100
0010
0001
1000
0001
0010
0100
1000
0001
0100
0001
1000
0010
0100
,
0010
1000
0001
1000
0100
1000
0001
0010
0100
1000
0001
0100
0001
1000
0010
1000
,
0001
0100
0001
1000
0010
0100
0010
1000
0001
0010
0001
1000
0100
0010
0001
1000
,
0001
0100
0010
0100
0001
1000
0100
0010
0001
1000
0100
1000
0001
0100
0010
0100
,
0001
1000
0100
0010
0001
1000
0001
0100
0010
0100
0001
1000
0001
0100
0001
1000
,
0100
0000
0000
1000
0000
0000
0001
0000
0000
0010
0000
0000
0100
0000
0000
1000
0000
0000
0001
0000
0000
0100
0000
0000
0010
0000
0000
0000
0000
0000
1000
0000
0001
0000
1000
0000
0001
0000
0000
0000
0000
0000
0100
0000
0000
0000
0000
0000
,
0001
0010
0001
1000
0100
0010
0100
1000
0001
0100
0010
0100
0001
1000
0001
0100
,
0010
0100
0001
1000
0100
0010
0001
1000
0100
1000
0001
0100
0010
0100
0001
1000
,
0001
0010
0100
1000
0001
0100
0001
1000
0010
0100
0010
1000
0001
0100
0001
1000
,
0100
0010
0001
1000
0001
0100
0010
0100
0001
1000
0001
0010
0100
1000
0001
0100
,
0010
0100
0001
1000
0100
1000
0001
0010
0100
1000
0001
1000
0001
0100
0010
0100
,
0001
1000
0001
0100
0001
1000
0100
0010
0100
1000
0001
0100
0010
0100
0001
1000
,
0100
0010
0001
1000
0010
0100
0001
1000
0100
0010
0001
1000
0010
0100
0001
1000
,
0001
0000
0000
0100
0001
0100
0001
0000
0000
1000
0000
0000
0010
0000
0000
0100
0001
0100
0001
0000
0000
1000
0000
0000
,
0001
0100
0010
0100
0001
1000
0100
0010
0001
1000
0001
0100
0010
0100
0001
1000
,
0001
0010
0100
1000
0001
0100
0010
0100
0001
1000
0001
1000
0100
0010
0001
1000
,
0001
0100
0010
0100
0001
1000
0001
0010
0100
1000
0001
0100
0010
0100
0001
1000
,
0100
0010
0100
1000
0001
0100
0010
0100
0001
1000
0100
1000
0001
0010
0001
1000
,
0100
1000
0001
0100
0010
0100
0001
1000
0100
0010
0001
1000
0100
1000
0001
0100
,
0010
0100
0001
1000
0100
0010
0100
1000
0001
0100
0010
0100
0001
1000
0100
0010
,
0001
1000
0001
0100
0010
0100
0001
1000
0100
1000
0001
0100
0010
0100
0001
1000
,
0001
0000
0000
0010
0000
0000
0100
0000
0000
1000
0000
0000
0001
0000
0000
0100
0000
0000
0010
0000
0000
1000
0000
0000
0001
0000
0000
0000
0000
0000
1000
0000
0001
0000
1000
0000
0001
0000
0000
0000
0000
0000
0100
0000
0000
0000
0000
0000
,
0010
1000
0010
0100
0001
1000
0100
0010
0100
1000
0001
0100
0010
0100
0001
1000
,
0001
0100
0010
0100
0001
1000
0100
0010
0100
1000
0001
0100
0010
0100
0001
1000
,
0001
0010
0100
1000
0001
0010
0001
1000
0010
0100
0010
1000
0001
0010
0100
1000
,
0001
0100
0010
1000
0100
1000
0001
0100
0001
0010
0100
1000
0001
0100
0010
0100
,
0001
1000
0100
0010
0001
1000
0100
1000
0001
0100
0010
0100
0001
1000
0001
0010
,
0100
0010
0001
1000
0001
1000
0100
1000
0001
0100
0010
0100
0001
1000
0100
0010
,
0100
1000
0001
0100
0010
0100
0001
1000
0100
0010
0001
1000
0100
1000
0001
0100
,
0001
0000
0000
0000
0000
0000
0000
0000
0000
0000
0000
0000
0001
0000
0000
0000
0000
0000
0000
0000
0000
0000
0000
0000
0040
0000
0000
0030
0000
0000
0100
0000
1000
0000
0001
0000
1000
0000
0000
0000
0000
0000
0010
0000
0000
0000
0000
0000
,
0100
0101
1001
1010
,
0110
0000
0000
0000
0101
0000
0000
0000
1001
0000
0000
0000
1100
0000
0100
1000
,
0001
0101
0110
1001
,
1100
0000
0000
0000
0110
0000
0000
0000
0010
0001
1000
0000
0001
0100
0010
0000
,
0110
0101
1001
1100
,
0011
0000
0000
0000
1001
0000
0000
0000
1100
0000
0100
1000
0001
0000
0000
0000
,
0101
0110
1010
0101
,
2002
0000
3003
0000
1000
0100
1000
0001
0010
0100
1000
0001
0100
0010
0100
0001
,
1000
0000
0000
0000
0000
0000
0001
0000
0100
0000
0001
0000
0100
0000
0000
0000
0000
0000
0010
0000
0000
0000
0000
0000
1000
0000
0000
0000
0000
0000
0400
0000
0000
0300
0000
0000
1000
0000
0000
0000
0000
0000
0001
0000
0000
0000
0000
0000
,
0010
0000
0000
0000
0000
0000
0100
0000
1000
0000
0100
0000
1000
0000
0000
0000
0000
0000
0001
0000
0000
0000
0000
0000
0100
0000
0000
0000
0000
0000
0040
0000
0000
0030
0000
0000
1000
0000
0000
0000
0000
0000
0010
0000
0000
0000
0000
0000
,
0100
0000
0000
0000
0000
0000
0001
0000
1000
0000
0001
0000
1000
0000
0000
0000
0000
0000
0001
0000
0000
0000
0000
0000
0010
0000
0000
0000
0000
0000
0400
0000
0000
0300
0000
0000
1000
0000
0000
0000
0000
0000
0010
0000
0000
0000
0000
0000
,
1000
0000
0000
0000
0000
0000
0000
0000
0000
0000
0000
0000
0000
0000
0000
0000
0000
0000
0000
0000
0000
0000
0000
0000
0001
0000
0000
0000
0000
0000
0000
0000
0100
0000
0000
0000
0000
0000
0000
0000
0001
0000
0000
0000
0000
0000
0000
0000
1000
0000
0000
0000
0000
0000
0000
0000
0000
0000
0000
0000
0000
0000
0000
0000
0000
0000
0000
0000
0000
0000
0000
0000
0100
0000
0000
0000
0000
0000
0000
0000
0000
0000
0000
0000
0000
0000
0000
0000
0000
0000
0000
0000
0000
0000
0000
0000
0020
0000
0000
0000
0000
0000
0030
0000
0000
0000
0000
0000
0000
0000
0000
0000
0000
0000
0000
0000
0000
0000
0000
0000
0004
0000
0000
0000
0000
0000
0000
0000
0000
0000
0000
0000
0003
0000
0000
0000
0000
0000
0000
0000
0000
0000
0000
0000
0200
0000
0000
0000
0000
0000
0300
0000
0000
0000
0000
0000
0000
0000
0000
0000
0000
0000
0000
0000
0000
0000
0000
0000
0001
0000
0000
0000
0000
0000
0000
0000
0000
0000
0000
0000
0000
0000
0000
0000
0000
0000
0000
0000
0000
0000
0000
0000
,
1000
0000
0010
0100
0010
0000
1000
0010
1000
0000
0001
0010
0001
0000
1000
0100
,
1000
0000
0001
1000
0001
0000
0010
0100
1000
0000
0001
0100
0010
0000
0100
0001
,
1000
0000
0100
1000
0001
0000
0100
0010
1000
0000
0001
0010
0100
0000
1000
0001
,
0200
0000
0000
0000
0000
0000
0301
0001
,
0100
0001
1000
0001
0010
0100
1000
0001
0100
0010
0100
0001
1000
0100
0010
0001
,
1000
0100
1000
0001
0100
0010
0100
0001
1000
0001
0100
0010
0100
0001
1000
0100
,
0010
0100
1000
0001
0100
0001
1000
0010
0100
0001
1000
0100
1000
0001
0010
0100
,
1000
0001
0100
0010
0100
0001
1000
0001
0010
0100
1000
0001
0100
0001
1000
0100
,
0010
0001
1000
0100
1000
0001
0100
0001
1000
0001
0100
0010
0100
0001
1000
0001
,
0010
0100
0010
0001
1000
0001
0100
0010
0100
0001
1000
0100
0010
0100
1000
0001
,
0010
0100
1000
0001
0100
0010
0100
0001
1000
0100
0010
0001
1000
0100
1000
0001
,
0100
0001
1000
0100
0010
0001
1000
0100
1000
0001
0100
0010
1000
0001
0010
0100
,
1000
0001
0100
0001
1000
0010
0100
0010
1000
0001
0100
0001
1000
0100
0010
0100
,
1000
0001
0010
0100
1000
0001
0010
0001
1000
0001
0100
0010
0100
0001
1000
0100
,
0010
0100
1000
0001
0100
0001
1000
0010
0100
0001
0100
0010
0100
0001
1000
0100
,
1000
0001
0010
0100
1000
0001
0100
0010
1000
0100
0010
0001
1000
0010
0100
0001
,
0100
0001
1000
0100
1000
0001
0100
0010
0100
0001
1000
0001
0010
0100
1000
0001
,
0010
0001
1000
0100
0010
0001
1000
0001
0100
0001
1000
0010
0100
0010
0100
0001
,
1000
0100
1000
0001
0010
0001
1000
0100
0010
0100
1000
0001
0010
0100
1000
0001
,
0100
0010
0100
0001
1000
0100
1000
0001
0100
0010
0100
0001
1000
0001
0100
0001
,
1000
0100
0010
0001
1000
0100
1000
0001
0010
0001
1000
0001
0100
0010
0100
0001
,
1000
0010
0100
0010
1000
0001
0100
0001
1000
0100
1000
0001
0010
0100
1000
0001
,
0010
0001
1000
0100
1000
0001
0010
0100
0010
0001
1000
0001
0100
0010
0100
0001
,
1000
0100
1000
0001
0100
0010
0100
0001
1000
0010
0100
0001
1000
0100
0010
0001
,
1000
0000
1000
0000
0000
0001
0000
0100
,
0010
0000
0010
0000
0000
0400
0300
0001
,
1000
0000
4000
3000
0000
0001
0100
0001
,
0000
0010
0100
1000
0000
0100
1000
0001
,
0200
0000
0000
0300
0000
0001
0100
0001
,
0010
0000
0000
0000
0000
0100
1000
0001
,
1000
0000
0000
0000
0000
0000
0000
0001
,
0100
0000
0100
0000
0000
0001
0010
0100
,
12MM
0000
0000
0300
0000
1000
0001
0100
,
0001
0000
0000
0000
0000
0010
0100
1000
,
0040
0000
0000
0000
0000
0000
0000
0030
,
1000
0001
0100
0001
1000
0100
0010
0001
1000
0001
0100
0010
1000
0000
0001
0000
,
0100
0001
0000
1000
0000
0100
0000
1000
,
0001
0100
0000
0010
0000
0100
0000
0001
,
0010
0100
0000
1000
0000
0010
0000
0100
,
0001
0010
0000
0001
0000
0100
0000
0010
,
1000
0001
0000
0100
0000
0010
0000
1000
,
0100
1000
0000
0001
0000
0100
0000
0001
,
0010
0100
0000
1000
0000
0001
0000
0100
,
0010
0100
0000
0001
0000
1000
0000
0100
,
10M0
0001
0000
0100
0000
0001
0000
0010
,
0100
1000
0000
0010
0000
0100
0000
0010
,
1000
0001
0000
0100
0000
0001
0000
0010
,
0001
0100
0000
0010
0000
1000
0000
0100
,
0010
0001
0000
1000
0000
0010
0000
0100
,
0001
1000
0000
0100
0000
1000
0000
0001
,
0100
0010
0100
0001
1000
0100
1000
0001
0010
0100
1000
0001
0100
0001
1000
0010
,
0100
0010
1000
0001
0010
0100
1000
0001
0010
0001
1000
0001
0100
0010
0100
0001
,
1000
0000
0000
0001
0000
0000
0100
0000
0001
0000
0000
0000
0000
0000
0000
0000
,
4000
3000
0400
0300
0040
0030
0004
0003
1000
0010
0100
0000
0101
0000
0000
0000
,
0001
0100
0010
0100
0001
1000
0100
0010
0001
1000
0001
0100
0010
0100
0001
1000
,
0001
0100
0010
0100
0001
1000
0100
0010
0001
1000
0100
1000
0001
0100
0010
0100
,
0001
1000
0001
0010
0100
1000
0001
0010
0001
1000
0100
0010
0001
1000
0001
0100
,
0001
1000
0010
0100
0010
1000
0001
0100
0001
1000
0100
0010
0100
1000
0001
0100
,
0010
0100
0001
1000
0100
0010
0001
1000
0100
1000
0001
0100
0010
0100
0001
1000
,
0001
0100
0001
1000
0100
0010
0001
1000
0100
1000
0001
0100
0010
0100
0001
1000
,
0001
0010
0100
1000
0001
0100
0010
0100
0001
1000
0100
1000
0001
1000
0010
0100
,
0001
0000
0000
1000
0000
0000
0100
0000
0000
0010
0000
0000
0100
0000
0000
1000
0000
0000
0001
0000
0000
0100
0000
0000
0001
0000
0000
0000
0000
0000
1000
0000
0001
0000
1000
0000
0001
0000
0000
0000
0000
0000
0100
0000
0000
0000
0000
0000
,
0010
0100
0001
1000
0100
1000
0001
0010
0001
1000
0100
0010
0001
1000
0001
0100
,
0010
0100
0001
1000
0001
0010
0100
1000
0001
0100
0001
1000
0001
0100
0010
0100
,
0001
1000
0001
0100
0010
0100
0001
1000
0100
0010
0100
1000
0001
0100
0010
0100
,
0001
1000
0100
1000
0001
0010
0100
1000
0001
0100
0001
1000
0001
0100
0010
0100
,
0001
1000
0010
0100
0010
1000
0010
0100
0001
1000
0100
1000
0001
0010
0100
1000
,
0001
0010
0001
1000
0100
0010
0100
1000
0001
0100
0010
0100
0001
1000
0001
0100
,
0001
1000
0100
0010
0001
1000
0010
0100
0001
1000
0100
0010
0001
0100
0010
1000
,
0001
0000
0000
0100
0001
0100
0001
0000
0000
1000
0000
0000
0010
0000
0000
0100
0001
0100
0001
0000
0000
1000
0000
0000
,
0010
0100
0001
1000
0001
0010
0100
1000
0001
0100
0001
1000
0100
1000
0001
0100
,
0010
0100
0001
1000
0100
0010
0001
1000
0100
1000
0001
0100
0010
0100
0001
1000
,
0001
0010
0100
1000
0001
0100
0010
1000
0010
0100
0001
0100
0001
1000
0100
1000
,
0001
0010
0100
0010
0001
1000
0001
0100
0001
1000
0010
0100
0010
1000
0001
0100
,
0010
0100
0001
1000
0100
1000
0001
0010
0100
0010
0001
1000
0100
0010
0001
1000
,
0001
0100
0010
0100
0001
1000
0100
1000
0001
0100
0001
1000
0001
0100
0010
0100
,
0001
1000
0100
0010
0100
1000
0001
0100
0010
0100
0001
1000
0001
0010
0100
1000
,
0001
0000
0000
0100
0000
0000
0010
0000
0000
0100
0000
0000
0001
0000
0000
1000
0000
0000
0100
0000
0000
0010
0000
0000
0001
0000
0000
0000
0000
0000
1000
0000
0001
0000
0000
1000
0001
0000
0000
0000
0000
0000
0100
0000
0000
0000
0000
0000
,
0001
0010
0001
1000
0001
0100
0010
0100
0001
1000
0001
0010
0100
1000
0001
0100
,
0010
0100
0001
1000
0100
0010
0001
1000
0001
0100
0001
1000
0100
0010
0100
1000
,
0001
0100
0010
0100
0001
1000
0010
0100
0010
1000
0001
0100
0001
1000
0100
0010
,
0100
1000
0001
0100
0010
0100
0001
1000
0001
1000
0100
0010
0001
1000
0100
1000
,
0001
0100
0010
0100
0001
1000
0001
0010
0100
1000
0001
0100
0001
1000
0010
0100
,
0010
1000
0001
0100
0010
0100
0001
1000
0100
0010
0001
1000
0001
0100
0010
0100
,
0001
1000
0001
0010
0100
1000
0001
0100
0010
0100
0001
1000
0100
0010
0001
1000
,
0001
0000
0000
0000
0001
0100
0001
1000
0004
0000
0000
0000
0000
0000
0000
0003
,
1000
0010
0100
0010
1000
0001
0010
0100
1000
0001
1000
0010
0100
0010
1000
0001
,
1000
0010
0100
0010
1000
0001
0010
0100
1000
0001
0010
0001
1000
0010
0100
0010
,
1000
0001
1000
0100
0010
0001
1000
0100
1000
0001
0010
0100
1000
0001
1000
0010
,
1000
0001
0100
0010
0100
0001
1000
0010
1000
0001
0010
0100
0010
0001
1000
0010
,
0100
0010
1000
0001
0010
0100
1000
0001
0010
0001
1000
0010
0100
0010
1000
0001
,
1000
0010
1000
0001
0010
0100
1000
0001
0010
0001
1000
0010
0100
0010
1000
0001
,
1000
0100
0010
0001
1000
0010
0100
0010
1000
0001
0010
0001
1000
0001
0100
0010
,
1000
0000
0000
0001
0000
0000
0010
0000
0000
0100
0000
0000
0010
0000
0000
0001
0000
0000
1000
0000
0000
0010
0000
0000
1000
0000
0000
0000
0000
0000
0001
0000
1000
0000
0001
0000
1000
0000
0000
0000
0000
0000
0010
0000
0000
0000
0000
0000
,
0100
0010
1000
0001
0010
0001
1000
0100
1000
0001
0010
0100
1000
0001
1000
0010
,
0100
0010
1000
0001
1000
0100
0010
0001
1000
0010
1000
0001
1000
0010
0100
0010
,
1000
0001
1000
0010
0100
0010
1000
0001
0010
0100
0010
0001
1000
0010
0100
0010
,
1000
0001
0010
0001
1000
0100
0010
0001
1000
0010
1000
0001
1000
0010
0100
0010
,
1000
0001
0100
0010
0100
0001
0100
0010
1000
0001
0010
0001
1000
0100
0010
0001
,
1000
0100
1000
0001
0010
0100
0010
0001
1000
0010
0100
0010
1000
0001
1000
0010
,
1000
0001
0010
0100
1000
0001
0100
0010
1000
0001
0010
0100
1000
0010
0100
0001
,
1000
0000
0000
0000
1000
0100
1000
0001
1000
0000
0001
0000
0100
0000
0010
0000
,
0200
0300
0001
2000
0000
0000
0MM0
0000
,
0000
0000
3001
0100
0010
0100
0001
1000
,
0200
0300
0010
0002
0000
0000
MM00
0000
,
0000
0000
0000
2003
3000
0100
1000
0010
,
0200
0000
0300
0000
0001
0000
1000
0200
0000
0000
0000
0000
00MM
0000
0000
0000
,
0000
0300
1000
0100
1000
0001
0100
0010
,
0100
0000
0000
0100
0000
0000
0200
0000
0000
0000
0000
0000
M30M
0000
0010
0000
,
0200
0300
0002
0003
0020
0030
0200
0300
,
2002
3003
1000
0100
0020
0000
M00M
0000
,
0000
0030
0100
1000
0001
0100
0010
0100
,
0001
0000
1000
0200
0000
0000
00MM
0300
,
0000
0000
0000
1000
0000
0100
1000
0001
,
0100
0000
0000
0000
0010
0000
0100
0002
0000
0000
0000
0000
M0M0
0000
0000
0000
,
0000
0003
0100
0001
0010
0100
1000
0001
,
0100
0001
1000
0001
0010
0100
1000
0001
1000
0010
0100
0001
1000
0010
0100
0001
,
0200
0000
0000
0000
,
0000
0000
0000
0000
,
0300
0000
0000
0000
;
