#TITLE:Cry of the Brave;
#SUBTITLE:Super Dragonforce;
#ARTIST:Dragonforce;
#TITLETRANSLIT:;
#SUBTITLETRANSLIT:;
#ARTISTTRANSLIT:;
#CREDIT:B. Abear;
#BANNER:../bn.png;
#BACKGROUND:../bg.png;
#LYRICSPATH:;
#CDTITLE:;
#MUSIC:Cry of the Brave.ogg;
#OFFSET:-3.032;
#SAMPLESTART:68.754;
#SAMPLELENGTH:20.746;
#SELECTABLE:YES;
#DISPLAYBPM:215.000;
#BPMS:0.000=215.017;
#STOPS:;
#BGCHANGES:;
// cache tags:
#FIRSTBEAT:4.000;
#LASTBEAT:1217.500;
#SONGFILENAME:Songs/Cirque du Zonda/Zaia - Cry of the Brave/Cry of the Brave.sm;
#HASMUSIC:1;
#HASBANNER:1;
#MUSICLENGTH:346.148;
// end cache tags

//---------------dance-single - Zaia - 17.9----------------
#NOTES:
     dance-single:
     Zaia - 17.9:
     Challenge:
     17:
     1.000,1.000,0.136,0.208,1.000,3734.000,47.000,72.000,0.000,0.000:
0000
0000
0000
0000
,
1000
0000
0001
0000
1000
0100
1000
0000
0001
0000
0100
0000
0010
1000
0010
0000
,
0100
0000
0001
0000
0010
0100
0010
0000
0001
0000
1000
0000
0010
0000
0000
0000
,
0100
0000
0001
0000
1000
0010
1000
0000
0001
0000
0010
0000
0100
1000
0100
0000
,
1000
0002
0103
0020
1030
0200
0320
0000
,
0031
0000
1000
0000
0100
1000
0100
0000
0010
0000
0001
0000
1000
0010
1000
0000
,
0100
0000
0010
0000
0001
1000
0001
0000
0100
0000
0010
0000
0100
0001
0100
0000
,
0010
1000
0100
1000
0010
0100
0001
0010
,
0001
0010
0100
1000
0001
0100
0010
1000
0001
1000
0100
1000
0001
0100
0010
1000
,
0001
0100
0001
0010
0001
1000
0010
0100
0001
1000
0100
1000
0001
0010
0100
1000
,
0001
0100
0010
1000
0001
1000
0010
1000
0001
0010
0100
1000
0002
0000
0000
0000
,
0103
0010
0100
0001
1000
0100
1000
0001
0010
0001
1000
0010
0100
0001
1000
0100
,
1000
0010
0100
0001
0010
0100
1000
0010
0100
0001
0010
0100
2000
0000
0000
0000
,
3001
0100
0010
1000
0010
0100
0001
1000
0100
1000
0001
0010
0100
1000
0001
1000
,
0010
0100
0010
1000
0001
0010
0001
1000
0100
1000
0001
0100
0020
0000
0000
0000
,
1030
0001
0100
0010
0100
0001
1000
0100
0010
0001
0010
0100
1000
0001
0100
0010
,
1000
0001
1000
0001
0010
0100
0010
0100
1000
0001
1000
0001
0100
0010
0100
0010
,
1000
0000
0000
0000
,
0000
0000
1001
0000
,
0001
0000
1000
0000
0010
0100
0010
0000
1000
0000
0001
0000
1000
0100
1000
0000
,
0001
0000
0100
0000
0010
1000
0010
0000
0100
0000
0001
0000
0010
0100
0010
0000
,
0001
0000
1000
0000
0001
0100
0001
0000
1000
0000
0100
0000
0010
0001
0010
0000
,
0001
0000
0100
0000
0010
1000
0010
0000
0100
0000
0001
0000
1000
0010
1000
0000
,
0001
0000
0010
0000
0100
0010
0100
0000
1000
0000
0001
0000
0100
0001
0100
0000
,
0010
0000
1000
0000
0001
0010
0001
0000
0100
0000
0010
0000
1000
0001
1000
0000
,
0010
0100
0010
0100
0001
0100
0001
0100
,
0010
1000
0001
0010
0001
1000
0100
1000
0001
1000
0010
0100
0001
0100
0010
1000
,
0001
0100
0001
1000
0100
0010
0100
1000
0001
1000
0010
1000
0001
0100
0010
1000
,
0001
1000
0001
0010
0100
1000
0001
1000
0010
0100
0010
1000
0001
0010
0001
1000
,
0100
1000
0001
0100
0010
1000
0001
0010
0001
1000
0010
1000
0001
0100
0010
0100
,
0001
1000
0001
1000
0100
0010
0001
1000
0001
1000
0010
0100
0001
1000
0100
0010
,
0001
1000
0010
1000
0001
0010
0100
1000
0001
0100
0010
0100
0001
1000
0100
1000
,
0001
0100
0001
0100
0010
1000
0001
0100
0001
0100
0010
1000
0001
0010
0100
0010
,
0002
0000
2003
0000
,
3001
0010
0001
0010
0100
0010
0001
1000
0001
1000
0010
0100
0001
1000
0100
0010
,
0001
1000
0010
0100
0010
1000
0001
0010
0100
1000
0001
0100
0001
1000
0100
1000
,
0001
0100
0001
1000
0100
0010
0100
1000
0001
0100
0010
1000
0001
0010
0001
1000
,
0010
0100
0001
0010
0001
1000
0100
0010
0001
1000
0010
1000
0001
0010
0001
1000
,
0010
0100
0001
0100
0010
0100
0001
0100
0010
0000
0000
0000
0000
0000
0000
0000
,
1000
0001
0010
0100
0010
0001
1000
0010
0100
0001
1000
0100
1000
0001
0100
0001
,
1000
0100
1000
0001
0100
0010
0100
0001
1000
0100
0010
0001
1000
0010
1000
0001
,
0010
0100
1000
0010
1000
0001
0100
0010
1000
0001
0010
0001
1000
0010
1000
0001
,
0020
0000
0000
0030
,
0001
0010
0100
1000
0001
1000
0010
0100
0001
1000
0001
0100
0001
1000
0100
0010
,
0001
1000
0010
0100
0001
1000
0100
0010
0100
1000
0001
0010
0100
0010
0001
1000
,
0001
0100
0010
0100
0001
1000
0010
1000
0001
0010
0100
1000
0001
0010
0001
1000
,
0001
0100
0010
0100
0001
1000
0010
1000
0001
0010
0001
1000
0100
1000
0001
1000
,
0001
0100
0010
1000
0001
1000
0100
0010
0001
1000
0001
0010
0001
1000
0010
0100
,
0001
1000
0100
0010
0001
1000
0010
0100
0010
1000
0001
0100
0010
0100
0001
1000
,
0001
0010
0100
0010
0001
1000
0100
1000
0001
0100
0010
1000
0001
0100
0001
1000
,
0010
0100
0010
0100
0001
1000
0001
1000
0100
0010
0100
0010
0001
1000
0001
1000
,
0100
0010
0100
1000
0001
1000
0010
0100
0001
1000
0010
1000
0001
1000
0010
1000
,
0001
0010
0100
0010
0001
1000
0001
0010
0100
1000
0001
1000
0010
0100
0010
1000
,
0001
0010
0100
0010
0001
1000
0100
1000
0001
0100
0010
0100
0001
1000
0001
0100
,
0001
1000
0100
0010
0001
1000
0100
1000
0001
1000
0001
0100
0010
1000
0010
0100
,
0001
1000
0001
1000
0010
0100
0001
1000
0001
1000
0010
0100
0001
1000
0100
0010
,
0001
1000
0010
0100
0010
1000
0001
0010
0100
0010
0001
1000
0001
0100
0010
1000
,
0001
0010
0001
1000
0100
1000
0001
0100
0001
1000
0010
1000
0001
0010
0001
1000
,
0100
1000
0001
0100
0001
1000
0010
1000
0001
0010
0100
1000
0001
0010
0100
1000
,
0001
0100
0010
1000
0001
1000
0100
0010
0001
1000
0001
0010
0001
1000
0010
0100
,
0001
1000
0100
0010
0001
1000
0010
0100
0010
1000
0001
0100
0010
0100
0001
1000
,
0001
0010
0100
0010
0001
1000
0100
1000
0001
0100
0010
1000
0001
0100
0001
1000
,
0001
0010
0100
0010
0001
1000
0100
1000
0001
0100
0001
1000
0010
1000
0001
1000
,
0001
0010
0100
1000
0001
1000
0010
0100
0001
1000
0001
0100
0001
1000
0100
0010
,
0001
1000
0010
0100
0001
1000
0100
0010
0100
1000
0001
0010
0100
0010
0001
1000
,
0001
0100
0010
0100
0001
1000
0010
1000
0001
0010
0100
1000
0001
0010
0001
1000
,
0100
0010
0100
0010
0001
1000
0001
1000
0010
0100
0010
0100
0001
1000
0001
1000
,
0100
0010
0100
1000
0001
1000
0010
0100
0001
1000
0010
1000
0001
1000
0010
1000
,
0001
0010
0100
0010
0001
1000
0001
0010
0100
1000
0001
1000
0010
0100
0010
1000
,
0001
0010
0100
0010
0001
1000
0100
1000
0001
0100
0010
0100
0001
1000
0001
0100
,
0001
1000
0100
0010
0001
1000
0100
1000
0001
1000
0001
0100
0010
1000
0010
0100
,
0001
1000
0001
1000
0010
0100
0001
1000
0001
1000
0010
0100
0001
1000
0100
0010
,
0001
1000
0010
0100
0010
1000
0001
0010
0100
0010
0001
1000
0001
0100
0010
1000
,
0001
0100
0001
1000
0010
1000
0001
0010
0100
1000
0001
0100
0010
1000
0001
1000
,
0100
0010
0100
0010
0001
1000
0001
1000
0010
0100
0010
0100
0001
1000
0100
1000
,
0001
0010
0001
0100
0010
1000
0100
1000
0010
0100
0001
0010
0100
1000
0010
0100
,
0010
1000
0100
0010
0001
0100
0001
0010
0200
0000
0000
0000
0300
0000
0000
0000
,
1001
0000
0000
0000
0000
0000
0000
0000
0001
0000
1000
0000
0001
0010
0001
0000
,
1000
0000
0010
0000
0100
0001
0100
0000
0010
0000
1000
0000
0100
0010
0100
0000
,
1000
0000
0001
0000
0100
0000
0000
0000
0010
0000
1000
0000
0001
0100
0001
0000
,
1000
0000
0100
0000
0010
0001
0010
0000
0001
0000
2000
0000
3010
0000
0200
0000
,
0301
0000
0020
0000
0230
0000
0000
0000
1300
0000
0001
0000
0010
0001
0010
0000
,
0100
0000
1000
0000
0001
0100
0001
0000
0010
0000
0100
0000
1000
0000
0010
0000
,
1000
0100
0020
0000
0031
1000
0100
1000
,
0010
0000
0100
0000
0001
0000
0010
0000
0001
0100
0010
1000
0001
0010
0100
1000
,
0001
1000
0010
1000
0002
0000
0000
0000
1003
0100
1000
0010
1000
0001
0010
0100
,
1000
0001
0100
0001
1000
0010
0100
0001
1000
0100
0010
0001
1000
0001
0010
0001
,
1000
0010
0100
0001
2000
0000
0000
0000
3100
0010
0100
1000
0001
0100
0001
1000
,
0010
1000
0001
0010
0100
1000
0001
0100
0001
0010
0100
1000
0010
0100
0001
0010
,
0100
1000
0010
0100
0002
0000
0000
0000
1003
0100
0010
0001
0010
0100
1000
0001
,
0100
0001
1000
0010
0100
0001
1000
0001
0010
0100
0010
0001
1000
0010
1000
0001
,
0100
0001
1000
0100
0020
0000
0030
0000
0001
1000
0100
0010
0100
1000
0001
0100
,
0010
1000
0010
0100
0001
1000
0100
0010
0001
1000
0001
1000
0010
0100
0010
0100
,
0001
1000
0001
1000
0100
0010
0100
0010
0001
0000
0000
0000
0000
0000
0000
0000
,
0000
0000
0000
0000
,
1001
0000
0000
0000
0000
0000
0000
0000
1000
0000
0001
0000
0010
0100
0010
0000
,
0001
0000
1000
0000
0001
0100
0001
0000
1000
0000
0100
0000
0010
0001
0010
0000
,
0100
0000
1000
0000
0010
0100
0010
0000
1000
0000
0001
0000
1000
0100
1000
0000
,
0001
0000
0100
0000
0010
1000
0010
0000
1000
0000
0100
0000
0010
0001
0010
0000
,
0100
0000
1000
0000
0001
0010
0001
0000
1000
0000
0010
0000
0100
0010
0100
0000
,
0001
0000
1000
0000
0100
1000
0100
0000
0010
0000
0001
0000
1000
0010
1000
0000
,
0100
0000
0010
0000
0001
1000
0001
0000
0010
0000
0100
0000
0010
0000
0100
0000
,
1000
0000
0100
0000
1000
0000
0100
0000
0010
0001
1000
0010
1000
0001
0100
0001
,
1000
0001
0010
0100
1000
0100
0010
0001
1000
0100
1000
0001
0100
0010
0100
0001
,
1000
0001
0010
0001
1000
0100
0010
0001
1000
0001
1000
0010
0100
0001
1000
0001
,
0010
0100
0010
0001
1000
0010
1000
0001
0100
0001
1000
0100
0010
0001
1000
0010
,
1000
0001
0010
0001
1000
0100
0010
0100
1000
0001
1000
0001
0100
0010
1000
0001
,
1000
0001
0010
0100
1000
0001
0100
0010
1000
0001
0010
0001
1000
0010
0100
0001
,
1000
0100
0010
0100
1000
0001
0100
0001
1000
0100
1000
0100
0010
0001
1000
0100
,
1000
0100
0010
0001
1000
0010
0100
0010
2000
0000
0000
0000
0000
0000
0000
0000
,
3002
0000
0000
0000
0000
0000
0000
0000
1003
0010
1000
0010
0100
0010
1000
0001
,
1000
0001
0010
0100
1000
0001
0100
0010
1000
0001
0010
0100
0010
0001
1000
0010
,
0100
0001
1000
0100
1000
0001
0100
0001
1000
0100
1000
0001
0100
0010
0100
0001
,
1000
0100
0010
0001
1000
0010
1000
0001
0010
0100
1000
0010
1000
0001
0100
0010
,
1000
0001
0010
0001
1000
0010
1000
0001
0100
0010
1000
0010
0100
0010
1000
0010
,
0100
0000
0000
0000
0000
0000
0000
0000
0001
1000
0010
0100
0010
1000
0001
0010
,
0100
1000
0001
0100
0001
1000
0100
1000
0001
0100
0001
1000
0100
0010
0100
1000
,
0001
0100
0010
1000
0001
0010
0001
1000
0010
0100
0001
0010
0001
1000
0100
0010
,
0001
1000
0010
1000
0001
0010
0001
1000
0020
0000
0000
0000
0000
0000
0000
0000
,
0000
0000
0030
0000
0000
0000
0000
0000
1000
0010
0100
0001
1000
0001
0010
0100
,
1000
0001
1000
0100
1000
0001
0100
0010
1000
0001
0010
0100
1000
0001
0100
0010
,
0100
0001
1000
0010
0100
0010
1000
0001
1000
0100
0010
0100
1000
0001
0010
0001
,
1000
0010
0100
0001
1000
0010
1000
0001
1000
0100
0010
0100
1000
0001
0010
0001
,
1000
0010
1000
0001
0100
0001
1000
0001
1000
0100
0010
0001
1000
0001
0100
0010
,
1000
0001
1000
0010
1000
0001
0010
0100
1000
0001
0100
0010
1000
0001
0010
0100
,
0010
0001
1000
0100
0010
0100
1000
0001
1000
0010
0100
0010
1000
0001
0100
0001
,
1000
0100
0010
0001
1000
0100
1000
0001
0010
0100
0010
0100
1000
0001
1000
0001
,
0100
0010
0100
0010
1000
0001
1000
0001
0100
0010
0100
0001
1000
0001
0010
0100
,
1000
0001
0010
0001
1000
0001
0010
0001
1000
0010
0100
0010
1000
0001
1000
0010
,
0100
0001
1000
0001
0010
0100
0010
0001
1000
0010
0100
0010
1000
0001
0100
0001
,
1000
0100
0010
0100
1000
0001
1000
0100
1000
0001
0100
0010
1000
0001
0100
0001
,
1000
0001
1000
0100
0010
0001
0100
0010
1000
0001
1000
0001
0010
0100
1000
0001
,
1000
0001
0010
0100
1000
0001
0100
0010
1000
0001
0010
0100
0010
0001
1000
0010
,
0100
0010
1000
0001
1000
0100
0010
0001
1000
0010
1000
0001
0100
0001
1000
0100
,
1000
0001
0010
0001
1000
0010
1000
0001
0100
0001
1000
0100
1000
0001
0010
0001
,
1000
0010
0100
0001
1000
0010
0100
0001
1000
0100
0010
0001
1000
0001
0100
0010
,
1000
0001
1000
0010
1000
0001
0010
0100
1000
0001
0100
0010
1000
0001
0010
0100
,
0010
0001
1000
0100
0010
0100
1000
0001
1000
0010
0100
0010
1000
0001
0100
0001
,
1000
0100
0010
0001
1000
0100
1000
0001
1000
0010
0100
0010
1000
0001
0100
0001
,
1000
0100
1000
0001
0010
0001
1000
0001
1000
0010
0100
0001
1000
0001
0010
0100
,
1000
0001
1000
0100
1000
0001
0100
0010
1000
0001
0010
0100
1000
0001
0100
0010
,
0100
0001
1000
0010
0100
0010
1000
0001
1000
0100
0010
0100
1000
0001
0010
0001
,
1000
0010
0100
0001
1000
0010
1000
0001
0100
0010
0100
0010
1000
0001
1000
0001
,
0010
0100
0010
0100
1000
0001
1000
0001
0100
0010
0100
0001
1000
0001
0010
0100
,
1000
0001
0010
0001
1000
0001
0010
0001
1000
0010
0100
0010
1000
0001
1000
0010
,
0100
0001
1000
0001
0010
0100
0010
0001
1000
0010
0100
0010
1000
0001
0100
0001
,
1000
0100
0010
0100
1000
0001
1000
0100
1000
0001
0100
0010
1000
0001
0100
0001
,
1000
0001
1000
0100
0010
0001
0010
0100
1000
0001
1000
0001
0010
0100
1000
0001
,
1000
0001
0010
0100
1000
0001
0100
0010
1000
0001
0010
0100
0010
0001
1000
0010
,
0100
0010
1000
0001
1000
0100
0010
0001
1000
0100
1000
0001
0010
0001
1000
0010
,
0100
0001
1000
0100
0010
0001
1000
0001
0100
0010
0100
0010
1000
0001
1000
0001
,
0010
0100
0010
0100
1000
0001
0100
0001
1000
0010
1000
0100
0010
0001
0100
0001
,
0010
0100
1000
0010
0100
0001
0010
0100
0010
0001
0100
0010
1000
0100
1000
0010
,
0200
0300
1010
0000
,
2002
0000
0000
0000
,
0000
0000
0000
0000
,
0000
0000
0000
0000
,
0000
0000
0000
0000
0000
0000
0000
3003
,
2002
0000
0000
0000
,
0000
0000
0000
0000
,
0000
0000
0000
0000
,
0000
0000
0000
0000
0000
0000
0000
3003
,
2002
0000
0000
0000
,
0000
0000
0000
0000
,
0000
0000
0000
0000
,
0000
0000
0000
0000
0000
0000
0000
3003
,
2002
0000
0000
0000
,
0000
0000
0000
3003
,
1001
0001
0100
0110
0010
1000
1010
0001
,
1001
1000
0100
0110
0010
0100
1000
0001
,
0101
0100
0010
1000
1010
0010
1000
0001
,
0011
0010
0100
1000
1100
0100
0010
0001
,
1001
1000
0001
0100
0101
0001
1000
0100
,
1100
1000
0100
0010
0011
0001
0100
0010
,
1010
1000
0001
1000
1010
0010
0100
0001
,
0010
0000
0011
0010
0100
0000
1100
1000
,
0010
0000
0110
0100
0001
0000
1001
1000
,
0100
0000
0110
0010
0001
1000
0001
1000
,
1010
0010
0100
0001
0101
0100
0010
1000
,
1001
0001
0010
0100
1100
1000
0100
0010
,
0110
0100
1000
0010
0110
0100
0001
1000
,
1010
0010
0100
0001
1001
1000
0100
0010
,
0011
1001
1000
0010
0110
0000
0101
0000
,
0000
1001
1100
0100
0110
0001
1000
0010
,
1010
1000
0001
0100
0110
0010
1000
0001
,
1000
0100
0010
0100
1000
0010
0100
0001
,
1000
0000
0001
0000
0100
0001
0100
0000
0001
0000
1000
0000
0100
1000
0100
0000
,
1000
0000
0001
0000
1000
0010
1000
0000
0001
0000
1000
0000
0001
0010
0001
0000
,
1000
0010
0100
0001
1000
0000
0001
0000
0100
0000
0010
0000
0100
0000
0001
0000
,
0020
0000
0000
0000
,
0230
2300
3020
0230
0300
0200
0300
0002
,
0203
0320
2030
3002
0003
0002
0003
0020
,
0130
1000
0001
0100
0010
1000
0100
0010
0100
1000
0001
0100
0010
0100
0001
1000
,
0100
0010
0100
0010
0001
1000
0001
1000
0010
0100
0010
0100
0001
0100
0010
1000
,
0001
0010
0100
1000
0001
1000
0010
1000
0001
0010
0100
0010
0001
1000
0010
0100
,
0010
1000
0001
0010
0001
1000
0001
0100
0010
0100
0001
1000
0100
0010
0001
1000
,
0001
0100
0010
1000
0001
1000
0100
0010
0001
1000
0010
1000
0001
0010
0100
0010
,
0001
0100
0010
1000
0001
0010
0100
1000
0001
0100
0010
1000
0100
0010
0100
0010
,
0001
0100
0010
1000
0100
1000
0001
0100
0001
0010
0100
1000
0010
1000
0001
1000
,
0100
0010
0100
1000
0001
0010
0001
0100
0001
1000
0010
0100
0001
1000
0001
0010
,
0100
1000
0001
0100
0001
1000
0100
1000
0001
0010
0100
1000
0001
0100
0010
1000
,
0001
1000
0010
0100
0001
1000
0010
1000
0001
0010
0001
1000
0001
0000
0000
0000
,
1000
0010
0100
0001
0010
0100
1000
0001
1000
0001
0100
0001
1000
0100
1000
0010
,
0100
0001
0100
0010
1000
0001
0010
0100
1000
0001
0010
0001
0100
0010
1000
0001
,
0010
0100
1000
0100
0010
0100
1000
0100
0010
0001
1000
0001
0010
0001
1000
0001
,
0010
0100
1000
0020
0000
0000
0030
0000
,
1000
0100
1000
0010
0000
0100
0001
1000
,
0100
0000
0010
0100
1000
0000
0002
0000
0000
0000
0103
0000
0010
0000
1000
0000
,
0100
0010
0001
1000
0001
1000
0010
0100
0001
1000
0001
1000
0100
0010
0001
1000
,
0001
0100
0010
1000
0001
0010
0100
1000
0001
0100
0010
1000
0001
1000
0010
0100
,
0001
0001
0100
0020
0000
1030
0200
0000
,
0310
0010
0001
2000
0000
3010
0200
0000
,
0301
0001
1000
0200
0000
1300
0010
0200
,
0000
0301
0010
0200
0000
2300
0000
3000
,
0001
0100
0001
1000
0010
1000
0001
1000
0100
0010
0100
1000
0001
0010
0001
1000
,
0001
0100
0010
1000
0001
1000
0010
0100
0001
1000
0100
1000
0001
0010
0001
1000
,
0001
0100
0010
0100
0001
1000
0100
0010
0001
1000
0010
1000
0001
0010
0001
1000
,
0010
0100
0001
0010
0001
1000
0100
1000
0010
1000
0001
0010
0001
0100
0001
1000
,
0010
0100
0001
0100
0010
1000
0010
0100
0001
1000
0001
0010
0100
1000
0001
0010
,
0001
0100
0010
1000
0001
1000
0010
0100
0001
0010
0100
0010
0001
1000
0100
0010
,
0001
0100
0010
1000
0001
0100
0010
1000
0100
0010
0100
1000
0001
0010
0001
1000
,
0001
0100
0010
0100
0001
0100
0010
0100
0001
1000
0010
0100
0001
1000
0010
0100
,
0001
1000
0001
0010
0001
1000
0100
0010
0001
1000
0001
0100
0010
1000
0001
0100
,
0001
0010
0100
1000
0001
1000
0100
0010
0001
0100
0010
0100
0001
1000
0010
0100
,
0001
0010
0001
1000
0001
0010
0100
1000
0010
0100
0010
1000
0001
0100
0001
1000
,
0100
0010
0100
0010
0001
1000
0001
1000
0010
0100
0010
0100
0001
1000
0001
1000
,
0010
0000
0100
0000
0001
0100
0001
0000
1000
0000
0100
0000
0010
0001
0010
0000
,
0001
0000
1000
0000
0010
0100
0010
0000
1000
0000
0001
0000
0100
0001
0100
0000
,
0010
0000
1000
0000
0100
0010
0100
0000
1000
0000
0001
0000
1000
0100
1000
0000
,
0100
0000
0010
0000
0001
1000
0001
0000
0100
0000
0010
0000
1000
0010
1000
0000
,
0001
0100
0010
1000
0001
0010
0001
1000
0001
0100
0010
1000
0001
0010
0001
1000
,
0100
0010
0001
1000
0100
1000
0010
0100
0001
1000
0001
0010
0100
1000
0001
1000
,
0001
0100
0010
1000
0100
0010
0001
1000
0001
0100
0010
1000
0100
0010
0001
1000
,
0010
0100
0010
0100
0001
1000
0001
1000
0100
0010
0100
0010
0001
1000
0001
1000
,
0020
0000
0000
0230
0000
0000
0301
0100
,
0020
0000
0000
2030
0000
0000
3002
0000
,
0023
0000
0000
0230
0000
0000
2300
0000
,
3002
0000
0000
0000
,
2003
0000
0000
0000
0000
0000
3100
0010
,
0002
0000
0000
2003
0000
0000
3020
0000
,
1030
0001
1000
0001
0100
0010
0100
0010
1000
0001
1000
0001
0010
0100
0010
0100
,
1000
0001
1000
0001
0100
0010
0100
0010
1000
0001
0010
0100
1000
0001
0010
0100
,
1000
0000
0001
0000
0100
0010
0100
0000
0001
0000
1000
0000
0001
0010
0001
0000
,
1000
0000
0010
0000
0100
0001
0100
0000
0010
0000
1000
0000
0100
0010
0100
0000
,
1000
0000
0001
0000
1000
0010
1000
0000
0001
0000
0010
0000
0100
1000
0100
0000
,
1000
0000
0010
0000
0100
0001
0100
0000
0010
0000
1000
0000
0001
0100
0001
0000
,
1000
0000
0100
0000
0010
0100
0010
0000
0001
0000
1000
0000
0010
1000
0010
0000
,
0100
0000
0001
0000
1000
0100
1000
0000
0010
0000
0100
0000
0001
1000
0001
0000
,
0100
0010
0100
0010
1000
0010
1000
0010
,
0100
0001
1000
0100
1000
0001
0010
0001
1000
0001
0100
0010
1000
0010
0100
0001
,
1000
0010
1000
0001
0010
0100
0010
0001
1000
0001
0100
0001
1000
0010
0100
0001
,
1000
0001
1000
0100
0010
0001
1000
0001
0100
0010
0100
0001
1000
0100
1000
0001
,
0010
0001
1000
0010
0100
0001
1000
0100
1000
0001
0100
0001
1000
0010
0100
0010
,
1000
0001
1000
0001
0010
0100
1000
0001
1000
0001
0100
0010
1000
0001
0010
0100
,
1000
0001
0100
0001
1000
0100
0010
0001
1000
0010
0100
0010
1000
0001
0010
0001
,
1000
0010
1000
0010
0100
0001
1000
0010
1000
0010
0100
0001
1000
0100
0010
0100
,
1000
0001
1000
0001
0010
0100
0010
0100
,
1000
0100
1000
0100
0010
0100
1000
0001
1000
0001
0100
0010
1000
0001
0010
0100
,
1000
0001
0100
0010
0100
0001
1000
0100
0010
0001
1000
0010
1000
0001
0010
0001
,
1000
0010
1000
0001
0010
0100
0010
0001
1000
0010
0100
0001
1000
0100
1000
0001
,
0100
0010
1000
0100
1000
0001
0010
0100
1000
0001
0100
0001
1000
0100
1000
0001
,
0100
0010
1000
0010
0100
0010
1000
0010
0100
0000
0000
0000
0000
0000
0000
0000
,
0001
1000
0100
0010
0100
1000
0001
0100
0010
1000
0001
0010
0001
1000
0010
1000
,
0001
0010
0001
1000
0010
0100
0010
1000
0001
0010
0100
1000
0001
0100
0001
1000
,
0100
0010
0001
0100
0001
1000
0010
0100
0001
1000
0100
1000
0001
0100
0001
1000
,
0200
0000
0000
0300
,
1000
0100
0010
0001
1000
0001
0100
0010
1000
0001
1000
0010
1000
0001
0010
0100
,
1000
0001
0100
0010
1000
0001
0010
0100
0010
0001
1000
0100
0010
0100
1000
0001
,
1000
0010
0100
0010
1000
0001
0100
0001
1000
0100
0010
0001
1000
0100
1000
0001
,
1000
0010
0100
0010
1000
0001
0100
0001
1000
0100
1000
0001
0010
0001
1000
0001
,
1000
0010
0100
0001
1000
0001
0010
0100
1000
0001
1000
0100
1000
0001
0100
0010
,
1000
0001
0010
0100
1000
0001
0100
0010
0100
0001
1000
0010
0100
0010
1000
0001
,
1000
0100
0010
0100
1000
0001
0010
0001
1000
0010
0100
0001
1000
0010
1000
0001
,
0100
0010
0100
0010
1000
0001
1000
0001
0010
0100
0010
0100
1000
0001
1000
0001
,
0010
0100
0010
0001
1000
0001
0100
0010
1000
0001
0100
0001
1000
0001
0100
0001
,
1000
0100
0010
0100
1000
0001
1000
0100
0010
0001
1000
0001
0100
0010
0100
0001
,
1000
0100
0010
0100
1000
0001
0010
0001
1000
0010
0100
0010
1000
0001
1000
0010
,
1000
0001
0010
0100
1000
0001
0010
0001
1000
0001
1000
0010
0100
0001
0100
0010
,
1000
0001
1000
0001
0100
0010
1000
0001
1000
0001
0100
0010
1000
0001
0010
0100
,
1000
0001
0100
0010
0100
0001
1000
0100
0010
0100
1000
0001
1000
0010
0100
0001
,
1000
0100
1000
0001
0010
0001
1000
0010
1000
0001
0100
0001
1000
0100
1000
0001
,
0010
0001
1000
0010
1000
0001
0100
0001
1000
0100
0010
0001
1000
0100
0010
0001
,
1000
0010
0100
0001
1000
0001
0010
0100
1000
0001
1000
0100
1000
0001
0100
0010
,
1000
0001
0010
0100
1000
0001
0100
0010
0100
0001
1000
0010
0100
0010
1000
0001
,
1000
0100
0010
0100
1000
0001
0010
0001
1000
0010
0100
0001
1000
0010
1000
0001
,
1000
0100
0010
0100
1000
0001
0010
0001
1000
0010
1000
0001
0100
0001
1000
0001
,
1000
0100
0010
0001
1000
0001
0100
0010
1000
0001
1000
0010
1000
0001
0010
0100
,
1000
0001
0100
0010
1000
0001
0010
0100
0010
0001
1000
0100
0010
0100
1000
0001
,
1000
0010
0100
0010
1000
0001
0100
0001
1000
0100
0010
0001
1000
0100
1000
0001
,
0010
0100
0010
0100
1000
0001
1000
0001
0100
0010
0100
0010
1000
0001
1000
0001
,
0010
0100
0010
0001
1000
0001
0100
0010
1000
0001
0100
0001
1000
0001
0100
0001
,
1000
0100
0010
0100
1000
0001
1000
0100
0010
0001
1000
0001
0100
0010
0100
0001
,
1000
0100
0010
0100
1000
0001
0010
0001
1000
0010
0100
0010
1000
0001
1000
0010
,
1000
0001
0010
0100
1000
0001
0010
0001
1000
0001
1000
0010
0100
0001
0100
0010
,
1000
0001
1000
0001
0100
0010
1000
0001
1000
0001
0100
0010
1000
0001
0010
0100
,
1000
0001
0100
0010
0100
0001
1000
0100
0010
0100
1000
0001
1000
0010
0100
0001
,
1000
0010
1000
0001
0100
0001
1000
0100
0010
0001
1000
0010
0100
0001
1000
0001
,
0010
0100
0010
0100
1000
0001
1000
0001
0100
0010
0100
0010
1000
0001
0010
0001
,
1000
0100
1000
0010
0100
0001
0010
0001
0100
0010
1000
0100
0010
0001
0100
0010
,
0100
0001
0010
0100
1000
0010
1000
0100
0020
0000
0000
0000
0030
0000
0000
0000
,
1001
0000
2002
0000
,
0000
0000
0000
0000
,
0000
0000
0000
0000
,
0000
0000
0000
0000
,
0000
0000
0000
3003
0000
0000
0000
0000
;

//---------------dance-single - Zaia - 16.2----------------
#NOTES:
     dance-single:
     Zaia - 16.2:
     Hard:
     16:
     1.000,1.000,0.136,0.228,1.000,3383.000,47.000,79.000,0.000,0.000:
0000
0000
0000
0000
,
1000
0000
0001
0000
1000
0100
1000
0000
0001
0000
0100
0000
0010
1000
0010
0000
,
0100
0000
0001
0000
0010
0100
0010
0000
0001
0000
1000
0000
0010
0000
0000
0000
,
0100
0000
0001
0000
1000
0010
1000
0000
0001
0000
0010
0000
0100
1000
0100
0000
,
1000
0002
0103
0020
1030
0200
0320
0000
,
0031
0000
1000
0000
0100
1000
0100
0000
0010
0000
0001
0000
1000
0010
1000
0000
,
0100
0000
0010
0000
0001
1000
0001
0000
0100
0000
0010
0000
0100
0001
0100
0000
,
0010
1000
0100
1000
0010
0100
0001
0010
,
0001
0010
0100
1000
0001
0100
0010
1000
0001
1000
0100
1000
0001
0100
0010
1000
,
0001
0100
0001
0010
0001
1000
0010
0100
0001
1000
0100
1000
0001
0010
0100
1000
,
0001
0100
0010
1000
0001
1000
0010
1000
0001
0010
0100
1000
0002
0000
0000
0000
,
0103
0010
0100
0001
1000
0100
1000
0001
0010
0001
1000
0010
0100
0001
1000
0100
,
1000
0010
0100
0001
0010
0100
1000
0010
0100
0001
0010
0100
2000
0000
0000
0000
,
3001
0100
0010
1000
0010
0100
0001
1000
0100
1000
0001
0010
0100
1000
0001
1000
,
0010
0100
0010
1000
0001
0010
0001
1000
0100
1000
0001
0100
0020
0000
0000
0000
,
1030
0001
0100
0010
0100
0001
1000
0100
0010
0001
0010
0100
1000
0001
0100
0010
,
1000
0001
1000
0001
0010
0100
0010
0100
1000
0001
1000
0001
0100
0010
0100
0010
,
1000
0000
0000
0000
,
0000
0000
1001
0000
,
0001
0000
1000
0000
0010
0100
0010
0000
1000
0000
0001
0000
1000
0100
1000
0000
,
0001
0000
0100
0000
0010
1000
0010
0000
0100
0000
0001
0000
0010
0100
0010
0000
,
0001
0000
1000
0000
0001
0100
0001
0000
1000
0000
0100
0000
0010
0001
0010
0000
,
0001
0000
0100
0000
0010
1000
0010
0000
0100
0000
0001
0000
1000
0010
1000
0000
,
0001
0000
0010
0000
0100
0010
0100
0000
1000
0000
0001
0000
0100
0001
0100
0000
,
0010
0000
1000
0000
0001
0010
0001
0000
0100
0000
0010
0000
1000
0001
1000
0000
,
0010
0100
0010
0100
0001
0100
0001
0100
,
0010
1000
0001
0010
0001
1000
0100
1000
0001
1000
0010
0100
0001
0100
0010
1000
,
0001
0000
0010
0100
0010
0000
0001
0000
0100
0010
0100
0000
0001
0000
1000
0000
,
0100
1000
0100
0000
1000
0000
0001
0000
0100
0001
0100
0000
0010
0000
1000
0000
,
0001
0000
0100
0010
0100
0000
0001
0000
0010
0100
0010
0000
0001
0000
1000
0000
,
0010
1000
0010
0000
1000
0000
0001
0000
0010
0001
0010
0000
0100
0000
1000
0000
,
0001
0100
0001
0000
1000
0000
0001
0010
0001
0000
0100
0000
0010
0000
1000
0000
,
0100
0010
0100
0000
0010
0000
0001
0000
0100
0010
0100
0000
0001
0000
1000
0000
,
0002
0000
2003
0000
,
3001
0010
0001
0010
0100
0010
0001
1000
0001
1000
0010
0100
0001
1000
0100
0010
,
0001
1000
0010
0100
0010
1000
0001
0010
0100
1000
0001
0100
0001
1000
0100
1000
,
0001
0100
0001
1000
0100
0010
0100
1000
0001
0100
0010
1000
0001
0010
0001
1000
,
0010
0100
0001
0010
0001
1000
0100
0010
0001
1000
0010
1000
0001
0010
0001
1000
,
0010
0100
0001
0100
0010
0100
0001
0100
0010
0000
0000
0000
0000
0000
0000
0000
,
1000
0001
0010
0100
0010
0001
1000
0010
0100
0001
1000
0100
1000
0001
0100
0001
,
1000
0100
1000
0001
0100
0010
0100
0001
1000
0100
0010
0001
1000
0010
1000
0001
,
0010
0100
1000
0010
1000
0001
0100
0010
1000
0001
0010
0001
1000
0010
1000
0001
,
0020
0000
0000
0030
,
0001
0000
1000
0000
0100
1000
0100
0000
0010
0000
0001
0000
1000
0010
1000
0000
,
0001
0000
0100
0000
0010
0100
0010
0000
1000
0000
0001
0000
1000
0100
1000
0000
,
0001
0000
0010
0000
0001
0100
0001
0000
1000
0000
0100
0000
1000
0001
1000
0000
,
0010
0000
0100
0000
0010
1000
0010
0000
0100
0000
0001
0000
1000
0100
1000
0000
,
0010
0000
0100
0000
0001
1000
0001
0000
0010
0000
0100
0000
0010
0001
0010
0000
,
0001
0000
1000
0000
0010
1000
0010
0000
0100
0000
0001
0000
1000
0100
1000
0000
,
0010
0000
1000
0000
0001
0010
0001
0000
0100
0000
0010
0000
1000
0001
1000
0000
,
0010
0100
0010
0100
0001
1000
0001
1000
0100
0010
0100
0010
0001
1000
0001
1000
,
0100
0000
0010
0000
0001
0100
0001
0000
0010
0000
0001
0000
1000
0010
1000
0000
,
0100
0000
1000
0000
0001
0100
0001
0000
1000
0000
0010
0000
0100
0010
0100
0000
,
0001
0000
1000
0000
0100
0010
0100
0000
1000
0000
0001
0000
0010
0001
0010
0000
,
0100
0000
1000
0000
0010
0100
0010
0000
1000
0000
0001
0000
1000
0100
1000
0000
,
0010
0000
0100
0000
0001
0010
0001
0000
1000
0000
0001
0000
1000
0100
1000
0000
,
0001
0000
0100
0000
0010
1000
0010
0000
0100
0000
0001
0000
1000
0100
1000
0000
,
0001
0010
0001
1000
0100
1000
0001
0100
0001
1000
0010
1000
0001
0010
0001
1000
,
0100
1000
0001
0100
0001
1000
0010
1000
0001
0010
0100
1000
0001
0010
0100
1000
,
0001
0100
0010
1000
0001
1000
0100
0010
0001
1000
0001
0010
0001
1000
0010
0100
,
0001
1000
0100
0010
0001
1000
0010
0100
0010
1000
0001
0100
0010
0100
0001
1000
,
0001
0010
0100
0010
0001
1000
0100
1000
0001
0100
0010
1000
0001
0100
0001
1000
,
0002
0000
2003
0000
,
3001
0010
0100
1000
0001
1000
0010
0100
0001
1000
0001
0100
0001
1000
0100
0010
,
0001
1000
0010
0100
0001
1000
0100
0010
0100
1000
0001
0010
0100
0010
0001
1000
,
0001
0100
0010
0100
0001
1000
0010
1000
0001
0010
0100
1000
0001
0010
0001
1000
,
0100
0010
0100
0010
0001
1000
0001
1000
0010
0100
0010
0100
0001
1000
0001
1000
,
0100
0010
0100
1000
0001
1000
0010
0100
0001
1000
0010
1000
0001
1000
0010
1000
,
0001
0010
0100
0010
0001
1000
0001
0010
0100
1000
0001
1000
0010
0100
0010
1000
,
0001
0010
0100
0010
0001
1000
0100
1000
0001
0100
0010
0100
0001
1000
0001
0100
,
0001
1000
0100
0010
0001
1000
0100
1000
0001
1000
0001
0100
0010
1000
0010
0100
,
0001
1000
0001
1000
0010
0100
0001
1000
0001
1000
0010
0100
0001
1000
0100
0010
,
0001
1000
0010
0100
0010
1000
0001
0010
0100
0010
0001
1000
0001
0100
0010
1000
,
0001
0100
0001
1000
0010
1000
0001
0010
0100
1000
0001
0100
0010
1000
0001
1000
,
0100
0010
0100
0010
0001
1000
0001
1000
0010
0100
0010
0100
0001
1000
0100
1000
,
0001
0010
0001
0100
0010
1000
0100
1000
0010
0100
0001
0010
0100
1000
0010
0100
,
0010
1000
0100
0010
0001
0100
0001
0010
0200
0000
0000
0000
0300
0000
0000
0000
,
1001
0000
0000
0000
0000
0000
0000
0000
0001
0000
1000
0000
0001
0010
0001
0000
,
1000
0000
0010
0000
0100
0001
0100
0000
0010
0000
1000
0000
0100
0010
0100
0000
,
1000
0000
0001
0000
0100
0000
0000
0000
0010
0000
1000
0000
0001
0100
0001
0000
,
1000
0000
0100
0000
0010
0001
0010
0000
0001
0000
2000
0000
3010
0000
0200
0000
,
0301
0000
0020
0000
0230
0000
0000
0000
1300
0000
0001
0000
0010
0001
0010
0000
,
0100
0000
1000
0000
0001
0100
0001
0000
0010
0000
0100
0000
1000
0000
0010
0000
,
1000
0100
0020
0000
0031
1000
0100
1000
,
0010
0000
0100
0000
0001
0000
0010
0000
0001
0100
0010
1000
0001
0010
0100
1000
,
0001
1000
0010
1000
0002
0000
0000
0000
1003
0100
1000
0010
1000
0001
0010
0100
,
1000
0001
0100
0001
1000
0010
0100
0001
1000
0100
0010
0001
1000
0001
0010
0001
,
1000
0010
0100
0001
2000
0000
0000
0000
3100
0010
0100
1000
0001
0100
0001
1000
,
0010
1000
0001
0010
0100
1000
0001
0100
0001
0010
0100
1000
0010
0100
0001
0010
,
0100
1000
0010
0100
0002
0000
0000
0000
1003
0100
0010
0001
0010
0100
1000
0001
,
0100
0001
1000
0010
0100
0001
1000
0001
0010
0100
0010
0001
1000
0010
1000
0001
,
0100
0001
1000
0100
0020
0000
0030
0000
0001
1000
0100
0010
0100
1000
0001
0100
,
0010
1000
0010
0100
0001
1000
0100
0010
0001
1000
0001
1000
0010
0100
0010
0100
,
0001
1000
0001
1000
0100
0010
0100
0010
0001
0000
0000
0000
0000
0000
0000
0000
,
0000
0000
0000
0000
,
1001
0000
0000
0000
0000
0000
0000
0000
1000
0000
0001
0000
0010
0100
0010
0000
,
0001
0000
1000
0000
0001
0100
0001
0000
1000
0000
0100
0000
0010
0001
0010
0000
,
0100
0000
1000
0000
0010
0100
0010
0000
1000
0000
0001
0000
1000
0100
1000
0000
,
0001
0000
0100
0000
0010
1000
0010
0000
1000
0000
0100
0000
0010
0001
0010
0000
,
0100
0000
1000
0000
0001
0010
0001
0000
1000
0000
0010
0000
0100
0010
0100
0000
,
0001
0000
1000
0000
0100
1000
0100
0000
0010
0000
0001
0000
1000
0010
1000
0000
,
0100
0000
0010
0000
0001
1000
0001
0000
0010
0000
0100
0000
0010
0000
0100
0000
,
1000
0000
0100
0000
1000
0000
0100
0000
0010
0001
1000
0010
1000
0001
0100
0001
,
1000
0001
0010
0100
1000
0100
0010
0001
1000
0000
0010
0100
0010
0000
1000
0000
,
0100
0010
0100
0000
1000
0000
0001
0000
0100
0001
0100
0000
0001
0000
1000
0000
,
0100
1000
0100
0000
0010
0000
0001
0000
1000
0000
0100
0010
0100
0000
1000
0000
,
0010
0100
0010
0000
1000
0000
0001
0000
0010
0001
0010
0000
0001
0000
1000
0000
,
0010
1000
0010
0000
0100
0000
0001
0000
1000
0100
1000
0000
0001
0000
1000
0010
,
1000
0000
0100
0000
0010
0000
0001
0000
0100
0010
0100
0000
0010
0000
1000
0000
,
0100
0010
0100
0000
1000
0000
0001
0000
2000
0000
0000
0000
0000
0000
0000
0000
,
3002
0000
0000
0000
0000
0000
0000
0000
1003
0010
1000
0010
0100
0010
1000
0001
,
1000
0001
0010
0100
1000
0001
0100
0010
1000
0001
0010
0100
0010
0001
1000
0010
,
0100
0001
1000
0100
1000
0001
0100
0001
1000
0100
1000
0001
0100
0010
0100
0001
,
1000
0100
0010
0001
1000
0010
1000
0001
0010
0100
1000
0010
1000
0001
0100
0010
,
1000
0001
0010
0001
1000
0010
1000
0001
0100
0010
1000
0010
0100
0010
1000
0010
,
0100
0000
0000
0000
0000
0000
0000
0000
0001
1000
0010
0100
0010
1000
0001
0010
,
0100
1000
0001
0100
0001
1000
0100
1000
0001
0100
0001
1000
0100
0010
0100
1000
,
0001
0100
0010
1000
0001
0010
0001
1000
0010
0100
0001
0010
0001
1000
0100
0010
,
0001
1000
0010
1000
0001
0010
0001
1000
0020
0000
0000
0000
0000
0000
0000
0000
,
0000
0000
0030
0000
0000
0000
0000
0000
1000
0000
0001
0000
0100
0001
0100
0000
,
0010
0000
1000
0000
0001
0010
0001
0000
1000
0000
0100
0000
0010
0100
0010
0000
,
0001
0000
1000
0000
0001
0100
0001
0000
1000
0000
0010
0000
1000
0100
1000
0000
,
0001
0000
0100
0000
0001
1000
0001
0000
0010
0000
0100
0000
0010
0001
0010
0000
,
0100
0000
1000
0000
0001
0100
0001
0000
0010
0000
0100
0000
1000
0001
1000
0000
,
0010
0000
0100
0000
0010
1000
0010
0000
1000
0000
0001
0000
0010
0001
0010
0000
,
0100
0000
1000
0000
0001
0100
0001
0000
0010
0000
0001
0000
1000
0010
1000
0000
,
0100
0000
0010
0000
0001
1000
0001
0000
0010
0100
0010
0100
1000
0001
1000
0001
,
0100
0010
0100
0010
1000
0001
1000
0001
0100
0000
0010
0000
1000
0100
1000
0000
,
0010
0000
1000
0000
0001
0010
0001
0000
0100
0000
0001
0000
1000
0100
1000
0000
,
0001
0000
0010
0000
0100
0010
0100
0000
1000
0000
0001
0000
0100
0010
0100
0000
,
0001
0000
1000
0000
0010
1000
0010
0000
0100
0000
0001
0000
0010
0100
0010
0000
,
0001
0000
1000
0000
0001
0100
0001
0000
0010
0000
0100
0000
1000
0010
1000
0000
,
0001
0000
1000
0000
0001
0100
0001
0000
1000
0000
0100
0000
0010
0001
0010
0000
,
0100
0000
1000
0000
0001
0100
0001
0000
1000
0010
1000
0001
0100
0001
1000
0100
,
1000
0001
0010
0001
1000
0010
1000
0001
0100
0001
1000
0100
1000
0001
0010
0001
,
1000
0010
0100
0001
1000
0010
0100
0001
1000
0100
0010
0001
1000
0001
0100
0010
,
1000
0001
1000
0010
1000
0001
0010
0100
1000
0001
0100
0010
1000
0001
0010
0100
,
0010
0001
1000
0100
0010
0100
1000
0001
1000
0010
0100
0010
1000
0001
0100
0001
,
1000
0100
0010
0001
1000
0100
1000
0001
2000
0000
0000
0000
0000
0000
0000
0000
,
3002
0000
0000
0000
0000
0000
0000
0000
1003
0010
0100
0001
1000
0001
0010
0100
,
1000
0001
1000
0100
1000
0001
0100
0010
1000
0001
0010
0100
1000
0001
0100
0010
,
0100
0001
1000
0010
0100
0010
1000
0001
1000
0100
0010
0100
1000
0001
0010
0001
,
1000
0010
0100
0001
1000
0010
1000
0001
0100
0010
0100
0010
1000
0001
1000
0001
,
0010
0100
0010
0100
1000
0001
1000
0001
0100
0010
0100
0001
1000
0001
0010
0100
,
1000
0001
0010
0001
1000
0001
0010
0001
1000
0010
0100
0010
1000
0001
1000
0010
,
0100
0001
1000
0001
0010
0100
0010
0001
1000
0010
0100
0010
1000
0001
0100
0001
,
1000
0100
0010
0100
1000
0001
1000
0100
1000
0001
0100
0010
1000
0001
0100
0001
,
1000
0001
1000
0100
0010
0001
0010
0100
1000
0001
1000
0001
0010
0100
1000
0001
,
1000
0001
0010
0100
1000
0001
0100
0010
1000
0001
0010
0100
0010
0001
1000
0010
,
0100
0010
1000
0001
1000
0100
0010
0001
1000
0100
1000
0001
0010
0001
1000
0010
,
0100
0001
1000
0100
0010
0001
1000
0001
0100
0010
0100
0010
1000
0001
1000
0001
,
0010
0100
0010
0100
1000
0001
0100
0001
1000
0010
1000
0100
0010
0001
0100
0001
,
0010
0100
1000
0010
0100
0001
0010
0100
0010
0001
0100
0010
1000
0100
1000
0010
,
0200
0300
1010
0000
,
2002
0000
0000
0000
,
0000
0000
0000
0000
,
0000
0000
0000
0000
,
0000
0000
0000
0000
0000
0000
0000
3003
,
2002
0000
0000
0000
,
0000
0000
0000
0000
,
0000
0000
0000
0000
,
0000
0000
0000
0000
0000
0000
0000
3003
,
2002
0000
0000
0000
,
0000
0000
0000
0000
,
0000
0000
0000
0000
,
0000
0000
0000
0000
0000
0000
0000
3003
,
2002
0000
0000
0000
,
0000
0000
0000
3003
,
1001
0001
0100
0110
0010
1000
1010
0001
,
1001
1000
0100
0110
0010
0100
1000
0001
,
0101
0100
0010
1000
1010
0010
1000
0001
,
0011
0010
0100
1000
1100
0100
0010
0001
,
1001
1000
0001
0100
0101
0001
1000
0100
,
1100
1000
0100
0010
0011
0001
0100
0010
,
1010
1000
0001
1000
1010
0010
0100
0001
,
0010
0000
0011
0010
0100
0000
1100
1000
,
0010
0000
0110
0100
0001
0000
1001
1000
,
0100
0000
0110
0010
0001
1000
0001
1000
,
1010
0010
0100
0001
0101
0100
0010
1000
,
1001
0001
0010
0100
1100
1000
0100
0010
,
0110
0100
1000
0010
0110
0100
0001
1000
,
1010
0010
0100
0001
1001
1000
0100
0010
,
0011
1001
1000
0010
0110
0000
0101
0000
,
0000
1001
1100
0100
0110
0001
1000
0010
,
1010
1000
0001
0100
0110
0010
1000
0001
,
1000
0100
0010
0100
1000
0010
0100
0001
,
1000
0000
0001
0000
0100
0001
0100
0000
0001
0000
1000
0000
0100
1000
0100
0000
,
1000
0000
0001
0000
1000
0010
1000
0000
0001
0000
1000
0000
0001
0010
0001
0000
,
1000
0010
0100
0001
1000
0000
0001
0000
0100
0000
0010
0000
0100
0000
0001
0000
,
0020
0000
0000
0000
,
0230
2300
3020
0230
0300
0200
0300
0002
,
0203
0320
2030
3002
0003
0002
0003
0020
,
0130
1000
0001
0100
0010
1000
0100
0010
0100
1000
0001
0100
0010
0100
0001
1000
,
0100
0010
0100
0010
0001
1000
0001
1000
0010
0100
0010
0100
0001
0100
0010
1000
,
0001
0010
0100
1000
0001
1000
0010
1000
0001
0010
0100
0010
0001
1000
0010
0100
,
0010
1000
0001
0010
0001
1000
0001
0100
0010
0100
0001
1000
0100
0010
0001
1000
,
0001
0100
0010
1000
0001
1000
0100
0010
0001
1000
0010
1000
0001
0010
0100
0010
,
0001
0100
0010
1000
0001
0010
0100
1000
0001
0100
0010
1000
0002
0000
0000
0000
,
1003
0010
0100
0001
0010
0001
1000
0010
1000
0100
0010
0001
0100
0001
1000
0001
,
0010
0100
0010
0001
1000
0100
1000
0010
1000
0001
0100
0010
1000
0001
1000
0100
,
0010
0001
1000
0010
1000
0001
0010
0001
1000
0100
0010
0001
1000
0010
0100
0001
,
1000
0001
0100
0010
1000
0001
0100
0001
1000
0100
1000
0001
1000
0000
0000
0000
,
0001
0100
0010
1000
0100
0010
0001
1000
0001
1000
0010
1000
0001
0010
0001
0100
,
0010
1000
0010
0100
0001
1000
0100
0010
0001
1000
0100
1000
0010
0100
0001
1000
,
0100
0010
0001
0010
0100
0010
0001
0010
0100
1000
0001
1000
0100
1000
0001
1000
,
0100
0010
0001
0200
0000
0000
0300
0000
,
0001
0010
0001
0100
0000
0010
1000
0001
,
0010
0000
0100
0010
0001
0000
2000
0000
0000
0000
3010
0000
0100
0000
0001
0000
,
0010
0100
1000
0001
1000
0001
0100
0010
1000
0001
1000
0001
0010
0100
1000
0001
,
1000
0010
0100
0001
1000
0100
0010
0001
1000
0010
0100
0001
1000
0001
0100
0010
,
1000
1000
0010
0200
0000
0301
0020
0000
,
0130
0100
1000
0002
0000
0103
0020
0000
,
1030
1000
0001
0020
0000
0031
0100
0020
,
0000
1030
0100
0020
0000
0032
0000
0003
,
1000
0010
1000
0001
0100
0001
1000
0001
0010
0100
0010
0001
1000
0100
1000
0001
,
1000
0010
0100
0001
1000
0001
0100
0010
1000
0001
0010
0001
1000
0100
1000
0001
,
1000
0010
0100
0010
1000
0001
0010
0100
1000
0001
0100
0001
1000
0100
1000
0001
,
0100
0010
1000
0100
1000
0001
0010
0001
0100
0001
1000
0100
1000
0010
1000
0001
,
0100
0010
1000
0010
0100
0001
0100
0010
1000
0001
1000
0100
0010
0001
1000
0100
,
1000
0010
0100
0001
1000
0001
0100
0010
1000
0100
0010
0100
1000
0001
0010
0100
,
1000
0010
0100
0001
1000
0010
0100
0001
0010
0100
0010
0001
1000
0100
1000
0001
,
1000
0010
0100
0010
1000
0010
0100
0010
1000
0001
0100
0010
1000
0001
0100
0010
,
1000
0001
1000
0100
1000
0001
0010
0100
1000
0001
1000
0010
0100
0001
1000
0010
,
1000
0100
0010
0001
1000
0001
0010
0100
1000
0010
0100
0010
1000
0001
0100
0010
,
1000
0100
1000
0001
1000
0100
0010
0001
0100
0010
0100
0001
1000
0010
1000
0001
,
0010
0100
0010
0100
1000
0001
1000
0001
0100
0010
0100
0010
1000
0001
1000
0001
,
0100
0000
0010
0000
1000
0010
1000
0000
0001
0000
0010
0000
0100
1000
0100
0000
,
1000
0000
0001
0000
0100
0010
0100
0000
0001
0000
1000
0000
0010
1000
0010
0000
,
0100
0000
0001
0000
0010
0100
0010
0000
0001
0000
1000
0000
0001
0010
0001
0000
,
0010
0000
0100
0000
1000
0001
1000
0000
0010
0000
0100
0000
0001
0100
0001
0000
,
1000
0010
0100
0001
1000
0100
1000
0001
1000
0010
0100
0001
1000
0100
1000
0001
,
0010
0100
1000
0001
0010
0001
0100
0010
1000
0001
1000
0100
0010
0001
1000
0001
,
1000
0010
0100
0001
0010
0100
1000
0001
1000
0010
0100
0001
0010
0100
1000
0001
,
0100
0010
0100
0010
1000
0001
1000
0001
0010
0100
0010
0100
1000
0001
1000
0001
,
0200
0000
0000
0000
0000
0000
0000
0000
0000
0000
0000
0000
0320
0000
0000
0000
0000
0000
0000
0000
0000
0000
0000
0030
1000
0000
0000
0000
0010
0000
0000
0000
,
0200
0000
0000
0302
0000
0000
2003
0000
,
3200
0000
0000
0320
0000
0000
0032
0000
,
2003
0000
0000
0000
,
3002
0000
0000
0000
0000
0000
0013
0100
,
2000
0000
0000
3002
0000
0000
0203
0000
,
0301
1000
0001
1000
0010
0100
0010
0100
0001
1000
0001
1000
0100
0010
0100
0010
,
0001
1000
0001
1000
0010
0100
0010
0100
0001
1000
0100
0010
0001
1000
0100
0010
,
0001
0000
1000
0000
0010
0100
0010
0000
1000
0000
0001
0000
1000
0100
1000
0000
,
0001
0000
0100
0000
0010
1000
0010
0000
0100
0000
0001
0000
0010
0100
0010
0000
,
0001
0000
1000
0000
0001
0100
0001
0000
1000
0000
0100
0000
0010
0001
0010
0000
,
0001
0000
0100
0000
0010
1000
0010
0000
0100
0000
0001
0000
1000
0010
1000
0000
,
0001
0000
0010
0000
0100
0010
0100
0000
1000
0000
0001
0000
0100
0001
0100
0000
,
0010
0000
1000
0000
0001
0010
0001
0000
0100
0000
0010
0000
1000
0001
1000
0000
,
0010
0100
0010
0100
0001
0100
0001
0100
,
0010
1000
0001
0010
0001
1000
0100
1000
0001
1000
0010
0100
0001
0100
0010
1000
,
0001
0100
0001
1000
0100
0010
0100
1000
0001
1000
0010
1000
0001
0100
0010
1000
,
0001
1000
0001
0010
0100
1000
0001
1000
0010
0100
0010
1000
0001
0010
0001
1000
,
0100
1000
0001
0100
0010
1000
0001
0010
0001
1000
0010
1000
0001
0100
0010
0100
,
0001
1000
0001
1000
0100
0010
0001
1000
0001
1000
0010
0100
0001
1000
0100
0010
,
0001
1000
0010
1000
0001
0010
0100
1000
0001
0100
0010
0100
0001
1000
0100
1000
,
0001
0100
0001
0100
0010
1000
0001
0100
0001
0100
0010
1000
0001
0010
0100
0010
,
0001
1000
0001
1000
0100
0010
0100
0010
,
0001
0010
0001
0010
0100
0010
0001
1000
0001
1000
0010
0100
0001
1000
0100
0010
,
0001
1000
0010
0100
0010
1000
0001
0010
0100
1000
0001
0100
0001
1000
0100
1000
,
0001
0100
0001
1000
0100
0010
0100
1000
0001
0100
0010
1000
0001
0010
0001
1000
,
0010
0100
0001
0010
0001
1000
0100
0010
0001
1000
0010
1000
0001
0010
0001
1000
,
0010
0100
0001
0100
0010
0100
0001
0100
0010
0000
0000
0000
0000
0000
0000
0000
,
1000
0001
0010
0100
0010
0001
1000
0010
0100
0001
1000
0100
1000
0001
0100
0001
,
1000
0100
1000
0001
0100
0010
0100
0001
1000
0100
0010
0001
1000
0010
1000
0001
,
0010
0100
1000
0010
1000
0001
0100
0010
1000
0001
0010
0001
1000
0010
1000
0001
,
0020
0000
0000
0030
,
0001
0000
1000
0000
0010
1000
0010
0000
0100
0000
0001
0000
1000
0100
1000
0000
,
0001
0000
0010
0000
0100
0010
0100
0000
1000
0000
0001
0000
1000
0010
1000
0000
,
0001
0000
0100
0000
0001
0010
0001
0000
1000
0000
0010
0000
1000
0001
1000
0000
,
0100
0000
0010
0000
0100
1000
0100
0000
0010
0000
0001
0000
1000
0010
1000
0000
,
0100
0000
0010
0000
0001
1000
0001
0000
0100
0000
0010
0000
0100
0001
0100
0000
,
0001
0000
1000
0000
0100
1000
0100
0000
0010
0000
0001
0000
1000
0010
1000
0000
,
0100
0000
1000
0000
0001
0100
0001
0000
0010
0000
0100
0000
1000
0001
1000
0000
,
0100
0010
0100
0010
0001
1000
0001
1000
0010
0100
0010
0100
0001
1000
0001
1000
,
0010
0000
0100
0000
0001
0010
0001
0000
0100
0000
0001
0000
1000
0100
1000
0000
,
0010
0000
1000
0000
0001
0010
0001
0000
1000
0000
0100
0000
0010
0100
0010
0000
,
0001
0000
1000
0000
0010
0100
0010
0000
1000
0000
0001
0000
0100
0001
0100
0000
,
0010
0000
1000
0000
0100
0010
0100
0000
1000
0000
0001
0000
1000
0010
1000
0000
,
0100
0000
0010
0000
0001
0100
0001
0000
1000
0000
0001
0000
1000
0010
1000
0000
,
0001
0000
0010
0000
0100
1000
0100
0000
0010
0000
0001
0000
1000
0010
1000
0000
,
0001
0100
0001
1000
0010
1000
0001
0010
0001
1000
0100
1000
0001
0100
0001
1000
,
0010
1000
0001
0010
0001
1000
0100
1000
0001
0100
0010
1000
0001
0100
0010
1000
,
0001
0010
0100
1000
0001
1000
0010
0100
0001
1000
0001
0100
0001
1000
0100
0010
,
0001
1000
0010
0100
0001
1000
0100
0010
0100
1000
0001
0010
0100
0010
0001
1000
,
0001
0100
0010
0100
0001
1000
0010
1000
0001
0010
0100
1000
0001
0010
0001
1000
,
0002
0000
2003
0000
,
3001
0100
0010
1000
0001
1000
0100
0010
0001
1000
0001
0010
0001
1000
0010
0100
,
0001
1000
0100
0010
0001
1000
0010
0100
0010
1000
0001
0100
0010
0100
0001
1000
,
0001
0010
0100
0010
0001
1000
0100
1000
0001
0100
0010
1000
0001
0100
0001
1000
,
0010
0100
0010
0100
0001
1000
0001
1000
0100
0010
0100
0010
0001
1000
0001
1000
,
0010
0100
0010
1000
0001
1000
0100
0010
0001
1000
0100
1000
0001
1000
0100
1000
,
0001
0100
0010
0100
0001
1000
0001
0100
0010
1000
0001
1000
0100
0010
0100
1000
,
0001
0100
0010
0100
0001
1000
0010
1000
0001
0010
0100
0010
0001
1000
0001
0010
,
0001
1000
0010
0100
0001
1000
0010
1000
0001
1000
0001
0010
0100
1000
0100
0010
,
0001
1000
0001
1000
0100
0010
0001
1000
0001
1000
0100
0010
0001
1000
0010
0100
,
0001
1000
0100
0010
0100
1000
0001
0100
0010
0100
0001
1000
0001
0010
0100
1000
,
0001
0010
0001
1000
0100
1000
0001
0100
0010
1000
0001
0010
0100
1000
0001
1000
,
0010
0100
0010
0100
0001
1000
0001
1000
0100
0010
0100
0010
0001
1000
0010
1000
,
0001
0100
0001
0010
0100
1000
0010
1000
0100
0010
0001
0100
0010
1000
0100
0010
,
0100
1000
0010
0100
0001
0010
0001
0100
0020
0000
0000
0000
0030
0000
0000
0000
,
1001
0000
2002
0000
,
0000
0000
0000
0000
,
0000
0000
0000
0000
,
0000
0000
0000
0000
,
0000
0000
0000
3003
0000
0000
0000
0000
;
